osu file format v14

[General]
AudioFilename: audio.mp3
AudioLeadIn: 0
PreviewTime: 95393
Countdown: 0
SampleSet: Soft
StackLeniency: 0.2
Mode: 0
LetterboxInBreaks: 0
WidescreenStoryboard: 1

[Editor]
Bookmarks: 15773,23453,38813,54173,73373,81053,96413,111773,117773,119453,134813,150173,169373,177053,192413,207773,223133,238493
DistanceSpacing: 1.2
BeatDivisor: 8
GridSize: 4
TimelineZoom: 1.3

[Metadata]
Title:BOOMBAYAH
TitleUnicode:붐바야
Artist:BLACKPINK
ArtistUnicode:BLACKPINK
Creator:Natsu
Version:Normal
Source:
Tags:k-pop kpop 블핑 블랙핑크 SQUARE ONE 지수 JISOO 제니 JENNIE 로제 ROSÉ 리사 LISA YG ENTERTAINMENT nekomata Irreversible Euny Collab
BeatmapID:1108756
BeatmapSetID:500858

[Difficulty]
HPDrainRate:3
CircleSize:3
OverallDifficulty:3
ApproachRate:5
SliderMultiplier:0.89999990463257
SliderTickRate:1

[Events]
//Background and Video events
0,0,"687474703a2f2f692e696d6775722e636f6d2f7841444656656b2e6a7067.jpg",0,0
Video,-1603,"boomba.flv"
//Break Periods
2,111773,116573
//Storyboard Layer 0 (Background)
//Storyboard Layer 1 (Fail)
//Storyboard Layer 2 (Pass)
//Storyboard Layer 3 (Foreground)
//Storyboard Sound Samples

[TimingPoints]
15773,480,4,2,1,60,1,0
20933,-100,4,2,1,25,0,0
22973,-100,4,2,1,100,0,1
23453,-100,4,2,1,60,0,0
30653,-100,4,2,1,100,0,0
31133,-100,4,2,1,50,0,0
37853,-100,4,2,1,25,0,0
38333,-100,4,2,1,100,0,1
38813,-100,4,2,1,60,0,0
42173,-100,4,2,1,100,0,0
42653,-100,4,2,1,60,0,0
73373,-100,4,2,1,70,0,0
78653,-100,4,2,1,100,0,1
79133,-100,4,2,1,5,0,0
80093,-100,4,2,1,25,0,0
80573,-100,4,2,1,100,0,1
81053,-100,4,2,1,60,0,0
84413,-100,4,2,1,100,0,1
84653,-100,4,2,1,70,0,1
85133,-100,4,2,1,10,0,0
85373,-100,4,2,1,60,0,0
88253,-100,4,2,1,100,0,1
88493,-100,4,2,1,70,0,1
88973,-100,4,2,1,10,0,0
89213,-100,4,2,1,60,0,0
92093,-100,4,2,1,100,0,1
92333,-100,4,2,1,10,0,0
92573,-100,4,2,1,60,0,0
95693,-100,4,2,1,50,0,0
95933,-100,4,2,1,100,0,1
96413,-100,4,2,1,70,0,0
103373,-100,4,2,1,50,0,0
103613,-100,4,2,1,100,0,1
104093,-100,4,2,1,70,0,0
111293,-100,4,2,1,100,0,1
111773,-100,4,2,1,10,0,0
117773,-100,4,2,1,25,0,0
118973,-100,4,2,1,100,0,1
119453,-100,4,2,1,60,0,0
128573,-100,4,2,1,40,0,0
129053,-100,4,2,1,60,0,0
130493,-100,4,2,1,40,0,0
130973,-100,4,2,1,60,0,0
133853,-100,4,2,1,100,0,0
134093,-100,4,2,1,40,0,0
134813,-100,4,2,1,60,0,0
138173,-100,4,2,1,100,0,0
138653,-100,4,2,1,60,0,0
146333,-100,4,2,1,50,0,0
150173,-100,4,2,1,60,0,0
169373,-100,4,2,1,70,0,0
174653,-100,4,2,1,100,0,1
175133,-100,4,2,1,5,0,0
176093,-100,4,2,1,25,0,0
176573,-100,4,2,1,100,0,1
177053,-100,4,2,1,60,0,0
180413,-100,4,2,1,100,0,1
180653,-100,4,2,1,70,0,1
181133,-100,4,2,1,10,0,0
181373,-100,4,2,1,60,0,0
184253,-100,4,2,1,100,0,1
184493,-100,4,2,1,70,0,1
184973,-100,4,2,1,10,0,0
185213,-100,4,2,1,60,0,0
188093,-100,4,2,1,100,0,1
188333,-100,4,2,1,10,0,0
188573,-100,4,2,1,60,0,0
191693,-100,4,2,1,50,0,0
191933,-100,4,2,1,100,0,1
192413,-100,4,2,1,70,0,0
199373,-100,4,2,1,50,0,0
199613,-100,4,2,1,100,0,1
200093,-100,4,2,1,70,0,0
206093,-100,4,2,1,50,0,0
206573,-100,4,2,1,20,0,0
206813,-100,4,2,1,50,0,0
207053,-100,4,2,1,20,0,0
207293,-100,4,2,1,100,0,1
207773,-100,4,2,1,70,0,0
218813,-100,4,2,1,100,0,1
219773,-100,4,2,1,70,0,0
220733,-100,4,2,1,100,0,1
221693,-100,4,2,1,70,0,0
234173,-100,4,2,1,100,0,1
235133,-100,4,2,1,70,0,0
236093,-100,4,2,1,100,0,1
237053,-100,4,2,1,70,0,0
238493,-100,4,2,1,5,0,0

[Colours]
Combo1 : 255,185,255
Combo2 : 60,157,255
Combo3 : 255,106,255
Combo4 : 168,211,255

[HitObjects]
310,247,15773,6,0,L|350:279,2,44.9999952316285,6|0|2,0:0|0:0|0:0,0:0:0:0:
202,247,16733,2,0,L|162:279,2,44.9999952316285,8|0|2,1:0|0:0|0:0,0:0:0:0:
202,137,17693,2,0,L|162:105,2,44.9999952316285,2|0|2,0:0|0:0|0:0,0:0:0:0:
310,137,18653,2,0,L|350:105,2,44.9999952316285,8|0|2,1:0|0:0|0:0,0:0:0:0:
256,230,19613,6,0,L|256:288,2,44.9999952316285,2|0|2,0:0|0:0|0:0,0:0:0:0:
148,243,20573,2,0,L|148:175,1,67.4999928474427,8|2,1:0|1:0,0:0:0:0:
28,29,21773,1,2,1:0:0:0:
126,74,22253,2,0,P|148:77|170:74,1,44.9999952316285,2|2,1:0|1:0,0:0:0:0:
256,9,22973,1,8,3:0:0:0:
341,73,23453,38,0,P|353:113|342:162,1,89.999990463257,2|2,3:0|0:0,0:0:0:0:
256,223,24413,2,0,L|256:284,2,44.9999952316285,2|2|8,0:0|1:0|0:0,0:0:0:0:
168,159,25373,2,0,P|158:115|171:73,1,89.999990463257,2|8,0:0|0:0,0:0:0:0:
268,119,26333,2,0,L|324:120,2,44.9999952316285,2|8|8,0:0|1:0|0:0,0:0:0:0:
322,25,27293,6,0,L|424:25,1,89.999990463257,2|8,0:0|0:0,0:0:0:0:
456,66,28013,1,8,1:0:0:0:
456,66,28253,2,0,P|444:108|457:156,1,89.999990463257,2|8,0:0|0:0,0:0:0:0:
487,255,29213,2,0,P|497:298|485:341,2,89.999990463257,2|8|2,0:0|0:0|0:0,0:0:0:0:
383,224,30653,1,8,3:0:0:0:
298,291,31133,38,0,P|255:304|213:290,1,89.999990463257,2|8,0:0|0:0,0:0:0:0:
129,224,32093,1,2,0:0:0:0:
228,182,32573,1,8,0:0:0:0:
143,114,33053,2,0,P|132:70|145:26,1,89.999990463257,2|8,0:0|0:0,0:0:0:0:
201,22,33773,1,8,1:0:0:0:
201,22,34013,2,0,L|245:22,2,44.9999952316285,2|2|2,0:0|1:0|0:0,0:0:0:0:
228,126,34973,6,0,L|321:126,1,89.999990463257,2|8,0:0|0:0,0:0:0:0:
358,171,35693,1,8,1:0:0:0:
358,171,35933,2,0,P|345:214|360:256,1,89.999990463257,2|8,0:0|0:0,0:0:0:0:
458,298,36893,2,0,P|471:255|456:213,1,89.999990463257,2|8,0:0|0:0,0:0:0:0:
444,106,37853,1,2,1:0:0:0:
358,171,38333,1,8,3:0:0:0:
270,105,38813,38,0,P|227:96|183:106,1,89.999990463257,2|8,3:0|0:0,0:0:0:0:
146,146,39533,1,8,1:0:0:0:
146,146,39773,2,0,L|146:241,1,89.999990463257,2|8,0:0|0:0,0:0:0:0:
113,339,40733,1,2,0:0:0:0:
218,315,41213,2,0,P|240:312|262:314,1,44.9999952316285,8|8,0:0|1:0,0:0:0:0:
316,318,41693,2,0,L|330:227,1,89.999990463257,2|8,0:0|3:0,0:0:0:0:
348,122,42653,5,2,0:0:0:0:
430,189,43133,2,0,P|452:195|474:191,2,44.9999952316285,8|8|2,0:0|1:0|0:0,0:0:0:0:
348,122,44093,1,8,0:0:0:0:
248,81,44573,2,0,P|240:121|251:171,2,89.999990463257,2|8|2,0:0|0:0|0:0,0:0:0:0:
348,122,46013,1,8,0:0:0:0:
448,83,46493,38,0,P|456:123|445:173,1,89.999990463257,2|8,0:0|0:0,0:0:0:0:
413,214,47213,1,8,1:0:0:0:
413,214,47453,2,0,L|318:214,1,89.999990463257,2|8,0:0|0:0,0:0:0:0:
256,129,48413,1,2,0:0:0:0:
189,214,48893,1,8,0:0:0:0:
88,170,49373,2,0,P|76:212|88:255,1,89.999990463257,2|8,0:0|0:0,0:0:0:0:
177,317,50333,6,0,L|223:325,2,44.9999952316285,2|2|10,1:0|1:0|0:0,0:0:0:0:
232,224,51293,2,0,L|278:232,2,44.9999952316285,2|2|10,1:0|1:0|1:0,0:0:0:0:
286,130,52253,2,0,L|386:146,1,89.999990463257,2|2,0:0|0:0,0:0:0:0:
428,172,52973,1,8,1:0:0:0:
428,172,53213,2,0,P|418:215|431:259,1,89.999990463257,6|8,0:0|0:0,0:0:0:0:
363,342,54173,6,0,L|273:342,1,89.999990463257,10|2,3:0|3:0,0:0:0:0:
197,265,55133,2,0,P|206:221|195:178,1,89.999990463257,2|2,3:0|3:0,0:0:0:0:
105,117,56093,1,2,3:0:0:0:
205,77,56573,1,2,3:0:0:0:
289,143,57053,2,0,P|332:152|382:139,1,89.999990463257,2|2,3:0|3:0,0:0:0:0:
347,246,58013,6,0,L|309:327,1,89.999990463257,2|2,3:0|3:0,0:0:0:0:
202,327,58973,2,0,L|165:246,1,89.999990463257,2|2,3:0|3:0,0:0:0:0:
165,138,59933,2,0,L|202:56,1,89.999990463257,2|2,3:0|3:0,0:0:0:0:
309,56,60893,2,0,L|347:138,1,89.999990463257,2|2,3:0|3:0,0:0:0:0:
317,242,61853,38,0,P|300:283|309:327,1,89.999990463257,2|2,3:0|3:0,0:0:0:0:
202,327,62813,2,0,P|211:283|195:242,1,89.999990463257,2|2,3:0|3:0,0:0:0:0:
256,153,63773,2,0,L|256:62,1,89.999990463257,2|2,3:0|3:0,0:0:0:0:
156,20,64733,1,2,3:0:0:0:
60,70,65213,1,2,3:0:0:0:
148,132,65693,6,0,L|148:232,1,89.999990463257,2|2,3:0|3:0,0:0:0:0:
107,321,66653,2,0,P|151:333|194:318,1,89.999990463257,2|2,3:0|3:0,0:0:0:0:
287,269,67613,2,0,P|329:255|371:267,1,89.999990463257,2|2,3:0|3:0,0:0:0:0:
467,319,68573,2,0,L|467:225,1,89.999990463257,2|2,3:0|3:0,0:0:0:0:
397,146,69533,38,0,P|353:156|310:147,1,89.999990463257,6|2,3:0|3:0,0:0:0:0:
201,148,70493,2,0,P|157:138|114:149,1,89.999990463257,2|2,3:0|3:0,0:0:0:0:
32,220,71453,1,6,3:0:0:0:
115,288,71933,1,6,3:0:0:0:
197,357,72413,2,0,L|290:357,1,89.999990463257,6|2,3:0|3:0,0:0:0:0:
394,354,73373,38,0,L|417:312,2,44.9999952316285,6|2|2,3:0|0:0|3:0,0:0:0:0:
335,263,74333,2,0,L|358:221,2,44.9999952316285,2|2|2,3:0|0:0|3:0,0:0:0:0:
264,181,75293,2,0,L|311:97,1,89.999990463257,2|2,3:0|3:0,0:0:0:0:
335,56,76013,1,0,0:0:0:0:
335,56,76253,2,0,P|377:69|420:59,1,89.999990463257,2|2,3:0|3:0,0:0:0:0:
470,34,76973,1,2,0:0:0:0:
470,34,77213,38,0,B|470:200|470:200|416:237,1,224.999976158142,2|8,3:0|1:0,0:0:0:0:
372,256,78653,2,0,P|329:271|286:260,1,89.999990463257,8|0,3:0|0:0,0:0:0:0:
81,192,80093,6,0,L|65:134,1,44.9999952316285,2|2,1:0|1:0,0:0:0:0:
50,98,80573,1,8,3:0:0:0:
147,51,81053,37,4,0:0:0:0:
245,91,81533,2,0,P|267:96|290:93,2,44.9999952316285,2|2|2,0:0|1:0|0:0,0:0:0:0:
147,51,82493,2,0,L|99:51,1,44.9999952316285,2|2,0:0|1:0,0:0:0:0:
60,85,82973,2,0,P|70:128|58:171,1,89.999990463257,2|2,0:0|0:0,0:0:0:0:
14,270,83933,1,2,0:0:0:0:
86,349,84413,6,0,L|137:349,1,44.9999952316285,8|2,3:0|1:0,0:0:0:0:
185,349,84893,1,2,0:0:0:0:
256,267,85373,38,0,P|252:246|257:217,2,44.9999952316285,2|2|2,0:0|1:0|0:0,0:0:0:0:
361,243,86333,2,0,L|411:243,1,44.9999952316285,2|2,0:0|1:0,0:0:0:0:
443,204,86813,2,0,P|433:160|441:116,1,89.999990463257,2|2,0:0|0:0,0:0:0:0:
496,23,87773,1,2,0:0:0:0:
388,36,88253,6,0,L|339:36,1,44.9999952316285,8|2,3:0|1:0,0:0:0:0:
289,36,88733,1,2,0:0:0:0:
205,105,89213,38,0,P|192:147|202:190,1,89.999990463257,2|2,0:0|0:0,0:0:0:0:
163,228,89933,2,0,L|110:228,1,44.9999952316285,0|2,0:0|0:0,0:0:0:0:
25,284,90653,2,0,P|13:326|22:370,1,89.999990463257,2|2,0:0|0:0,0:0:0:0:
76,372,91373,2,0,L|121:372,1,44.9999952316285,2|2,1:0|0:0,0:0:0:0:
192,291,92093,6,0,L|240:291,1,44.9999952316285,8|0,3:0|0:0,0:0:0:0:
291,291,92573,1,2,0:0:0:0:
334,192,93053,38,0,P|344:148|332:100,1,89.999990463257,2|2,0:0|0:0,0:0:0:0:
286,81,93773,2,0,L|228:91,2,44.9999952316285,2|2|2,1:0|0:0|1:0,0:0:0:0:
376,21,94733,2,0,L|434:11,2,44.9999952316285,2|2|2,1:0|0:0|1:0,0:0:0:0:
418,126,95693,5,2,1:0:0:0:
418,126,95933,1,8,3:0:0:0:
365,221,96413,38,0,P|355:264|368:306,2,89.999990463257,4|2|2,0:0|3:0|0:0,0:0:0:0:
320,192,97613,2,0,L|266:192,1,44.9999952316285,2|2,1:0|3:0,0:0:0:0:
170,164,98333,2,0,P|180:120|167:78,2,89.999990463257,2|2|2,0:0|3:0|0:0,0:0:0:0:
85,230,99773,2,0,L|74:292,1,44.9999952316285,8|0,3:0|3:0,0:0:0:0:
62,326,100253,5,2,0:0:0:0:
163,363,100733,2,0,P|205:373|251:363,1,89.999990463257,2|2,3:0|0:0,0:0:0:0:
291,328,101453,2,0,L|306:280,1,44.9999952316285,2|2,1:0|3:0,0:0:0:0:
335,181,102173,1,2,0:0:0:0:
230,207,102653,2,0,P|186:218|143:208,1,89.999990463257,2|2,3:0|0:0,0:0:0:0:
107,177,103373,37,2,1:0:0:0:
107,177,103613,1,8,3:0:0:0:
61,79,104093,6,0,P|104:67|148:78,1,89.999990463257,4|2,0:0|3:0,0:0:0:0:
190,110,104813,2,0,L|234:110,1,44.9999952316285,2|2,1:0|0:0,0:0:0:0:
331,60,105533,1,2,3:0:0:0:
429,16,106013,2,0,P|439:59|429:103,2,89.999990463257,2|2|2,0:0|3:0|0:0,0:0:0:0:
331,60,107453,2,0,L|271:60,1,44.9999952316285,8|0,3:0|3:0,0:0:0:0:
232,60,107933,37,6,0:0:0:0:
130,20,108413,2,0,P|120:64|132:107,1,89.999990463257,2|2,3:0|0:0,0:0:0:0:
221,169,109373,2,0,P|232:211|223:255,1,89.999990463257,2|2,3:0|0:0,0:0:0:0:
173,274,110093,2,0,L|119:286,2,44.9999952316285,2|2|2,1:0|3:0|1:0,0:0:0:0:
211,312,110813,2,0,L|193:355,2,44.9999952316285,2|2|8,0:0|1:0|3:0,0:0:0:0:
57,27,117773,37,2,1:0:0:0:
136,100,118253,2,0,P|158:102|180:99,1,44.9999952316285,2|2,1:0|1:0,0:0:0:0:
256,22,118973,1,8,3:0:0:0:
331,99,119453,6,0,P|353:102|376:100,2,44.9999952316285,2|2|8,0:0|1:0|0:0,0:0:0:0:
256,177,120413,2,0,L|257:241,2,44.9999952316285,2|2|8,0:0|1:0|0:0,0:0:0:0:
149,192,121373,2,0,P|103:204|62:193,1,89.999990463257,2|8,0:0|0:0,0:0:0:0:
44,148,122093,1,8,1:0:0:0:
44,148,122333,2,0,P|49:100|32:54,1,89.999990463257,2|8,0:0|0:0,0:0:0:0:
139,29,123293,6,0,L|189:20,2,44.9999952316285,2|2|8,0:0|1:0|0:0,0:0:0:0:
202,116,124253,2,0,L|303:95,1,89.999990463257,2|8,0:0|0:0,0:0:0:0:
396,80,125213,2,0,P|385:123|401:164,1,89.999990463257,2|8,0:0|0:0,0:0:0:0:
450,201,125933,1,8,1:0:0:0:
450,201,126173,2,0,L|450:258,2,44.9999952316285,2|8|8,0:0|1:0|0:0,0:0:0:0:
350,243,127133,38,0,P|360:284|350:335,2,89.999990463257,2|8|2,0:0|0:0|0:0,0:0:0:0:
256,188,128573,1,2,1:0:0:0:
162,243,129053,2,0,P|152:284|162:335,2,89.999990463257,2|8|2,0:0|0:0|0:0,0:0:0:0:
256,188,130493,1,2,1:0:0:0:
167,126,130973,6,0,P|123:115|80:127,1,89.999990463257,2|8,0:0|0:0,0:0:0:0:
33,146,131693,1,10,1:0:0:0:
33,146,131933,2,0,L|15:36,1,89.999990463257,2|8,0:0|0:0,0:0:0:0:
120,24,132893,2,0,P|164:35|208:26,1,89.999990463257,2|2,0:0|0:0,0:0:0:0:
301,81,133853,2,2,B|312:133,1,44.9999952316285,2|0,1:0|1:0,0:0:0:0:
322,177,134333,1,2,1:0:0:0:
382,266,134813,38,0,P|341:284|297:280,1,89.999990463257,2|8,0:0|0:0,0:0:0:0:
256,245,135533,1,8,1:0:0:0:
214,280,135773,2,0,P|170:284|130:266,1,89.999990463257,2|8,0:0|0:0,0:0:0:0:
49,192,136733,1,2,0:0:0:0:
119,109,137213,2,0,P|123:86|119:64,1,44.9999952316285,8|2,0:0|1:0,0:0:0:0:
158,27,137693,2,0,L|251:26,1,89.999990463257,2|8,0:0|3:0,0:0:0:0:
356,27,138653,5,2,0:0:0:0:
431,102,139133,2,0,P|436:125|432:147,2,44.9999952316285,8|8|2,0:0|1:0|0:0,0:0:0:0:
356,27,140093,1,8,0:0:0:0:
264,86,140573,2,0,P|221:96|178:87,2,89.999990463257,2|8|2,0:0|0:0|0:0,0:0:0:0:
356,27,142013,1,10,0:0:0:0:
440,94,142493,38,0,L|440:191,1,89.999990463257,2|8,0:0|0:0,0:0:0:0:
444,242,143213,1,8,1:0:0:0:
444,242,143453,2,0,P|400:231|357:241,1,89.999990463257,2|8,0:0|0:0,0:0:0:0:
256,282,144413,1,2,0:0:0:0:
155,240,144893,2,0,P|112:230|69:241,2,89.999990463257,8|2|8,0:0|0:0|0:0,0:0:0:0:
256,282,146333,6,0,L|256:171,1,89.999990463257,2|2,0:0|0:0,0:0:0:0:
310,98,147293,2,0,P|344:104|376:96,2,67.4999928474427,2|2|8,0:0|0:0|1:0,0:0:0:0:
261,76,148253,2,0,P|217:66|173:77,1,89.999990463257,4|2,0:0|0:0,0:0:0:0:
126,174,149213,2,0,P|82:184|38:175,1,89.999990463257,8|8,0:0|0:0,0:0:0:0:
25,282,150173,6,0,L|19:371,1,89.999990463257,2|2,3:0|3:0,0:0:0:0:
127,361,151133,2,0,P|169:347|212:355,1,89.999990463257,2|2,3:0|3:0,0:0:0:0:
319,373,152093,1,2,3:0:0:0:
277,273,152573,1,2,3:0:0:0:
382,296,153053,2,0,P|425:305|475:292,1,89.999990463257,2|2,3:0|3:0,0:0:0:0:
490,188,154013,6,0,L|500:95,1,89.999990463257,2|2,3:0|3:0,0:0:0:0:
408,41,154973,2,0,P|365:53|319:41,1,89.999990463257,2|2,3:0|3:0,0:0:0:0:
213,44,155933,2,0,P|220:87|248:122,1,89.999990463257,2|2,3:0|3:0,0:0:0:0:
356,126,156893,2,0,P|348:169|320:204,1,89.999990463257,2|2,3:0|3:0,0:0:0:0:
217,237,157853,38,0,L|121:237,1,89.999990463257,2|2,3:0|3:0,0:0:0:0:
25,274,158813,2,0,P|13:317|23:360,1,89.999990463257,2|2,3:0|3:0,0:0:0:0:
131,369,159773,2,0,L|231:369,1,89.999990463257,2|2,3:0|3:0,0:0:0:0:
311,310,160733,1,2,3:0:0:0:
258,215,161213,1,2,3:0:0:0:
365,224,161693,6,0,L|463:224,1,89.999990463257,2|2,3:0|3:0,0:0:0:0:
493,122,162653,2,0,P|481:80|491:37,1,89.999990463257,2|2,3:0|3:0,0:0:0:0:
383,35,163613,2,0,L|293:35,1,89.999990463257,2|2,3:0|3:0,0:0:0:0:
209,104,164573,2,0,P|219:147|206:189,1,89.999990463257,2|2,3:0|3:0,0:0:0:0:
144,278,165533,38,0,P|133:321|146:363,1,89.999990463257,6|6,3:0|3:0,0:0:0:0:
251,337,166493,2,0,P|295:327|338:338,1,89.999990463257,2|2,3:0|3:0,0:0:0:0:
442,365,167453,1,6,3:0:0:0:
411,261,167933,1,6,3:0:0:0:
461,165,168413,2,0,P|470:121|462:77,1,89.999990463257,6|2,3:0|3:0,0:0:0:0:
360,40,169373,38,0,L|308:46,2,44.9999952316285,2|2|2,3:0|0:0|3:0,0:0:0:0:
327,142,170333,2,0,L|275:148,2,44.9999952316285,2|2|2,3:0|0:0|3:0,0:0:0:0:
304,247,171293,2,0,L|207:258,1,89.999990463257,2|2,3:0|3:0,0:0:0:0:
166,269,172013,1,2,0:0:0:0:
166,269,172253,2,0,P|165:225|142:187,1,89.999990463257,2|2,3:0|3:0,0:0:0:0:
103,159,172973,1,2,0:0:0:0:
103,159,173213,38,0,P|139:83|37:88,1,224.999976158142,2|8,3:0|1:0,0:0:0:0:
13,135,174653,2,0,L|13:231,1,89.999990463257,8|0,3:0|0:0,0:0:0:0:
186,353,176093,6,0,L|245:347,1,44.9999952316285,2|2,1:0|1:0,0:0:0:0:
284,343,176573,1,8,3:0:0:0:
228,250,177053,37,4,0:0:0:0:
311,180,177533,2,0,P|316:159|313:136,2,44.9999952316285,2|2|2,0:0|1:0|0:0,0:0:0:0:
228,250,178493,2,0,L|180:250,1,44.9999952316285,2|2,0:0|1:0,0:0:0:0:
129,252,178973,2,0,P|139:295|127:338,1,89.999990463257,2|2,0:0|0:0,0:0:0:0:
28,292,179933,1,2,0:0:0:0:
48,185,180413,6,0,L|43:125,1,44.9999952316285,8|2,3:0|1:0,0:0:0:0:
39,86,180893,1,2,0:0:0:0:
134,35,181373,38,0,L|190:26,2,44.9999952316285,2|2|2,0:0|1:0|0:0,0:0:0:0:
193,125,182333,2,0,L|249:116,1,44.9999952316285,2|2,0:0|1:0,0:0:0:0:
291,111,182813,2,0,P|283:155|293:198,1,89.999990463257,2|2,0:0|0:0,0:0:0:0:
359,283,183773,1,2,0:0:0:0:
273,348,184253,6,0,L|224:348,1,44.9999952316285,8|2,3:0|1:0,0:0:0:0:
174,348,184733,1,2,0:0:0:0:
82,289,185213,38,0,P|71:245|84:203,1,89.999990463257,2|2,0:0|0:0,0:0:0:0:
131,175,185933,2,0,L|176:175,1,44.9999952316285,0|2,0:0|0:0,0:0:0:0:
283,172,186653,2,0,P|293:128|280:86,1,89.999990463257,2|2,0:0|0:0,0:0:0:0:
234,58,187373,2,0,L|189:58,1,44.9999952316285,2|2,1:0|0:0,0:0:0:0:
134,151,188093,6,0,L|182:151,1,44.9999952316285,8|0,3:0|0:0,0:0:0:0:
226,176,188573,1,2,0:0:0:0:
324,220,189053,38,0,P|333:176|324:132,1,89.999990463257,2|2,0:0|0:0,0:0:0:0:
287,92,189773,2,0,L|229:102,2,44.9999952316285,2|2|2,1:0|0:0|1:0,0:0:0:0:
378,34,190733,2,0,L|436:24,2,44.9999952316285,2|2|2,1:0|0:0|1:0,0:0:0:0:
417,141,191693,5,10,1:0:0:0:
417,141,191933,1,8,3:0:0:0:
355,229,192413,38,0,P|345:272|358:314,2,89.999990463257,4|2|2,0:0|3:0|0:0,0:0:0:0:
318,189,193613,2,0,L|264:189,1,44.9999952316285,2|2,1:0|3:0,0:0:0:0:
196,113,194333,2,0,P|206:69|193:27,2,89.999990463257,2|2|2,0:0|3:0|0:0,0:0:0:0:
93,147,195773,2,0,L|93:209,1,44.9999952316285,8|0,3:0|3:0,0:0:0:0:
93,246,196253,5,4,0:0:0:0:
178,312,196733,2,0,P|220:302|266:312,1,89.999990463257,2|2,3:0|0:0,0:0:0:0:
318,302,197453,2,0,L|333:254,1,44.9999952316285,2|2,1:0|3:0,0:0:0:0:
358,154,198173,1,2,0:0:0:0:
256,190,198653,2,0,P|212:201|169:191,1,89.999990463257,2|2,3:0|0:0,0:0:0:0:
126,168,199373,37,2,1:0:0:0:
126,168,199613,1,8,3:0:0:0:
33,224,200093,6,0,L|31:315,1,89.999990463257,4|2,0:0|3:0,0:0:0:0:
70,350,200813,2,0,P|92:346|114:350,1,44.9999952316285,8|2,1:0|0:0,0:0:0:0:
220,370,201533,1,2,3:0:0:0:
314,317,202013,2,0,P|323:273|313:230,2,89.999990463257,2|2|10,0:0|3:0|1:0,0:0:0:0:
220,370,203453,2,0,L|160:370,1,44.9999952316285,8|0,3:0|3:0,0:0:0:0:
121,366,203933,37,4,0:0:0:0:
38,296,204413,2,0,P|26:252|36:209,1,89.999990463257,2|2,3:0|0:0,0:0:0:0:
142,231,205373,2,0,P|151:187|140:144,1,89.999990463257,2|2,3:0|1:0,0:0:0:0:
95,114,206093,2,0,L|41:126,2,44.9999952316285,10|2|0,1:0|1:0|0:0,0:0:0:0:
139,83,206813,2,0,L|121:40,2,44.9999952316285,2|0|8,1:0|0:0|3:0,0:0:0:0:
183,181,207773,5,4,0:0:0:0:
269,115,208253,2,0,P|311:103|355:111,1,89.999990463257,2|2,3:0|0:0,0:0:0:0:
420,198,209213,1,2,3:0:0:0:
340,271,209693,2,0,P|329:314|340:357,1,89.999990463257,2|2,0:0|3:0,0:0:0:0:
439,313,210653,1,2,0:0:0:0:
418,207,211133,2,0,L|418:155,1,44.9999952316285,8|0,3:0|0:0,0:0:0:0:
418,108,211613,37,4,0:0:0:0:
314,77,212093,2,0,P|271:88|227:79,1,89.999990463257,2|2,3:0|0:0,0:0:0:0:
131,28,213053,1,2,3:0:0:0:
60,109,213533,2,0,L|59:154,1,44.9999952316285,2|2,0:0|1:0,0:0:0:0:
60,207,214013,2,0,P|103:197|146:207,1,89.999990463257,2|2,3:0|0:0,0:0:0:0:
222,284,214973,2,0,L|271:284,1,44.9999952316285,8|0,3:0|3:0,0:0:0:0:
320,284,215453,5,4,0:0:0:0:
406,218,215933,2,0,P|420:176|408:133,1,89.999990463257,2|2,3:0|0:0,0:0:0:0:
333,55,216893,1,2,3:0:0:0:
248,122,217373,2,0,P|205:135|163:124,2,89.999990463257,2|2|2,0:0|3:0|0:0,0:0:0:0:
333,55,218813,38,0,L|397:55,1,44.9999952316285,8|0,3:0|0:0,0:0:0:0:
420,87,219293,2,0,P|410:131|424:176,1,89.999990463257,8|2,3:0|3:0,0:0:0:0:
484,261,220253,1,2,0:0:0:0:
418,346,220733,6,0,L|371:346,1,44.9999952316285,8|0,3:0|0:0,0:0:0:0:
327,317,221213,2,0,P|338:274|327:231,1,89.999990463257,8|2,3:0|3:0,0:0:0:0:
289,202,221933,1,2,1:0:0:0:
289,202,222173,2,0,L|185:202,1,89.999990463257,2|8,0:0|3:0,0:0:0:0:
115,270,223133,37,4,0:0:0:0:
40,192,223613,2,0,P|27:148|40:106,1,89.999990463257,2|2,3:0|0:0,0:0:0:0:
121,36,224573,1,2,3:0:0:0:
212,90,225053,2,0,P|256:101|298:89,1,89.999990463257,2|2,0:0|3:0,0:0:0:0:
396,44,226013,1,2,0:0:0:0:
382,151,226493,2,0,L|386:209,1,44.9999952316285,8|0,3:0|3:0,0:0:0:0:
388,249,226973,5,4,0:0:0:0:
326,336,227453,2,0,P|283:351|241:339,1,89.999990463257,2|2,3:0|0:0,0:0:0:0:
170,256,228413,1,2,3:0:0:0:
255,190,228893,2,0,L|255:138,1,44.9999952316285,2|2,0:0|1:0,0:0:0:0:
253,90,229373,2,0,P|209:101|165:92,1,89.999990463257,2|2,3:0|0:0,0:0:0:0:
58,78,230333,2,0,L|46:142,1,44.9999952316285,8|0,3:0|3:0,0:0:0:0:
36,174,230813,37,4,0:0:0:0:
115,246,231293,2,0,P|158:237|201:248,1,89.999990463257,2|2,3:0|0:0,0:0:0:0:
256,341,232253,1,2,3:0:0:0:
310,248,232733,2,0,P|353:237|396:246,2,89.999990463257,2|2|2,0:0|3:0|0:0,0:0:0:0:
256,341,234173,6,0,L|193:341,1,44.9999952316285,8|0,3:0|0:0,0:0:0:0:
161,316,234653,2,0,P|173:273|164:229,1,89.999990463257,8|2,3:0|3:0,0:0:0:0:
88,152,235613,1,2,0:0:0:0:
167,79,236093,38,0,L|224:69,1,44.9999952316285,8|0,3:0|0:0,0:0:0:0:
263,60,236573,2,0,P|258:104|272:146,1,89.999990463257,8|2,3:0|3:0,0:0:0:0:
325,173,237293,1,2,1:0:0:0:
325,173,237533,2,0,L|416:173,1,89.999990463257,2|8,0:0|3:0,0:0:0:0:
455,209,238253,2,0,P|452:228|454:254,1,44.9999952316285,0|0,3:0|0:0,0:0:0:0:
