osu file format v14

[General]
AudioFilename: audio.mp3
AudioLeadIn: 0
PreviewTime: 104390
Countdown: 0
SampleSet: Soft
StackLeniency: 0.4
Mode: 0
LetterboxInBreaks: 0
WidescreenStoryboard: 1

[Editor]
Bookmarks: 13910,29270,31190,44630,46550,59990,63830,79190,93590,96470,104630,107990,108470,111830,125270,129110,144470,158870,159830,175190,179030,194390,208790
DistanceSpacing: 1.1
BeatDivisor: 4
GridSize: 32
TimelineZoom: 1.3

[Metadata]
Title:AS IF IT'S YOUR LAST
TitleUnicode:마지막처럼
Artist:BLACKPINK
ArtistUnicode:BLACKPINK
Creator:Natsu
Version:Syph's Extra
Source:
Tags:k-pop kpop 블핑 블랙핑크 지수 jisoo 제니 jennie 로제 rosÉ 리사 lisa yg entertainment Syph
BeatmapID:1341480
BeatmapSetID:630325

[Difficulty]
HPDrainRate:6
CircleSize:4
OverallDifficulty:8.7
ApproachRate:9.4
SliderMultiplier:2.8
SliderTickRate:1

[Events]
//Background and Video events
0,0,"03b547d0caa3f09b0514a2953c53d39cf51b7312_s1_n2.jpg",0,0
Video,-927,"BLACKPINK - AS IF IT'S YOUR LAST.avi"
//Break Periods
//Storyboard Layer 0 (Background)
//Storyboard Layer 1 (Fail)
//Storyboard Layer 2 (Pass)
//Storyboard Layer 3 (Foreground)
//Storyboard Sound Samples

[TimingPoints]
13910,480,4,2,0,56,1,0
13910,-166.666666666667,4,2,0,56,0,0
15830,-133.333333333333,4,2,0,65,0,0
29270,-100,4,2,0,60,0,0
30230,-100,4,2,0,70,0,0
30950,-100,4,2,0,56,0,0
31190,-100,4,2,0,65,0,0
31670,-133.333333333333,4,2,0,65,0,0
44630,-100,4,2,0,60,0,0
45590,-100,4,2,0,70,0,0
46550,-200,4,2,0,55,0,0
59990,-200,4,2,0,60,0,0
60470,-133.333333333333,4,2,0,65,0,0
60950,-100,4,2,0,70,0,0
61310,-100,4,2,0,65,0,0
62870,-100,4,2,0,50,0,0
63350,-80,4,2,0,65,0,0
63830,-100,4,2,0,75,0,1
79190,-117.647058823529,4,2,0,70,0,0
80630,-200,4,2,0,57,0,0
81110,-117.647058823529,4,2,0,70,0,0
82550,-200,4,2,0,57,0,0
83030,-117.647058823529,4,2,0,70,0,0
88310,-200,4,2,0,57,0,0
88790,-117.647058823529,4,2,0,70,0,0
90230,-200,4,2,0,57,0,0
90710,-117.647058823529,4,2,0,70,0,0
93590,-200,4,2,0,60,0,0
94070,-200,4,2,0,5,0,0
94550,-200,4,2,0,60,0,0
95510,-200,4,2,0,65,0,0
96470,-100,4,2,0,70,0,1
104630,-100,4,2,0,75,0,1
107990,-100,4,2,0,60,0,0
108470,-100,4,2,0,70,0,1
109910,-100,4,2,0,63,0,1
110870,-100,4,2,0,70,0,1
111830,-200,4,2,0,55,0,0
125270,-200,4,2,0,60,0,0
125750,-133.333333333333,4,2,0,65,0,0
126230,-100,4,2,0,70,0,0
126590,-100,4,2,0,65,0,0
128150,-100,4,2,0,50,0,0
128630,-80,4,2,0,65,0,0
129110,-100,4,2,0,75,0,1
144470,-117.647058823529,4,2,0,70,0,0
145910,-200,4,2,0,57,0,0
146390,-117.647058823529,4,2,0,70,0,0
147830,-200,4,2,0,57,0,0
148310,-117.647058823529,4,2,0,70,0,0
153590,-200,4,2,0,57,0,0
154070,-117.647058823529,4,2,0,70,0,0
155510,-200,4,2,0,57,0,0
155990,-117.647058823529,4,2,0,70,0,0
158870,-200,4,2,0,60,0,0
159350,-200,4,2,0,5,0,0
159830,-153.846153846154,4,2,0,60,0,0
174710,-153.846153846154,4,2,0,63,0,0
175190,-153.846153846154,4,2,0,65,0,0
178070,-153.846153846154,4,2,0,50,0,0
178550,-74.0740740740741,4,2,0,65,0,0
179030,-93.4579439252336,4,2,0,78,0,1
194390,-111.111111111111,4,2,0,70,0,0
195830,-200,4,2,0,57,0,0
196310,-111.111111111111,4,2,0,70,0,0
197750,-200,4,2,0,57,0,0
198230,-111.111111111111,4,2,0,70,0,0
203510,-200,4,2,0,57,0,0
203990,-111.111111111111,4,2,0,70,0,0
205430,-200,4,2,0,57,0,0
205910,-111.111111111111,4,2,0,70,0,0
208790,-200,4,2,0,70,0,0
209270,-200,4,2,0,5,0,0

[Colours]
Combo1 : 255,211,81
Combo2 : 254,95,138
Combo3 : 255,181,106
Combo4 : 244,208,181
SliderBorder : 248,161,200
SliderTrackOverride : 30,30,30

[HitObjects]
193,192,13910,6,0,P|233:179|282:188,1,83.9999974365236,12|0,3:0|0:0,0:0:0:0:
413,233,14270,2,0,P|373:246|324:237,1,83.9999974365236,4|0,3:0|0:0,0:0:0:0:
193,192,14630,2,0,L|188:134,1,41.9999987182618,8|0,3:0|0:0,0:0:0:0:
255,275,14870,5,8,1:3:0:0:
296,107,15030,5,0,1:0:0:0:
111,188,15190,5,0,1:0:0:0:
369,79,15350,5,0,1:0:0:0:
255,275,15590,5,0,0:0:0:0:
255,275,15710,1,0,0:0:0:0:
384,233,15830,5,6,0:3:0:0:
255,275,15950,1,0,0:0:0:0:
335,165,16070,1,2,0:0:0:0:
335,301,16190,1,0,1:0:0:0:
255,191,16310,2,0,L|191:187,1,52.5000020027162,8|0,1:3|0:0,0:0:0:0:
335,165,16550,2,0,P|341:140|336:108,1,52.5000020027162,0|0,1:0|0:0,0:0:0:0:
202,187,16790,6,0,P|191:232|200:291,1,105.000004005432,6|2,0:3|0:0,0:0:0:0:
301,376,17150,1,0,1:0:0:0:
335,301,17270,2,0,P|307:293|281:297,1,52.5000020027162,8|0,3:0|0:0,0:0:0:0:
166,357,17510,2,0,P|194:365|220:361,1,52.5000020027162,0|0,1:0|0:0,0:0:0:0:
334,300,17750,6,0,P|343:248|332:198,1,105.000004005432,6|2,0:3|0:0,0:0:0:0:
226,81,18110,1,0,1:0:0:0:
194,154,18230,2,0,P|222:162|248:158,1,52.5000020027162,8|0,3:0|0:0,0:0:0:0:
376,89,18470,2,0,P|348:81|322:85,1,52.5000020027162,0|0,1:0|0:0,0:0:0:0:
194,154,18710,1,8,3:0:0:0:
459,108,18950,5,0,1:0:0:0:
275,31,19070,1,2,0:0:0:0:
281,228,19190,1,0,1:0:0:0:
129,183,19430,5,0,0:0:0:0:
129,183,19550,1,0,0:0:0:0:
0,141,19670,5,6,3:0:0:0:
129,183,19790,1,0,0:0:0:0:
49,73,19910,1,2,0:0:0:0:
49,209,20030,1,0,1:0:0:0:
129,99,20150,2,0,L|193:95,1,52.5000020027162,8|0,1:3|0:0,0:0:0:0:
49,73,20390,2,0,P|43:48|48:16,1,52.5000020027162,0|0,1:0|0:0,0:0:0:0:
181,95,20630,6,0,P|191:139|182:197,1,105.000004005432,6|2,0:3|0:0,0:0:0:0:
101,309,20990,1,0,1:0:0:0:
226,365,21110,2,0,L|215:289,1,52.5000020027161,8|0,3:0|0:0,0:0:0:0:
93,257,21350,2,0,L|104:333,1,52.5000020027161,0|0,1:0|0:0,0:0:0:0:
265,253,21590,6,0,P|215:237|152:279,1,105.000004005432,6|2,0:3|0:0,0:0:0:0:
89,332,21950,1,0,1:0:0:0:
226,365,22070,2,0,L|215:289,1,52.5000020027161,8|0,0:3|0:0,0:0:0:0:
273,230,22310,2,0,L|262:154,1,52.5000020027161,0|0,1:0|0:0,0:0:0:0:
411,268,22550,2,0,P|378:273|354:266,1,52.5000020027161,8|0,0:3|0:0,0:0:0:0:
265,178,22790,6,0,P|277:146|295:129,1,52.5000020027161,0|0,1:0|0:0,0:0:0:0:
426,117,23030,2,0,P|446:143|452:167,1,52.5000020027161,0|0,1:0|0:0,0:0:0:0:
411,268,23270,5,2,1:2:0:0:
411,268,23390,1,2,0:0:0:0:
457,108,23510,6,0,L|451:171,1,52.5000020027161,6|0,0:3|0:0,0:0:0:0:
430,296,23750,1,2,0:0:0:0:
357,194,23870,1,0,1:0:0:0:
320,334,23990,2,0,B|292:338|292:338|257:329,1,52.5000020027161,8|0,0:3|0:0,0:0:0:0:
172,229,24230,2,0,B|200:225|200:225|235:234,1,52.5000020027161,0|0,1:0|0:0,0:0:0:0:
85,327,24470,6,0,B|80:286|80:286|86:265|86:265|81:216,1,105.000004005432,6|2,0:3|0:0,0:0:0:0:
171,86,24830,1,0,1:0:0:0:
34,157,24950,2,0,L|-26:148,1,52.5000020027161,8|0,3:0|0:0,0:0:0:0:
179,62,25190,2,0,L|239:71,1,52.5000020027161,0|0,1:0|0:0,0:0:0:0:
284,217,25430,6,0,P|280:192|285:161,1,52.5000020027161,6|0,0:3|0:0,0:0:0:0:
385,78,25670,1,2,0:0:0:0:
283,165,25790,1,0,1:0:0:0:
403,61,25910,2,0,B|428:56|428:56|463:62,1,52.5000020027161,8|0,0:3|0:0,0:0:0:0:
506,212,26150,2,0,B|481:217|481:217|446:211,1,52.5000020027161,0|0,1:0|0:0,0:0:0:0:
277,142,26390,6,0,L|268:193,1,52.5000020027161,6|0,0:3|0:0,0:0:0:0:
178,28,26630,2,0,B|166:55|166:55|167:92,1,52.5000020027161,0|0,1:0|0:0,0:0:0:0:
355,140,26870,2,0,P|338:93|239:73,1,157.500006008148,0|0,1:0|0:0,0:0:0:0:
268,193,27350,6,0,L|277:142,1,52.5000020027161,6|0,0:3|0:0,0:0:0:0:
157,238,27590,1,2,0:0:0:0:
268,193,27710,1,0,1:0:0:0:
272,310,27830,2,0,L|220:302,1,52.5000020027161,8|0,3:0|0:0,0:0:0:0:
156,163,28070,2,0,L|147:214,1,52.5000020027161,0|0,1:0|0:0,0:0:0:0:
341,304,28310,6,0,B|299:296|299:296|281:302|281:302|233:293,1,105.000004005432,6|2,0:3|0:0,0:0:0:0:
76,322,28670,1,0,1:0:0:0:
33,252,28790,2,0,P|66:241|97:243,1,52.5000020027161,8|0,3:0|0:0,0:0:0:0:
227,370,29030,2,0,P|261:368|289:355,1,52.5000020027161,0|0,1:0|0:0,0:0:0:0:
185,126,29270,6,0,B|219:238|131:220|158:336,2,210,12|12|12,1:3|3:0|1:3,0:0:0:0:
291,20,30230,5,6,1:3:0:0:
291,232,30390,5,2,1:0:0:0:
181,122,30550,5,0,1:0:0:0:
396,126,30710,5,2,1:0:0:0:
185,126,30950,5,0,0:0:0:0:
185,126,31070,1,0,0:0:0:0:
320,74,31190,5,6,1:2:0:0:
214,36,31310,1,0,0:0:0:0:
270,192,31430,1,2,0:0:0:0:
336,49,31550,1,0,1:0:0:0:
185,126,31670,2,0,P|212:131|243:126,1,52.5000020027161,10|0,3:0|0:0,0:0:0:0:
402,94,31910,2,0,L|389:162,1,52.5000020027161,0|0,1:0|0:0,0:0:0:0:
249,309,32150,6,0,L|268:206,1,105.000004005432,6|2,3:0|0:0,0:0:0:0:
392,145,32510,1,0,1:0:0:0:
431,234,32630,2,0,P|401:241|365:232,1,52.5000020027161,8|0,3:0|0:0,0:0:0:0:
236,127,32870,2,0,P|266:120|302:129,1,52.5000020027161,0|0,1:0|0:0,0:0:0:0:
411,41,33110,6,0,L|391:143,1,105.000004005432,6|2,0:3|0:0,0:0:0:0:
275,216,33470,1,0,1:0:0:0:
236,127,33590,2,0,P|266:120|302:129,1,52.5000020027161,8|0,3:0|0:0,0:0:0:0:
431,234,33830,2,0,P|401:241|365:232,1,52.5000020027161,0|0,1:0|0:0,0:0:0:0:
261,353,34070,2,0,L|270:286,1,52.5000020027161,8|0,3:0|0:0,0:0:0:0:
287,122,34310,5,2,1:2:0:0:
267,300,34430,1,2,0:0:0:0:
292,93,34550,1,6,1:2:0:0:
39,173,34790,5,0,0:0:0:0:
39,173,34910,1,0,0:0:0:0:
174,225,35030,5,6,1:2:0:0:
68,263,35150,1,0,0:0:0:0:
131,110,35270,1,2,0:0:0:0:
190,250,35390,1,0,1:0:0:0:
39,173,35510,2,0,P|66:168|97:173,1,52.5000020027161,6|0,0:3|0:0,0:0:0:0:
256,205,35750,2,0,L|243:137,1,52.5000020027161,0|0,1:0|0:0,0:0:0:0:
193,328,35990,6,0,L|165:185,1,105.000004005432,6|2,0:3|0:0,0:0:0:0:
287,348,36350,1,0,1:0:0:0:
333,282,36470,2,0,P|311:271|272:271,1,52.5000020027161,8|0,3:0|0:0,0:0:0:0:
143,314,36710,2,0,P|165:325|204:325,1,52.5000020027161,0|0,1:0|0:0,0:0:0:0:
303,165,36950,6,0,L|275:307,1,105.000004005432,6|2,0:3|0:0,0:0:0:0:
397,145,37310,1,0,1:0:0:0:
443,211,37430,2,0,P|421:222|382:222,1,52.5000020027161,10|0,3:0|0:0,0:0:0:0:
253,179,37670,2,0,P|275:168|314:168,1,52.5000020027161,0|0,1:0|0:0,0:0:0:0:
367,297,37910,2,0,L|356:351,1,52.5000020027161,8|0,3:0|0:0,0:0:0:0:
397,145,38150,1,2,1:2:0:0:
253,179,38270,1,2,0:0:0:0:
421,140,38390,1,6,1:2:0:0:
285,302,38630,5,2,0:0:0:0:
285,302,38750,1,0,0:0:0:0:
235,151,38870,6,0,L|230:210,1,52.5000020027161,6|0,1:2|0:0,0:0:0:0:
315,126,39110,1,2,0:0:0:0:
146,198,39230,1,0,1:0:0:0:
285,302,39350,2,0,L|290:243,1,52.5000020027161,8|0,3:0|0:0,0:0:0:0:
239,98,39590,2,0,L|234:157,1,52.5000020027161,0|0,1:0|0:0,0:0:0:0:
298,37,39830,6,0,P|255:15|181:37,1,105.000004005432,6|2,0:3|0:0,0:0:0:0:
58,159,40190,1,0,1:0:0:0:
146,198,40310,2,0,P|153:171|151:141,1,52.5000020027161,8|0,3:0|0:0,0:0:0:0:
40,34,40550,2,0,B|32:63|32:63|35:91,1,52.5000020027161,0|0,1:0|0:0,0:0:0:0:
147,198,40790,6,0,B|192:195|192:195|211:204|211:204|280:201,1,105.000004005432,6|2,0:3|0:0,0:0:0:0:
387,163,41150,1,0,1:0:0:0:
292,69,41270,2,0,L|291:147,1,52.5000020027161,8|0,3:0|0:0,0:0:0:0:
355,233,41510,2,0,L|354:311,1,52.5000020027161,0|0,1:0|0:0,0:0:0:0:
387,163,41750,6,0,P|424:159|449:167,1,52.5000020027161,6|0,0:3|0:0,0:0:0:0:
275,223,41990,1,2,1:2:0:0:
355,366,42110,1,2,0:0:0:0:
474,269,42230,2,0,P|449:262|419:269,1,52.5000020027161,0|0,1:0|0:0,0:0:0:0:
304,363,42470,2,0,P|329:370|359:363,1,52.5000020027161,2|0,0:0|0:0,0:0:0:0:
253,195,42710,6,0,L|245:340,1,105.000004005432,6|2,0:3|0:0,0:0:0:0:
327,231,43070,1,0,1:0:0:0:
185,154,43190,2,0,P|175:186|180:220,1,52.5000020027161,10|0,0:3|0:0,0:0:0:0:
327,231,43430,2,0,P|337:199|332:165,1,52.5000020027161,0|0,1:0|0:0,0:0:0:0:
443,79,43670,6,0,L|373:70,1,52.5000020027161,6|0,0:3|0:0,0:0:0:0:
286,125,43910,1,2,0:0:0:0:
446,189,44030,1,0,1:0:0:0:
396,20,44150,2,0,L|390:77,1,52.5000020027161,10|0,3:0|0:0,0:0:0:0:
280,177,44390,2,0,L|286:120,1,52.5000020027161,0|0,1:0|0:0,0:0:0:0:
391,291,44630,6,0,B|350:314|350:314|164:295,2,210,12|12|12,1:3|3:0|1:3,0:0:0:0:
118,130,45590,5,6,1:3:0:0:
188,297,45750,5,2,1:0:0:0:
181,72,45910,5,0,1:0:0:0:
109,325,46070,5,2,1:0:0:0:
109,325,46550,6,0,P|96:287|115:222,1,105,6|0,0:0|0:0,0:0:0:0:
245,282,47030,2,0,L|176:279,2,70,8|0|0,1:0|0:0|3:0,0:0:0:0:
358,288,47750,1,0,0:0:0:0:
305,204,47990,1,2,0:0:0:0:
296,358,48230,1,0,0:0:0:0:
296,358,48350,1,0,0:0:0:0:
358,288,48470,6,0,P|387:298|437:283,2,70,2|0|8,3:2|0:0|1:0,0:0:0:0:
394,221,49190,1,0,0:0:0:0:
394,221,49430,1,0,3:0:0:0:
223,256,49670,1,0,0:0:0:0:
294,125,49910,2,0,L|302:221,1,70,2|0,0:0|0:0,0:0:0:0:
223,256,50270,1,0,0:0:0:0:
161,198,50390,6,0,P|191:176|226:170,2,70,6|0|8,0:0|0:0|1:0,0:0:0:0:
223,256,51110,1,0,0:0:0:0:
270,107,51350,1,0,3:0:0:0:
127,167,51590,1,0,0:0:0:0:
223,256,51830,1,2,0:0:0:0:
187,74,52070,1,0,0:0:0:0:
187,74,52190,1,0,0:0:0:0:
270,107,52310,6,0,P|317:122|385:103,1,105,2|0,3:2|0:0,0:0:0:0:
455,49,52790,1,8,1:0:0:0:
464,210,53030,1,0,0:0:0:0:
448,21,53270,1,0,3:0:0:0:
465,237,53510,1,2,0:0:0:0:
498,106,53750,1,2,0:0:0:0:
431,313,53990,1,2,3:2:0:0:
431,313,54110,1,0,0:0:0:0:
395,232,54230,6,0,P|385:193|406:133,1,105,6|0,0:0|0:0,0:0:0:0:
472,73,54710,1,8,1:0:0:0:
312,145,54950,1,0,0:0:0:0:
465,237,55190,1,0,3:0:0:0:
327,310,55430,1,0,0:0:0:0:
491,229,55670,1,2,0:0:0:0:
339,209,55910,1,0,0:0:0:0:
339,209,56030,1,0,0:0:0:0:
256,247,56150,6,0,P|209:254|146:234,1,105,2|0,3:2|0:0,0:0:0:0:
71,172,56630,1,8,1:0:0:0:
215,103,56870,1,0,0:0:0:0:
215,103,57350,5,0,0:0:0:0:
126,308,57590,1,2,0:0:0:0:
57,183,57830,1,0,0:0:0:0:
57,183,57950,1,0,0:0:0:0:
138,226,58070,6,0,L|144:157,2,70,6|0|8,0:0|0:0|1:0,0:0:0:0:
191,94,58790,2,0,P|153:79|88:106,1,105
138,226,59270,2,0,L|144:157,1,70,0|2,0:0|0:0,0:0:0:0:
159,16,59750,1,0,0:0:0:0:
290,97,59990,6,0,L|190:87,1,70,6|0,0:0|0:0,0:0:0:0:
341,177,60470,6,0,L|232:166,1,105.000004005432,2|0,0:0|0:0,0:0:0:0:
381,257,60950,6,0,L|233:242,1,140,6|0,0:0|3:0,0:0:0:0:
144,228,61310,1,0,0:0:0:0:
258,156,61430,5,6,0:0:0:0:
198,317,61550,1,0,0:0:0:0:
130,201,61670,1,4,1:2:0:0:
285,141,61790,1,0,0:0:0:0:
166,383,61910,5,6,0:0:0:0:
317,75,62870,5,0,0:0:0:0:
55,143,63110,1,0,0:0:0:0:
270,276,63350,6,0,P|185:224|202:335,1,262.5,8|0,1:3|0:0,0:0:0:0:
270,276,63830,6,0,B|281:239|281:239|275:199,1,70,6|0,0:0|0:0,0:0:0:0:
163,83,64070,2,0,B|152:120|152:120|157:160,1,70,2|0,0:0|0:0,0:0:0:0:
320,140,64310,2,0,P|285:124|243:134,1,70,8|0,1:3|0:0,0:0:0:0:
137,256,64550,1,2,0:0:0:0:
137,256,64670,1,0,0:0:0:0:
7,165,64790,2,0,L|85:154,1,70,8|0,3:0|0:0,0:0:0:0:
248,195,65030,6,0,P|259:158|249:116,1,70,2|0,0:0|0:0,0:0:0:0:
93,52,65270,2,0,P|118:80|159:92,1,70,8|0,1:3|0:0,0:0:0:0:
293,5,65510,2,0,P|255:13|224:42,1,70,2|0,0:0|0:0,0:0:0:0:
332,169,65750,6,0,L|414:163,1,70,8|0,3:0|0:0,0:0:0:0:
241,234,65990,2,0,L|94:246,2,140,2|8|2,0:0|1:3|0:0,0:0:0:0:
251,88,66590,1,0,0:0:0:0:
224,215,66710,2,0,L|141:221,1,70,8|0,3:0|0:0,0:0:0:0:
340,150,66950,6,0,L|329:296,2,140,2|8|2,0:0|1:3|0:0,0:0:0:0:
423,57,67550,1,0,0:0:0:0:
423,57,67670,6,0,L|417:132,1,70,8|0,3:0|0:0,0:0:0:0:
335,220,67910,2,0,L|341:145,1,70,2|0,0:0|0:0,0:0:0:0:
371,284,68150,2,0,P|336:294|295:281,1,70,8|0,1:3|0:0,0:0:0:0:
182,205,68390,1,2,0:0:0:0:
182,205,68510,1,0,0:0:0:0:
273,89,68630,6,0,L|267:164,1,70,8|0,3:0|0:0,0:0:0:0:
170,344,68870,2,0,L|182:192,2,140,2|8|2,0:0|1:3|0:0,0:0:0:0:
125,151,69470,1,0,0:0:0:0:
125,151,69590,6,0,P|162:128|198:127,1,70,8|0,3:0|0:0,0:0:0:0:
324,208,69830,2,0,P|287:231|251:232,1,70,2|0,0:0|0:0,0:0:0:0:
404,113,70070,1,8,1:3:0:0:
404,113,70310,6,0,L|392:294,1,140,2|8,0:0|3:0,0:0:0:0:
314,322,70670,1,0,0:0:0:0:
268,225,70790,2,0,P|336:214|394:252,2,140,2|8|2,0:0|1:3|0:0,0:0:0:0:
118,281,71390,1,0,0:0:0:0:
191,146,71510,6,0,L|184:217,1,70,8|0,3:0|0:0,0:0:0:0:
76,139,71750,2,0,L|83:68,1,70,2|0,0:0|0:0,0:0:0:0:
205,0,71990,2,0,L|198:71,1,70,8|0,1:3|0:0,0:0:0:0:
259,173,72230,1,2,0:0:0:0:
259,173,72350,1,0,0:0:0:0:
329,73,72470,6,0,P|294:55|187:77,1,140,8|2,3:0|0:0,0:0:0:0:
116,159,72830,1,0,0:0:0:0:
116,159,72950,2,0,L|120:235,1,70,8|0,1:3|0:0,0:0:0:0:
225,329,73190,2,0,L|221:253,1,70,2|0,0:0|0:0,0:0:0:0:
308,167,73430,6,0,P|344:157|384:163,1,70,8|0,3:0|0:0,0:0:0:0:
221,259,73670,2,0,L|68:262,2,140,2|8|2,0:0|1:3|0:0,0:0:0:0:
326,331,74270,1,0,0:0:0:0:
326,331,74390,2,0,L|330:256,1,70,8|0,3:0|0:0,0:0:0:0:
429,157,74630,6,0,P|440:194|430:236,1,70,2|0,0:0|0:0,0:0:0:0:
274,300,74870,2,0,P|299:272|340:260,1,70,8|0,1:3|0:0,0:0:0:0:
474,347,75110,2,0,P|436:339|405:310,1,70,2|0,0:0|0:0,0:0:0:0:
311,187,75350,6,0,L|239:178,1,70,8|0,3:0|0:0,0:0:0:0:
47,267,75590,2,0,L|192:248,2,140,2|8|2,0:0|1:3|0:0,0:0:0:0:
115,115,76190,1,0,0:0:0:0:
115,115,76310,2,0,L|112:190,1,70,8|0,3:0|0:0,0:0:0:0:
65,48,76550,2,0,P|96:34|154:41,1,70,2|0,0:0|0:0,0:0:0:0:
284,107,76790,2,0,P|253:121|195:114,1,70,0|0,1:0|0:0,0:0:0:0:
347,16,77030,2,0,P|378:2|436:9,1,70,2|0,0:0|0:0,0:0:0:0:
284,107,77270,5,4,1:2:0:0:
493,32,77510,1,2,1:2:0:0:
372,266,77750,1,0,1:0:0:0:
408,106,77990,1,2,1:2:0:0:
408,106,78110,1,0,1:0:0:0:
260,182,78230,1,8,1:3:0:0:
468,252,78470,1,0,1:0:0:0:
231,171,78710,5,4,1:2:0:0:
231,248,78830,1,2,0:0:0:0:
305,272,78950,1,2,1:2:0:0:
350,209,79070,1,2,0:0:0:0:
305,147,79190,6,0,B|292:111|292:111|300:26,2,119.000002269745,6|2|8,1:2|0:0|1:0,0:0:0:0:
425,197,79910,1,2,0:0:0:0:
425,197,80030,1,0,0:0:0:0:
425,197,80150,2,0,P|388:176|286:251,1,178.500003404617,8|0,3:0|0:0,0:0:0:0:
367,256,80630,6,0,L|364:294,1,35,8|0,1:0|0:0,0:0:0:0:
278,355,80870,2,0,L|281:317,1,35,2|0,0:0|0:0,0:0:0:0:
200,191,81110,6,0,B|213:227|213:227|205:312,2,119.000002269745,6|2|8,1:2|0:0|1:0,0:0:0:0:
80,141,81830,1,2,0:0:0:0:
80,141,81950,1,0,0:0:0:0:
80,141,82070,2,0,P|117:162|219:87,1,178.500003404617,2|0,1:2|0:0,0:0:0:0:
138,84,82550,6,0,L|245:79,1,105,8|0,1:0|0:0,0:0:0:0:
420,47,83030,6,0,L|412:199,2,119.000002269745,6|2|8,1:2|0:0|1:0,0:0:0:0:
501,217,83750,1,2,0:0:0:0:
501,217,83870,1,0,0:0:0:0:
501,217,83990,2,0,P|464:196|362:271,1,178.500003404617,8|0,3:0|0:0,0:0:0:0:
444,276,84470,1,8,1:0:0:0:
444,276,84710,1,0,0:0:0:0:
277,200,84950,6,0,L|271:346,2,119.000002269745,6|2|8,1:2|0:0|1:0,0:0:0:0:
190,113,85550,1,0,0:0:0:0:
190,113,85670,2,0,L|185:191,1,59.5000011348725,2|0,0:0|0:0,0:0:0:0:
341,106,85910,5,8,1:0:0:0:
96,141,86150,1,2,1:2:0:0:
369,230,86390,1,8,1:0:0:0:
175,300,86630,5,2,0:0:0:0:
229,238,86750,1,2,3:2:0:0:
283,176,86870,6,0,B|296:140|296:140|288:55,2,119.000002269745,6|2|8,1:2|0:0|1:0,0:0:0:0:
163,226,87590,1,2,0:0:0:0:
163,226,87710,1,0,0:0:0:0:
163,226,87830,2,0,P|200:205|302:280,1,178.500003404617,8|0,3:0|0:0,0:0:0:0:
221,285,88310,6,0,L|224:323,1,35,8|0,1:0|0:0,0:0:0:0:
310,384,88550,2,0,L|307:346,1,35,2|0,0:0|0:0,0:0:0:0:
301,200,88790,6,0,B|288:164|288:164|296:79,2,119.000002269745,6|2|8,1:2|0:0|1:0,0:0:0:0:
421,250,89510,1,2,0:0:0:0:
421,250,89630,1,0,0:0:0:0:
421,250,89750,2,0,P|384:229|282:304,1,178.500003404617,2|0,1:2|0:0,0:0:0:0:
363,307,90230,6,0,L|256:312,1,105,8|0,1:0|0:0,0:0:0:0:
81,344,90710,6,0,L|89:192,2,119.000002269745,6|2|8,1:2|0:0|1:0,0:0:0:0:
0,174,91430,1,2,0:0:0:0:
0,174,91550,1,0,0:0:0:0:
0,174,91670,2,0,P|37:195|139:120,1,178.500003404617,8|0,1:3|0:0,0:0:0:0:
57,115,92150,1,8,1:0:0:0:
57,115,92390,1,0,0:0:0:0:
224,191,92630,6,0,L|230:45,2,119.000002269745,8|0|8,1:0|1:0|1:0,0:0:0:0:
311,278,93230,1,0,0:0:0:0:
311,278,93350,2,0,L|316:200,1,59.5000011348725,2|0,1:2|1:0,0:0:0:0:
160,285,93590,6,0,B|56:286|56:286|92:267,1,140,4|0,3:0|0:0,0:0:0:0:
160,285,94550,5,12,3:0:0:0:
250,75,94910,1,8,3:0:0:0:
279,344,95270,1,8,3:0:0:0:
364,117,95510,5,6,1:2:0:0:
153,177,95670,5,2,0:2:0:0:
422,241,95830,5,0,1:0:0:0:
146,335,95990,5,2,1:2:0:0:
146,335,96470,5,6,1:2:0:0:
287,230,96710,2,0,P|296:194|289:163,1,70,2|0,0:0|1:0,0:0:0:0:
79,206,96950,2,0,L|229:196,2,140,14|0|6,3:0|1:0|1:2,0:0:0:0:
14,161,97550,1,0,0:0:0:0:
55,280,97670,1,2,0:0:0:0:
6,131,97790,1,0,1:0:0:0:
64,308,97910,6,0,L|133:303,1,70,8|0,1:0|0:0,0:0:0:0:
196,129,98150,2,0,L|265:124,1,70,0|0,1:0|0:0,0:0:0:0:
197,269,98390,6,0,L|196:110,1,140,12|2,1:3|0:0,0:0:0:0:
270,52,98750,1,0,1:0:0:0:
270,52,98870,2,0,L|339:47,1,70,10|0,3:0|0:0,0:0:0:0:
409,149,99110,2,0,L|340:154,1,70,0|0,1:0|0:0,0:0:0:0:
259,264,99350,5,6,1:2:0:0:
259,180,99470,1,2,0:0:0:0:
339,154,99590,1,2,1:2:0:0:
388,222,99710,1,2,0:0:0:0:
339,290,99830,1,6,1:2:0:0:
339,290,100310,5,6,1:2:0:0:
198,185,100550,2,0,P|189:149|196:118,1,70,2|0,0:0|0:0,0:0:0:0:
406,161,100790,2,0,L|256:151,2,140,14|0|6,3:0|1:0|1:2,0:0:0:0:
471,116,101390,1,0,0:0:0:0:
430,235,101510,1,2,0:0:0:0:
479,86,101630,1,0,1:0:0:0:
425,261,101750,6,0,L|356:256,1,70,14|0,3:0|0:0,0:0:0:0:
290,85,101990,2,0,L|221:80,1,70,0|0,1:0|0:0,0:0:0:0:
290,224,102230,6,0,L|291:65,1,140,12|2,1:3|0:0,0:0:0:0:
215,7,102590,1,0,1:0:0:0:
215,7,102710,2,0,L|146:2,1,70,10|0,3:0|0:0,0:0:0:0:
76,104,102950,2,0,L|145:109,1,70,0|0,1:0|0:0,0:0:0:0:
226,219,103190,5,6,1:2:0:0:
226,135,103310,1,2,0:0:0:0:
146,109,103430,1,2,1:2:0:0:
97,177,103550,1,2,0:0:0:0:
146,245,103670,1,6,1:2:0:0:
146,245,104150,5,6,1:2:0:0:
146,109,104470,1,0,0:0:0:0:
146,109,104630,5,12,1:3:0:0:
231,287,104790,1,2,0:0:0:0:
260,116,104950,1,2,0:0:0:0:
227,322,105110,5,12,3:0:0:0:
294,97,105270,1,2,0:0:0:0:
121,176,105430,1,2,0:0:0:0:
354,254,105590,5,4,3:0:0:0:
198,63,105750,1,2,0:0:0:0:
227,322,105910,1,2,0:0:0:0:
293,13,106070,5,12,1:3:0:0:
69,112,106230,1,2,0:0:0:0:
264,218,106390,1,2,0:0:0:0:
73,287,106550,5,12,3:0:0:0:
201,132,106710,1,2,0:0:0:0:
157,361,106870,1,2,0:0:0:0:
209,100,107030,5,8,3:0:0:0:
6,195,107190,1,2,0:0:0:0:
21,175,107270,1,2,3:0:0:0:
36,155,107350,1,2,3:0:0:0:
307,227,107510,5,12,1:3:0:0:
100,91,107670,1,2,0:0:0:0:
170,334,107830,1,2,0:0:0:0:
273,12,107990,5,6,0:0:0:0:
211,211,108470,5,10,3:0:0:0:
299,123,108630,5,2,0:0:0:0:
179,91,108790,5,2,0:0:0:0:
337,196,108950,6,0,P|372:156|357:69,1,140,8|2,1:3|0:0,0:0:0:0:
261,19,109310,1,0,1:0:0:0:
211,211,109430,5,10,3:0:0:0:
299,123,109590,5,2,0:0:0:0:
179,91,109750,5,2,0:0:0:0:
160,285,109910,5,12,3:0:0:0:
373,115,110270,1,8,3:0:0:0:
141,81,110630,1,8,3:0:0:0:
290,342,110870,5,6,1:2:0:0:
252,53,111030,5,2,0:2:0:0:
129,247,111190,5,0,1:0:0:0:
418,193,111350,5,2,1:2:0:0:
403,59,111830,6,0,P|416:97|397:162,1,105,6|0,0:0|0:0,0:0:0:0:
267,102,112310,2,0,L|336:105,2,70,8|0|0,1:0|0:0|3:0,0:0:0:0:
154,96,113030,1,0,0:0:0:0:
207,180,113270,1,2,0:0:0:0:
216,26,113510,1,2,3:2:0:0:
216,26,113630,1,0,0:0:0:0:
154,96,113750,6,0,P|125:86|75:101,2,70,2|0|8,0:0|0:0|1:0,0:0:0:0:
118,163,114470,1,0,0:0:0:0:
289,128,114710,1,0,3:0:0:0:
154,96,114950,1,0,0:0:0:0:
218,259,115190,2,0,L|210:163,1,70,2|2,0:0|3:2,0:0:0:0:
289,128,115550,1,0,0:0:0:0:
351,186,115670,6,0,P|321:208|286:214,2,70,6|0|8,0:0|0:0|1:0,0:0:0:0:
289,128,116390,1,0,0:0:0:0:
242,277,116630,1,0,3:0:0:0:
385,217,116870,1,0,0:0:0:0:
289,128,117110,1,2,0:0:0:0:
325,310,117350,1,2,3:2:0:0:
325,310,117470,1,0,0:0:0:0:
242,277,117590,6,0,P|195:262|127:281,1,105,2|0,0:0|0:0,0:0:0:0:
57,335,118070,1,8,1:0:0:0:
48,174,118310,1,0,0:0:0:0:
64,363,118550,1,0,3:0:0:0:
47,147,118790,1,2,0:0:0:0:
1,281,119030,1,2,0:0:0:0:
81,71,119270,1,2,3:2:0:0:
81,71,119390,1,0,0:0:0:0:
117,152,119510,6,0,P|127:191|106:251,1,105,6|0,0:0|0:0,0:0:0:0:
40,311,119990,1,8,1:0:0:0:
200,239,120230,1,0,0:0:0:0:
47,147,120470,1,0,3:0:0:0:
185,74,120710,1,0,0:0:0:0:
21,155,120950,1,2,0:0:0:0:
173,175,121190,1,2,3:2:0:0:
173,175,121310,1,0,0:0:0:0:
256,137,121430,6,0,P|303:130|366:150,1,105,2|0,0:0|0:0,0:0:0:0:
441,212,121910,1,8,1:0:0:0:
297,281,122150,1,0,0:0:0:0:
297,281,122630,5,0,0:0:0:0:
386,76,122870,1,2,0:0:0:0:
455,201,123110,1,2,3:2:0:0:
455,201,123230,1,0,0:0:0:0:
374,158,123350,6,0,L|368:227,2,70,6|0|8,0:0|0:0|1:0,0:0:0:0:
321,290,124070,2,0,P|359:305|422:283,1,105
374,158,124550,2,0,L|368:227,1,70,0|2,0:0|0:0,0:0:0:0:
353,368,125030,1,0,0:0:0:0:
222,287,125270,6,0,L|322:297,1,70,6|0,0:0|0:0,0:0:0:0:
171,207,125750,6,0,L|280:218,1,105.000004005432,2|0,0:0|0:0,0:0:0:0:
131,127,126230,6,0,L|279:142,1,140,6|0,0:0|3:0,0:0:0:0:
368,156,126590,1,0,0:0:0:0:
252,227,126710,5,6,0:0:0:0:
314,67,126830,1,0,0:0:0:0:
382,183,126950,1,4,1:2:0:0:
225,242,127070,1,0,0:0:0:0:
346,1,127190,5,6,0:0:0:0:
195,309,128150,5,0,0:0:0:0:
457,241,128390,1,0,0:0:0:0:
242,108,128630,6,0,P|327:160|310:49,1,262.5,8|0,1:3|0:0,0:0:0:0:
242,108,129110,6,0,B|231:145|231:145|237:185,1,70,6|0,0:0|0:0,0:0:0:0:
349,301,129350,2,0,B|360:264|360:264|355:224,1,70,2|0,0:0|0:0,0:0:0:0:
192,244,129590,2,0,P|227:260|269:250,1,70,8|0,1:3|0:0,0:0:0:0:
375,128,129830,1,2,0:0:0:0:
375,128,129950,1,0,0:0:0:0:
505,219,130070,2,0,L|427:230,1,70,8|0,3:0|0:0,0:0:0:0:
264,189,130310,6,0,P|253:226|263:268,1,70,2|0,0:0|0:0,0:0:0:0:
419,332,130550,2,0,P|394:304|353:292,1,70,8|0,1:3|0:0,0:0:0:0:
219,379,130790,2,0,P|257:371|288:342,1,70,2|0,0:0|0:0,0:0:0:0:
180,215,131030,6,0,L|98:221,1,70,8|0,3:0|0:0,0:0:0:0:
271,150,131270,2,0,L|418:138,2,140,2|8|2,0:0|1:3|0:0,0:0:0:0:
261,296,131870,1,0,0:0:0:0:
288,169,131990,2,0,L|371:163,1,70,8|0,3:0|0:0,0:0:0:0:
172,234,132230,6,0,L|183:88,2,140,2|8|2,0:0|1:3|0:0,0:0:0:0:
89,327,132830,1,0,0:0:0:0:
89,327,132950,6,0,L|95:252,1,70,8|0,3:0|0:0,0:0:0:0:
177,164,133190,2,0,L|171:239,1,70,2|0,0:0|0:0,0:0:0:0:
141,100,133430,2,0,P|176:90|217:103,1,70,8|0,1:3|0:0,0:0:0:0:
330,179,133670,1,2,0:0:0:0:
330,179,133790,1,0,0:0:0:0:
239,295,133910,6,0,L|245:220,1,70,8|0,3:0|0:0,0:0:0:0:
342,40,134150,2,0,L|330:192,2,140,2|8|2,0:0|1:3|0:0,0:0:0:0:
387,233,134750,1,0,0:0:0:0:
387,233,134870,6,0,P|350:256|314:257,1,70,8|0,3:0|0:0,0:0:0:0:
188,176,135110,2,0,P|225:153|261:152,1,70,2|0,0:0|0:0,0:0:0:0:
108,271,135350,1,8,1:3:0:0:
108,271,135590,6,0,L|120:90,1,140,2|8,0:0|3:0,0:0:0:0:
198,62,135950,1,0,0:0:0:0:
243,159,136070,2,0,P|175:169|118:132,2,140,2|8|2,0:0|1:3|0:0,0:0:0:0:
394,103,136670,1,0,0:0:0:0:
321,238,136790,6,0,L|328:167,1,70,8|0,3:0|0:0,0:0:0:0:
436,245,137030,2,0,L|429:316,1,70,2|0,0:0|0:0,0:0:0:0:
307,384,137270,2,0,L|314:313,1,70,8|0,1:3|0:0,0:0:0:0:
253,211,137510,1,2,0:0:0:0:
253,211,137630,1,0,0:0:0:0:
183,311,137750,6,0,P|218:329|325:307,1,140,8|2,3:0|0:0,0:0:0:0:
396,225,138110,1,0,0:0:0:0:
396,225,138230,2,0,L|392:149,1,70,8|0,1:3|0:0,0:0:0:0:
287,55,138470,2,0,L|291:131,1,70,2|0,0:0|0:0,0:0:0:0:
204,217,138710,6,0,P|168:227|128:221,1,70,8|0,3:0|0:0,0:0:0:0:
291,125,138950,2,0,L|444:122,2,140,2|8|2,0:0|1:3|0:0,0:0:0:0:
186,53,139550,1,0,0:0:0:0:
186,53,139670,2,0,L|182:128,1,70,8|0,3:0|0:0,0:0:0:0:
83,227,139910,6,0,P|72:190|82:148,1,70,2|0,0:0|0:0,0:0:0:0:
238,84,140150,2,0,P|213:112|172:124,1,70,8|0,1:3|0:0,0:0:0:0:
38,37,140390,2,0,P|76:45|107:74,1,70,2|0,0:0|0:0,0:0:0:0:
201,197,140630,6,0,L|273:206,1,70,8|0,3:0|0:0,0:0:0:0:
465,117,140870,2,0,L|320:136,2,140,2|8|2,0:0|1:3|0:0,0:0:0:0:
397,269,141470,1,0,0:0:0:0:
397,269,141590,2,0,L|400:194,1,70,8|0,3:0|0:0,0:0:0:0:
447,336,141830,2,0,P|416:350|358:343,1,70,2|0,0:0|0:0,0:0:0:0:
228,277,142070,2,0,P|259:263|317:270,1,70,0|0,1:0|0:0,0:0:0:0:
165,368,142310,2,0,P|134:382|76:375,1,70,2|0,0:0|0:0,0:0:0:0:
228,277,142550,5,4,1:2:0:0:
19,352,142790,1,2,1:2:0:0:
140,118,143030,1,0,1:0:0:0:
104,278,143270,1,2,1:2:0:0:
104,278,143390,1,0,1:0:0:0:
252,202,143510,1,8,1:3:0:0:
44,132,143750,1,0,1:0:0:0:
281,213,143990,5,4,1:2:0:0:
281,136,144110,1,2,0:0:0:0:
207,112,144230,1,2,1:2:0:0:
162,175,144350,1,2,0:0:0:0:
207,237,144470,6,0,B|220:273|220:273|212:358,2,119.000002269745,6|2|8,1:2|0:0|1:0,0:0:0:0:
87,187,145190,1,2,0:0:0:0:
87,187,145310,1,0,0:0:0:0:
87,187,145430,2,0,P|124:208|226:133,1,178.500003404617,8|0,3:0|0:0,0:0:0:0:
145,128,145910,6,0,L|148:90,1,35,8|0,1:0|0:0,0:0:0:0:
234,29,146150,2,0,L|231:67,1,35,2|0,0:0|0:0,0:0:0:0:
312,193,146390,6,0,B|299:157|299:157|307:72,2,119.000002269745,6|2|8,1:2|0:0|1:0,0:0:0:0:
432,243,147110,1,2,0:0:0:0:
432,243,147230,1,0,0:0:0:0:
432,243,147350,2,0,P|395:222|293:297,1,178.500003404617,2|0,1:2|0:0,0:0:0:0:
374,300,147830,6,0,L|267:305,1,105,8|0,1:0|0:0,0:0:0:0:
92,337,148310,6,0,L|100:185,2,119.000002269745,6|2|8,1:2|0:0|1:0,0:0:0:0:
11,167,149030,1,2,0:0:0:0:
11,167,149150,1,0,0:0:0:0:
11,167,149270,2,0,P|48:188|150:113,1,178.500003404617,8|0,3:0|0:0,0:0:0:0:
68,108,149750,1,8,1:0:0:0:
68,108,149990,1,0,0:0:0:0:
235,184,150230,6,0,L|241:38,2,119.000002269745,6|2|8,1:2|0:0|1:0,0:0:0:0:
322,271,150830,1,0,0:0:0:0:
322,271,150950,2,0,L|327:193,1,59.5000011348725,2|0,0:0|0:0,0:0:0:0:
171,278,151190,5,8,1:0:0:0:
416,243,151430,1,2,1:2:0:0:
143,154,151670,1,8,1:0:0:0:
337,84,151910,5,2,0:0:0:0:
283,146,152030,1,2,3:2:0:0:
229,208,152150,6,0,B|216:244|216:244|224:329,2,119.000002269745,6|2|8,1:2|0:0|1:0,0:0:0:0:
349,158,152870,1,2,0:0:0:0:
349,158,152990,1,0,0:0:0:0:
349,158,153110,2,0,P|312:179|210:104,1,178.500003404617,8|0,3:0|0:0,0:0:0:0:
291,99,153590,6,0,L|288:61,1,35,8|0,1:0|0:0,0:0:0:0:
202,0,153830,2,0,L|205:38,1,35,2|0,0:0|0:0,0:0:0:0:
211,184,154070,6,0,B|224:220|224:220|216:305,2,119.000002269745,6|2|8,1:2|0:0|1:0,0:0:0:0:
91,134,154790,1,2,0:0:0:0:
91,134,154910,1,0,0:0:0:0:
91,134,155030,2,0,P|128:155|230:80,1,178.500003404617,2|0,1:2|0:0,0:0:0:0:
149,77,155510,6,0,L|256:72,1,105,8|0,1:0|0:0,0:0:0:0:
431,40,155990,6,0,L|423:192,2,119.000002269745,6|2|8,1:2|0:0|1:0,0:0:0:0:
512,210,156710,1,2,0:0:0:0:
512,210,156830,1,0,0:0:0:0:
512,210,156950,2,0,P|475:189|373:264,1,178.500003404617,8|0,1:3|0:0,0:0:0:0:
455,269,157430,1,8,1:0:0:0:
455,269,157670,1,0,0:0:0:0:
288,193,157910,6,0,L|282:339,2,119.000002269745,8|0|8,1:0|1:0|1:0,0:0:0:0:
201,106,158510,1,0,0:0:0:0:
201,106,158630,2,0,L|196:184,1,59.5000011348725,2|0,1:2|1:0,0:0:0:0:
352,99,158870,6,0,B|456:98|456:98|420:117,1,140,4|0,3:0|0:0,0:0:0:0:
424,115,159830,5,12,0:3:0:0:
226,66,160310,1,2,0:0:0:0:
424,115,160790,1,0,3:0:0:0:
424,115,161270,5,2,0:0:0:0:
344,59,161510,1,0,0:0:0:0:
336,157,161750,5,8,1:0:0:0:
424,115,161990,1,0,0:0:0:0:
416,212,162230,5,2,0:0:0:0:
425,88,162470,1,0,0:0:0:0:
271,165,162710,2,0,L|375:159,1,90.9999958343508,8|2,1:0|0:0,0:0:0:0:
194,213,163190,5,2,3:0:0:0:
295,296,163430,1,0,0:0:0:0:
180,188,163670,6,0,L|191:376,1,181.999991668702,8|8,1:0|1:0,0:0:0:0:
106,259,164390,1,2,0:0:0:0:
106,259,164630,6,0,L|210:245,1,90.9999958343508,8|0,1:0|0:0,0:0:0:0:
255,181,165110,2,0,L|151:167,1,90.9999958343508,2|0,1:2|0:0,0:0:0:0:
306,256,165590,5,8,1:0:0:0:
321,95,165830,1,0,0:0:0:0:
254,318,166070,5,2,1:2:0:0:
239,157,166310,1,0,0:0:0:0:
332,365,166550,5,8,1:0:0:0:
360,268,166790,1,2,0:0:0:0:
254,318,167030,5,8,1:0:0:0:
263,201,167270,1,2,0:0:0:0:
95,294,167510,5,8,1:0:0:0:
173,175,167750,1,0,0:0:0:0:
180,353,167990,5,8,1:0:0:0:
71,208,168230,1,2,0:0:0:0:
251,186,168470,2,0,P|246:138|181:100,1,90.9999958343508,8|0,1:0|0:0,0:0:0:0:
167,289,168950,5,8,1:0:0:0:
173,175,169190,1,2,0:0:0:0:
96,339,169430,5,8,1:0:0:0:
238,233,169670,1,0,0:0:0:0:
76,164,169910,5,8,1:0:0:0:
167,289,170150,1,0,0:0:0:0:
213,78,170390,5,8,1:0:0:0:
189,186,170630,1,2,0:0:0:0:
379,96,170870,5,8,1:0:0:0:
260,153,171110,1,0,0:0:0:0:
369,228,171350,2,0,L|375:116,1,90.9999958343508,8|0,1:0|0:0,0:0:0:0:
444,232,171830,5,8,1:0:0:0:
325,289,172070,1,0,0:0:0:0:
434,364,172310,2,0,L|440:252,1,90.9999958343508,2|0,1:2|0:0,0:0:0:0:
334,117,172790,2,0,P|319:161|327:207,1,90.9999958343508,8|0,1:0|0:0,0:0:0:0:
402,57,173270,5,2,1:2:0:0:
228,137,173510,2,0,L|166:136,1,45.4999979171754,2|0,0:0|1:0,0:0:0:0:
385,248,173750,5,2,1:2:0:0:
219,119,173990,1,2,0:0:0:0:
443,191,174230,5,8,1:0:0:0:
404,168,174350,1,0,0:0:0:0:
359,170,174470,1,8,1:0:0:0:
323,196,174590,1,0,0:0:0:0:
258,276,174710,5,8,1:0:0:0:
216,306,174830,1,0,0:0:0:0:
163,308,174950,1,8,1:0:0:0:
119,282,175070,1,0,0:0:0:0:
185,223,175190,5,6,0:0:0:0:
150,246,178070,5,0,0:0:0:0:
405,171,178310,1,0,0:0:0:0:
232,19,178550,6,0,P|280:38|174:79,1,283.500001081467,0|0,1:0|0:0,0:0:0:0:
232,19,179030,6,0,B|268:11|268:11|321:20,1,74.8999977142335,6|0,1:2|0:0,0:0:0:0:
411,108,179270,2,0,B|419:144|419:144|410:197,1,74.8999977142335,2|0,0:0|0:0,0:0:0:0:
287,314,179510,2,0,B|279:278|279:278|288:225,1,74.8999977142335,8|0,1:3|0:0,0:0:0:0:
412,181,179750,1,2,0:0:0:0:
412,181,179870,1,0,0:0:0:0:
235,129,179990,6,0,L|351:124,1,74.8999977142335,8|0,3:0|0:0,0:0:0:0:
165,173,180230,2,0,P|152:136|170:77,1,74.8999977142335,2|0,0:0|0:0,0:0:0:0:
301,54,180470,2,0,P|314:91|296:150,1,74.8999977142335,8|0,1:3|0:0,0:0:0:0:
249,292,180710,2,0,L|254:192,1,74.8999977142335,2|0,0:0|0:0,0:0:0:0:
114,304,180950,6,0,L|109:404,1,74.8999977142335,8|0,3:0|0:0,0:0:0:0:
163,228,181190,2,0,P|116:214|31:272,2,149.799995428467,2|8|2,0:0|1:3|0:0,0:0:0:0:
296,302,181790,1,0,0:0:0:0:
296,302,181910,2,0,P|333:311|369:303,1,74.8999977142335,8|0,3:0|0:0,0:0:0:0:
489,196,182150,6,0,P|452:187|416:195,1,74.8999977142335,2|0,0:0|0:0,0:0:0:0:
451,341,182390,2,0,L|453:239,1,74.8999977142335,8|0,1:3|0:0,0:0:0:0:
333,154,182630,2,0,L|331:256,1,74.8999977142335,2|0,0:0|0:0,0:0:0:0:
236,91,182870,6,0,B|200:85|200:85|157:93,1,74.8999977142335,8|0,3:0|0:0,0:0:0:0:
59,221,183110,2,0,L|49:57,2,149.799995428467,2|8|2,0:0|1:3|0:0,0:0:0:0:
152,328,183710,1,0,0:0:0:0:
152,328,183830,2,0,L|159:244,1,74.8999977142335,8|0,3:0|0:0,0:0:0:0:
260,136,184070,6,0,P|299:130|338:137,1,74.8999977142335,2|0,0:0|0:0,0:0:0:0:
425,309,184310,2,0,P|400:278|386:240,1,74.8999977142335,8|0,1:3|0:0,0:0:0:0:
487,78,184550,2,0,P|472:114|447:145,1,74.8999977142335,2|0,0:0|0:0,0:0:0:0:
324,280,184790,6,0,P|315:245|336:196,1,74.8999977142335,8|0,3:0|0:0,0:0:0:0:
261,64,185030,2,0,P|270:99|249:148,1,74.8999977142335,2|0,0:0|0:0,0:0:0:0:
91,211,185270,1,8,1:3:0:0:
193,96,185510,5,2,0:0:0:0:
193,96,185630,1,0,0:0:0:0:
193,96,185750,2,0,L|110:85,1,74.8999977142335,8|0,3:0|0:0,0:0:0:0:
294,190,185990,2,0,L|310:33,2,149.799995428467,2|8|2,0:0|1:3|0:0,0:0:0:0:
330,314,186590,1,0,0:0:0:0:
330,314,186710,6,0,P|292:324|237:308,1,74.8999977142335,8|0,3:0|0:0,0:0:0:0:
91,245,186950,2,0,P|129:235|184:251,1,74.8999977142335,2|0,0:0|0:0,0:0:0:0:
129,384,187190,2,0,L|132:301,1,74.8999977142335,8|0,1:3|0:0,0:0:0:0:
26,133,187430,2,0,L|23:216,1,74.8999977142335,2|0,0:0|0:0,0:0:0:0:
156,69,187670,2,0,B|119:60|119:60|80:68,1,74.8999977142335,8|0,3:0|0:0,0:0:0:0:
218,164,187910,6,0,P|254:173|301:162,1,74.8999977142335,2|0,0:0|0:0,0:0:0:0:
465,80,188150,2,0,P|429:71|382:82,1,74.8999977142335,0|0,1:0|0:0,0:0:0:0:
214,181,188390,2,0,P|250:190|297:179,1,74.8999977142335,2|0,0:0|0:0,0:0:0:0:
441,308,188630,6,0,L|456:145,2,149.799995428467,8|2|8,3:0|0:0|1:3,0:0:0:0:
243,278,189350,1,2,0:0:0:0:
243,278,189470,1,0,0:0:0:0:
243,278,189590,2,0,P|281:270|320:278,1,74.8999977142335,8|0,3:0|0:0,0:0:0:0:
168,202,189830,6,0,L|156:295,1,74.8999977142335,2|0,0:0|0:0,0:0:0:0:
269,114,190070,2,0,L|257:207,1,74.8999977142335,8|0,1:3|0:0,0:0:0:0:
192,34,190310,2,0,L|180:127,1,74.8999977142335,2|0,0:0|0:0,0:0:0:0:
72,193,190550,6,0,P|39:197|-2:184,1,74.8999977142335,8|0,3:0|0:0,0:0:0:0:
182,108,190790,2,0,L|159:283,2,149.799995428467,2|8|2,0:0|1:3|0:0,0:0:0:0:
272,221,191390,1,0,0:0:0:0:
272,221,191510,2,0,L|261:298,1,74.8999977142335,8|0,3:0|0:0,0:0:0:0:
351,193,191750,5,2,0:0:0:0:
196,227,191870,1,2,0:0:0:0:
331,310,191990,1,0,1:0:0:0:
285,146,192110,1,2,0:0:0:0:
252,366,192230,1,2,0:0:0:0:
272,221,192350,1,2,0:0:0:0:
106,287,192470,5,4,1:2:0:0:
203,116,192710,1,2,1:2:0:0:
162,360,192950,1,2,1:2:0:0:
42,181,193190,1,0,1:0:0:0:
140,222,193310,1,0,1:0:0:0:
55,286,193430,1,8,1:3:0:0:
266,128,193670,1,2,1:2:0:0:
293,368,193910,5,6,1:2:0:0:
214,342,194030,1,2,0:0:0:0:
214,260,194150,1,2,1:2:0:0:
293,234,194270,1,2,0:0:0:0:
341,301,194390,6,0,B|394:304|394:304|419:295|419:295|468:298,2,125.999996154785,6|2|8,1:2|0:0|1:0,0:0:0:0:
506,366,195110,1,2,0:0:0:0:
506,366,195230,1,0,0:0:0:0:
506,366,195350,2,0,P|472:325|519:204,1,188.999994232178,8|0,3:0|0:0,0:0:0:0:
397,139,195830,6,0,P|375:137|360:140,1,35,8|0,1:0|0:0,0:0:0:0:
265,220,196070,2,0,P|287:222|302:219,1,35,2|0,0:0|0:0,0:0:0:0:
276,23,196310,6,0,B|273:76|273:76|282:101|282:101|279:150,2,125.999996154785,2|2|8,1:2|0:0|1:0,0:0:0:0:
211,188,197030,1,2,0:0:0:0:
211,188,197150,1,0,0:0:0:0:
211,188,197270,2,0,P|252:154|373:201,1,188.999994232178,8|0,3:0|0:0,0:0:0:0:
281,339,197750,6,0,L|291:213,1,105,8|0,1:0|0:0,0:0:0:0:
197,115,198230,6,0,B|160:98|160:98|51:106,2,125.999996154785,6|2|8,1:2|0:0|1:0,0:0:0:0:
32,169,198950,1,2,0:0:0:0:
32,169,199070,1,0,0:0:0:0:
32,169,199190,2,0,P|2:124|93:31,1,188.999994232178,8|0,3:0|0:0,0:0:0:0:
197,115,199670,1,8,1:0:0:0:
197,115,199910,1,2,0:0:0:0:
109,276,200150,6,0,L|118:141,2,125.999996154785,2|2|8,1:2|0:0|1:0,0:0:0:0:
109,276,200870,1,2,0:0:0:0:
291,185,201110,5,8,1:0:0:0:
117,150,201350,1,2,1:2:0:0:
206,331,201590,1,8,1:0:0:0:
240,194,201830,5,2,0:0:0:0:
286,131,201950,1,2,0:0:0:0:
327,65,202070,6,0,B|380:62|380:62|405:71|405:71|454:68,2,125.999996154785,6|2|8,1:2|0:0|1:0,0:0:0:0:
492,0,202790,1,2,0:0:0:0:
492,0,202910,1,0,0:0:0:0:
492,0,203030,2,0,P|458:41|505:162,1,188.999994232178,8|0,3:0|0:0,0:0:0:0:
383,227,203510,6,0,P|361:229|346:226,1,35,8|0,1:0|0:0,0:0:0:0:
251,146,203750,2,0,P|273:144|288:147,1,35,2|0,0:0|0:0,0:0:0:0:
262,343,203990,6,0,B|259:290|259:290|268:265|268:265|265:216,2,125.999996154785,2|2|8,1:2|0:0|1:0,0:0:0:0:
197,178,204710,1,2,0:0:0:0:
197,178,204830,1,0,0:0:0:0:
197,178,204950,2,0,P|238:212|359:165,1,188.999994232178,8|0,3:0|0:0,0:0:0:0:
267,27,205430,6,0,L|277:153,1,105,8|0,1:0|0:0,0:0:0:0:
183,251,205910,6,0,B|146:268|146:268|37:260,2,125.999996154785,6|2|8,1:2|0:0|1:0,0:0:0:0:
18,197,206630,1,2,0:0:0:0:
18,197,206750,1,0,0:0:0:0:
18,197,206870,2,0,P|-12:242|79:335,1,188.999994232178,8|0,3:0|0:0,0:0:0:0:
183,251,207350,1,8,1:0:0:0:
183,251,207590,1,0,0:0:0:0:
95,90,207830,6,0,L|104:225,2,125.999996154785,2|2|8,1:2|1:2|1:0,0:0:0:0:
95,90,208550,1,2,0:0:0:0:
209,188,208670,1,0,1:0:0:0:
61,279,208790,6,0,P|27:229|53:157,1,140,6|0,0:0|0:0,0:0:0:0:
