osu file format v14

[General]
AudioFilename: audio.mp3
AudioLeadIn: 0
PreviewTime: 104390
Countdown: 0
SampleSet: Soft
StackLeniency: 0.4
Mode: 0
LetterboxInBreaks: 0
WidescreenStoryboard: 1

[Editor]
Bookmarks: 13902,31182,46542,63822,79182,94542,111822,129102,144462,159822,175182,179022,194382,209742
DistanceSpacing: 1
BeatDivisor: 4
GridSize: 4
TimelineZoom: 1.4

[Metadata]
Title:AS IF IT'S YOUR LAST
TitleUnicode:마지막처럼
Artist:BLACKPINK
ArtistUnicode:BLACKPINK
Creator:Natsu
Version:Normal
Source:
Tags:k-pop kpop 블핑 블랙핑크 지수 jisoo 제니 jennie 로제 rosÉ 리사 lisa yg entertainment Syph
BeatmapID:1344776
BeatmapSetID:630325

[Difficulty]
HPDrainRate:2
CircleSize:3
OverallDifficulty:4
ApproachRate:5
SliderMultiplier:1
SliderTickRate:1

[Events]
//Background and Video events
0,0,"znvferg.jpg",0,0
Video,-927,"BLACKPINK - AS IF IT'S YOUR LAST.avi"
//Break Periods
2,175390,177350
//Storyboard Layer 0 (Background)
//Storyboard Layer 1 (Fail)
//Storyboard Layer 2 (Pass)
//Storyboard Layer 3 (Foreground)
//Storyboard Sound Samples

[TimingPoints]
13910,480,4,2,1,40,1,0
15830,-100,4,2,1,50,0,0
18950,-100,4,2,1,60,0,0
19430,-100,4,2,1,50,0,0
22790,-100,4,2,1,60,0,0
23750,-100,4,2,1,50,0,0
26630,-100,4,2,1,60,0,0
27110,-100,4,2,1,50,0,0
34310,-100,4,2,1,60,0,0
34790,-100,4,2,1,50,0,0
38150,-100,4,2,1,60,0,0
38630,-100,4,2,1,40,0,0
39110,-100,4,2,1,50,0,0
41990,-100,4,2,1,60,0,0
42470,-100,4,2,1,50,0,0
46550,-100,4,2,1,40,0,0
60950,-100,4,2,1,45,0,0
61190,-100,4,2,1,50,0,0
61430,-100,4,2,1,55,0,0
61670,-100,4,2,1,60,0,0
61910,-100,4,2,1,65,0,0
63350,-100,4,2,1,70,0,0
63590,-100,4,2,1,50,0,0
63830,-100,4,2,1,70,0,1
64070,-100,4,2,2,60,0,1
79070,-100,4,2,2,60,0,0
79190,-100,4,2,2,60,0,1
94070,-100,4,2,1,5,0,0
94550,-100,4,2,1,50,0,0
96950,-100,4,2,2,50,0,0
97190,-100,4,2,1,50,0,0
97910,-100,4,2,2,50,0,0
98150,-100,4,2,1,50,0,0
98870,-100,4,2,2,50,0,0
99110,-100,4,2,1,50,0,0
100790,-100,4,2,2,50,0,0
101030,-100,4,2,1,50,0,0
101750,-100,4,2,2,50,0,0
101990,-100,4,2,1,50,0,0
102710,-100,4,2,2,50,0,0
102950,-100,4,2,1,50,0,0
104790,-100,4,2,1,40,0,0
105110,-100,4,2,1,50,0,0
105270,-100,4,2,1,40,0,0
105590,-100,4,2,1,50,0,0
105750,-100,4,2,1,40,0,0
106070,-100,4,2,1,50,0,0
106230,-100,4,2,1,40,0,0
106550,-100,4,2,1,50,0,0
106710,-100,4,2,1,40,0,0
107030,-100,4,2,1,50,0,0
107190,-100,4,2,1,40,0,0
107510,-100,4,2,1,50,0,0
107670,-100,4,2,1,40,0,0
108470,-100,4,2,1,50,0,0
109430,-100,4,2,2,50,0,0
109590,-100,4,2,1,50,0,0
112310,-100,4,2,1,40,0,0
126230,-100,4,2,1,45,0,0
126470,-100,4,2,1,50,0,0
126710,-100,4,2,1,55,0,0
126950,-100,4,2,1,60,0,0
127190,-100,4,2,1,65,0,0
128630,-100,4,2,1,70,0,0
129110,-100,4,2,1,70,0,1
129350,-100,4,2,2,70,0,1
144350,-100,4,2,2,60,0,0
144470,-100,4,2,2,60,0,1
159350,-100,4,2,1,5,0,0
159830,-100,4,2,1,40,0,0
173270,-100,4,2,1,40,0,0
174230,-100,4,2,1,45,0,0
174470,-100,4,2,1,50,0,0
174710,-100,4,2,1,55,0,0
174950,-100,4,2,1,60,0,0
175190,-100,4,2,1,65,0,0
178550,-100,4,2,1,70,0,0
179030,-100,4,2,1,70,0,1
179270,-100,4,2,2,60,0,1
194270,-100,4,2,2,60,0,0
194390,-100,4,2,2,60,0,1
209270,-100,4,2,2,5,0,0

[Colours]
Combo1 : 115,115,115
Combo2 : 62,158,255
Combo3 : 255,78,47
Combo4 : 221,0,221
Combo5 : 249,249,249
SliderBorder : 221,0,221
SliderTrackOverride : 30,30,30

[HitObjects]
49,281,13910,6,0,P|37:322|50:362,2,75,12|8|8,3:0|3:0|3:0,0:0:0:0:
88,249,14870,2,0,B|121:255|121:255|147:234|147:234|193:244,1,100,12|12,3:0|3:0,0:0:0:0:
268,286,15830,22,0,P|279:231|260:189,1,100,12|8,3:0|3:0,0:0:0:0:
237,155,16550,1,8,0:0:0:0:
237,155,16790,2,0,B|146:149,2,75,8|8|8,3:0|0:0|0:0,0:0:0:0:
277,124,17750,2,0,B|361:110,2,75,8|8|8,3:0|0:0|0:0,0:0:0:0:
230,107,18710,2,0,L|212:57,2,50,8|10|14,3:0|0:0|0:0,0:0:0:0:
226,206,19670,38,0,P|171:195|129:214,1,100,12|8,3:0|3:0,0:0:0:0:
95,237,20390,1,8,0:0:0:0:
95,237,20630,2,0,B|89:328,2,75,8|8|8,3:0|0:0|0:0,0:0:0:0:
64,197,21590,2,0,B|50:113,2,75,8|8|8,3:0|0:0|0:0,0:0:0:0:
47,244,22550,2,0,L|-3:262,2,50,8|10|14,3:0|0:0|0:0,0:0:0:0:
195,263,23750,22,0,L|245:245,2,50,2|8|8,0:0|3:0|0:0,0:0:0:0:
145,256,24470,2,0,P|134:215|147:181,2,75,0|8|8,3:0|0:0|0:0,0:0:0:0:
81,333,25670,38,0,L|24:347,2,50,2|8|8,0:0|3:0|0:0,0:0:0:0:
129,345,26390,2,0,L|185:332,1,50,8|10,3:0|0:0,0:0:0:0:
217,363,26870,2,0,L|277:348,1,50,14|2,0:0|0:0,0:0:0:0:
325,270,27590,22,0,L|385:255,2,50,2|8|8,0:0|3:0|0:0,0:0:0:0:
283,242,28310,2,0,P|290:202|276:163,2,75,8|8|8,3:0|0:0|0:0,0:0:0:0:
232,240,29270,2,0,P|192:233|153:247,2,75,12|12|12,3:0|3:0|3:0,0:0:0:0:
259,281,30230,2,0,B|253:314|253:314|274:340|274:340|264:386,1,100,12|12,3:0|3:0,0:0:0:0:
168,364,31190,38,0,P|149:311|162:266,1,100,14|8,3:0|3:0,0:0:0:0:
180,229,31910,1,8,0:0:0:0:
180,229,32150,2,0,B|269:210,2,75,8|8|8,3:0|0:0|0:0,0:0:0:0:
136,204,33110,2,0,B|50:201,2,75,8|8|8,3:0|0:0|0:0,0:0:0:0:
180,181,34070,2,0,L|190:128,2,50,8|10|14,3:0|0:0|0:0,0:0:0:0:
164,280,35030,22,0,P|219:291|261:272,1,100,14|8,3:0|3:0,0:0:0:0:
295,249,35750,1,8,0:0:0:0:
295,249,35990,2,0,B|301:158,2,75,8|8|8,3:0|0:0|0:0,0:0:0:0:
326,289,36950,2,0,B|340:373,2,75,8|8|8,3:0|0:0|0:0,0:0:0:0:
343,242,37910,2,0,L|393:224,2,50,8|10|14,3:0|0:0|0:0,0:0:0:0:
200,288,39110,38,0,L|150:270,2,50,2|8|8,0:0|3:0|0:0,0:0:0:0:
250,281,39830,2,0,P|261:240|248:206,2,75,8|8|8,3:0|0:0|0:0,0:0:0:0:
292,372,41030,22,0,L|349:358,2,50,2|8|8,0:0|3:0|0:0,0:0:0:0:
244,360,41750,2,0,L|188:373,1,50,8|10,3:0|0:0,0:0:0:0:
156,342,42230,2,0,L|96:357,1,50,14|2,0:0|0:0,0:0:0:0:
44,280,42950,38,0,L|32:220,2,50,2|8|8,0:0|3:0|0:0,0:0:0:0:
92,272,43670,2,0,L|144:256,1,50,8|2,3:0|0:0,0:0:0:0:
164,212,44150,2,0,L|232:188,1,50,8|8,3:0|0:0,0:0:0:0:
260,180,44630,2,0,P|251:219|264:256,2,75,12|12|12,3:0|3:0|3:0,0:0:0:0:
304,156,45590,2,0,B|337:162|337:162|363:141|363:141|409:151,1,100,12|12,3:0|3:0,0:0:0:0:
496,164,46550,53,6,0:0:0:0:
443,248,47030,2,0,P|436:271|440:296,1,50,8|2,1:0|0:0,0:0:0:0:
403,331,47510,2,0,P|355:319|307:331,1,100,2|8,1:0|1:0,0:0:0:0:
262,352,48230,2,0,P|213:363|165:351,1,100,2|2,1:0|0:0,0:0:0:0:
126,319,48950,2,0,L|122:261,1,50,8|2,1:0|0:0,0:0:0:0:
51,198,49670,54,0,L|45:139,1,50,8|8,1:0|1:0,0:0:0:0:
39,98,50150,2,0,P|86:110|134:95,1,100,10|2,1:0|0:0,0:0:0:0:
227,58,51110,2,0,P|274:43|322:55,2,100,2|2|10,0:0|0:0|1:0,0:0:0:0:
214,106,52310,2,0,L|204:211,1,100,10|8,1:0|1:0,0:0:0:0:
191,304,53270,6,0,P|239:289|286:304,1,100,2|8,1:0|1:0,0:0:0:0:
373,354,54230,1,10,1:0:0:0:
366,254,54710,2,0,L|373:197,1,50,8|2,1:0|0:0,0:0:0:0:
284,156,55430,2,0,L|277:213,1,50,8|8,1:0|1:0,0:0:0:0:
267,254,55910,2,0,P|220:238|173:252,2,100,10|2|2,1:0|0:0|0:0,0:0:0:0:
347,313,57350,54,0,L|406:314,1,50,8|8,1:0|1:0,0:0:0:0:
446,310,57830,2,0,P|433:257|448:210,1,100,10|2,1:0|0:0,0:0:0:0:
488,123,58790,2,0,P|499:74|487:26,2,100,2|2|2,0:0|0:0|0:0,0:0:0:0:
440,137,59990,22,0,L|331:145,1,100,8|8,0:0|0:0,0:0:0:0:
252,192,60950,2,0,L|238:246,1,50,8|8,0:0|0:0,0:0:0:0:
190,231,61430,2,0,L|176:285,1,50,8|8,0:0|0:0,0:0:0:0:
127,281,61910,1,6,0:0:0:0:
103,27,63350,5,4,1:0:0:0:
93,130,63830,53,6,0:0:0:0:
93,130,64070,2,0,L|100:184,2,50,2|8|2,0:0|0:0|0:0,0:0:0:0:
192,138,65030,2,0,L|199:192,2,50,2|8|2,0:0|0:0|0:0,0:0:0:0:
291,148,65990,2,0,P|315:153|339:149,1,50,2|8,0:0|0:0,0:0:0:0:
384,126,66470,2,0,P|408:121|432:127,1,50,2|8,0:0|3:0,0:0:0:0:
468,162,66950,22,0,L|478:218,2,50,2|8|2,0:0|0:0|0:0,0:0:0:0:
389,223,67910,2,0,L|398:277,1,50,2|8,0:0|0:0,0:0:0:0:
406,321,68390,1,2,0:0:0:0:
306,307,68870,2,0,P|278:304|254:309,1,50,2|8,0:0|0:0,0:0:0:0:
210,327,69350,2,0,L|222:219,1,100,2|2,0:0|0:0,0:0:0:0:
232,128,70310,37,2,0:0:0:0:
311,189,70790,1,2,0:0:0:0:
221,228,71270,1,2,0:0:0:0:
138,171,71750,22,0,P|109:174|77:168,2,50,2|8|2,0:0|0:0|0:0,0:0:0:0:
232,128,72710,2,0,P|229:99|238:67,2,50,2|8|2,0:0|0:0|0:0,0:0:0:0:
326,159,73670,2,0,P|350:156|375:159,1,50,2|8,0:0|0:0,0:0:0:0:
423,175,74150,2,0,P|447:177|472:174,1,50,2|8,0:0|3:0,0:0:0:0:
497,131,74630,38,0,L|505:69,2,50,2|8|2,0:0|0:0|0:0,0:0:0:0:
405,87,75590,2,0,P|381:84|356:89,1,50,2|8,0:0|0:0,0:0:0:0:
311,110,76070,1,2,0:0:0:0:
285,206,76550,2,0,P|309:209|334:204,1,50,2|8,0:0|0:0,0:0:0:0:
380,184,77030,1,2,0:0:0:0:
471,136,77510,21,8,0:0:0:0:
471,136,77750,2,0,L|480:202,1,50,8|8,0:0|0:0,0:0:0:0:
447,226,78230,2,0,L|461:311,2,75,8|8|8,0:0|0:0|0:0,0:0:0:0:
396,223,79190,38,0,P|371:229|347:226,1,50,6|2,0:0|0:0,0:0:0:0:
300,207,79670,2,0,P|275:203|251:209,1,50,8|2,0:0|0:0,0:0:0:0:
209,237,80150,1,8,3:0:0:0:
119,191,80630,2,0,L|115:141,1,50,12|2,1:0|0:0,0:0:0:0:
109,91,81110,22,0,P|134:97|158:94,1,50,8|2,3:0|0:0,0:0:0:0:
205,75,81590,2,0,P|230:71|254:77,1,50,8|2,0:0|0:0,0:0:0:0:
296,105,82070,1,10,3:0:0:0:
362,179,82550,2,0,L|366:244,1,50,12|2,1:0|0:0,0:0:0:0:
361,278,83030,38,0,P|336:273|311:276,1,50,8|2,3:0|0:0,0:0:0:0:
267,298,83510,2,0,P|242:301|217:296,1,50,8|2,0:0|0:0,0:0:0:0:
177,266,83990,2,0,L|168:189,2,75,8|2|2,3:0|0:0|0:0,0:0:0:0:
139,298,84950,2,0,P|92:315|44:301,1,100,8|8,3:0|0:0,0:0:0:0:
22,257,85670,2,0,B|8:211|8:211|47:98,1,150,2|12,0:0|1:0,0:0:0:0:
131,71,86870,22,0,P|156:77|180:74,1,50,6|2,0:0|0:0,0:0:0:0:
227,55,87350,2,0,P|252:51|276:57,1,50,8|2,0:0|0:0,0:0:0:0:
318,85,87830,1,8,3:0:0:0:
368,171,88310,2,0,L|362:242,1,50,12|2,1:0|0:0,0:0:0:0:
351,269,88790,38,0,P|326:263|302:266,1,50,8|2,3:0|0:0,0:0:0:0:
255,285,89270,2,0,P|230:289|206:283,1,50,8|2,0:0|0:0,0:0:0:0:
164,255,89750,1,10,3:0:0:0:
112,169,90230,2,0,L|120:109,1,50,12|2,1:0|0:0,0:0:0:0:
128,69,90710,22,0,P|153:73|178:68,1,50,6|2,0:0|0:0,0:0:0:0:
226,54,91190,2,0,P|250:49|275:52,1,50,8|2,0:0|0:0,0:0:0:0:
317,79,91670,2,0,L|308:164,2,75,8|2|2,3:0|0:0|0:0,0:0:0:0:
360,53,92630,2,0,P|408:43|456:55,1,100,8|8,0:0|0:0,0:0:0:0:
504,142,93590,2,0,P|455:152|407:140,1,100,12|0,0:0|0:0,0:0:0:0:
325,81,94550,38,0,P|289:70|253:78,2,75,12|12|12,3:0|3:0|3:0,0:0:0:0:
330,130,95510,2,0,B|324:163|324:163|345:189|345:189|335:235,1,100,12|12,3:0|3:0,0:0:0:0:
322,320,96470,1,12,3:0:0:0:
322,320,96710,2,0,L|253:323,1,50,2|10,0:0|0:0,0:0:0:0:
187,375,97430,22,0,P|168:326|184:277,1,100,8|8,3:0|0:0,0:0:0:0:
206,239,98150,2,0,L|199:185,1,50,8|8,0:0|3:0,0:0:0:0:
152,171,98630,2,0,L|145:121,1,50,2|0,0:0|0:0,0:0:0:0:
63,63,99350,38,0,L|56:112,1,50,8|8,3:0|0:0,0:0:0:0:
48,161,99830,2,0,P|59:213|39:263,1,100,12|10,0:0|3:0,0:0:0:0:
68,299,100550,2,0,L|120:288,1,50,2|8,0:0|0:0,0:0:0:0:
196,227,101270,22,0,P|216:271|211:321,1,100,8|8,3:0|0:0,0:0:0:0:
254,346,101990,2,0,L|303:336,1,50,8|8,0:0|3:0,0:0:0:0:
348,358,102470,2,0,L|397:348,1,50,2|8,0:0|0:0,0:0:0:0:
450,336,102950,37,0,0:0:0:0:
450,336,103190,2,0,L|455:278,1,50,8|8,3:0|0:0,0:0:0:0:
456,236,103670,2,0,P|403:243|352:219,1,100,6|10,0:0|3:0,0:0:0:0:
271,189,104630,6,0,L|255:236,1,33.3333333333333,8|2,3:0|1:0,0:0:0:0:
200,250,105110,2,0,L|189:218,1,33.3333333333333,8|2,3:0|1:0,0:0:0:0:
133,181,105590,2,0,L|122:212,1,33.3333333333333,8|2,3:0|1:0,0:0:0:0:
101,276,106070,6,0,L|117:323,1,33.3333333333333,2|2,1:0|1:0,0:0:0:0:
172,337,106550,2,0,L|182:305,1,33.3333333333333,8|2,3:0|1:0,0:0:0:0:
239,268,107030,2,0,L|249:299,1,33.3333333333333,8|2,3:0|1:0,0:0:0:0:
305,335,107510,2,0,L|315:303,1,33.3333333333333,8|2,3:0|1:0,0:0:0:0:
338,240,107990,53,2,3:0:0:0:
369,144,108470,6,0,P|346:137|321:140,1,50,8|8,3:0|0:0,0:0:0:0:
277,165,108950,2,0,P|252:167|228:160,1,50,8|2,3:0|0:0,0:0:0:0:
190,127,109430,2,0,P|166:119|141:122,1,50,8|8,0:0|0:0,0:0:0:0:
100,151,109910,38,0,L|111:247,2,75,12|8|8,3:0|3:0|3:0,0:0:0:0:
56,125,110870,2,0,B|62:92|62:92|41:66|41:66|51:20,1,100,12|12,3:0|3:0,0:0:0:0:
148,28,111830,1,8,3:0:0:0:
242,60,112310,54,0,P|265:67|290:63,1,50,8|2,1:0|0:0,0:0:0:0:
325,100,112790,2,0,P|313:148|325:196,1,100,2|8,1:0|1:0,0:0:0:0:
346,241,113510,2,0,P|357:290|345:338,1,100,8|2,1:0|0:0,0:0:0:0:
313,377,114230,2,0,L|255:381,1,50,8|2,1:0|0:0,0:0:0:0:
178,326,114950,54,0,P|183:296|172:267,1,50,8|8,1:0|1:0,0:0:0:0:
165,229,115430,2,0,L|276:217,1,100,8|2,1:0|0:0,0:0:0:0:
350,166,116390,2,0,L|449:155,2,100,2|8|8,0:0|1:0|1:0,0:0:0:0:
351,215,117590,2,0,P|339:263|363:316,1,100,8|8,1:0|1:0,0:0:0:0:
257,326,118550,6,0,P|209:311|162:326,1,100,2|8,1:0|1:0,0:0:0:0:
75,376,119510,1,8,1:0:0:0:
78,276,119990,2,0,L|70:162,1,100,8|2,1:0|1:0,0:0:0:0:
74,126,120710,2,0,P|99:125|129:118,1,50,2|8,0:0|1:0,0:0:0:0:
172,110,121190,2,0,P|167:155|191:213,2,100,8|2|2,1:0|0:0|0:0,0:0:0:0:
264,147,122630,54,0,L|323:148,1,50,8|8,1:0|1:0,0:0:0:0:
363,144,123110,2,0,P|350:91|365:44,1,100,8|2,1:0|0:0,0:0:0:0:
450,96,124070,2,0,P|461:145|449:193,2,100,2|8|8,0:0|1:0|1:0,0:0:0:0:
402,79,125270,22,0,L|293:87,1,100,8|8,0:0|0:0,0:0:0:0:
212,130,126230,2,0,L|226:184,1,50,8|8,0:0|0:0,0:0:0:0:
274,169,126710,2,0,L|288:223,1,50,8|8,0:0|0:0,0:0:0:0:
336,217,127190,1,4,0:0:0:0:
84,352,128630,5,4,1:0:0:0:
15,287,129110,53,4,0:0:0:0:
15,287,129350,2,0,L|8:233,2,50,2|8|2,0:0|0:0|0:0,0:0:0:0:
114,295,130310,2,0,L|121:349,2,50,2|8|2,0:0|0:0|0:0,0:0:0:0:
109,195,131270,2,0,P|114:171|110:147,1,50,2|8,0:0|0:0,0:0:0:0:
87,102,131750,2,0,P|82:78|88:54,1,50,2|8,0:0|3:0,0:0:0:0:
134,35,132230,22,0,L|187:33,2,50,2|8|2,0:0|0:0|0:0,0:0:0:0:
189,118,133190,2,0,L|245:114,1,50,2|8,0:0|0:0,0:0:0:0:
288,110,133670,1,2,0:0:0:0:
380,148,134150,2,0,P|377:176|382:200,1,50,2|8,0:0|0:0,0:0:0:0:
400,244,134630,2,0,L|292:232,1,100,2|2,0:0|0:0,0:0:0:0:
212,184,135590,37,2,0:0:0:0:
133,245,136070,1,2,0:0:0:0:
223,284,136550,1,2,0:0:0:0:
212,184,137030,22,0,P|209:155|215:123,2,50,2|8|2,0:0|0:0|0:0,0:0:0:0:
309,160,137990,2,0,P|338:157|370:166,2,50,2|8|2,0:0|0:0|0:0,0:0:0:0:
212,184,138950,2,0,P|215:208|212:233,1,50,2|8,0:0|0:0,0:0:0:0:
196,281,139430,2,0,P|194:305|197:330,1,50,2|8,0:0|3:0,0:0:0:0:
244,346,139910,38,0,L|306:354,2,50,2|8|2,0:0|0:0|0:0,0:0:0:0:
301,264,140870,2,0,L|356:272,1,50,2|8,0:0|0:0,0:0:0:0:
399,280,141350,1,2,0:0:0:0:
428,184,141830,2,0,L|373:176,1,50,2|8,0:0|0:0,0:0:0:0:
330,168,142310,1,2,0:0:0:0:
233,140,142790,21,8,0:0:0:0:
233,140,143030,2,0,L|242:206,1,50,8|8,0:0|0:0,0:0:0:0:
202,223,143510,2,0,L|216:308,2,75,8|8|8,0:0|0:0|0:0,0:0:0:0:
153,211,144470,38,0,P|128:217|104:214,1,50,6|2,0:0|0:0,0:0:0:0:
75,173,144950,2,0,P|79:148|73:124,1,50,8|2,0:0|0:0,0:0:0:0:
48,80,145430,1,8,3:0:0:0:
146,63,145910,2,0,L|198:56,1,50,12|2,1:0|0:0,0:0:0:0:
235,85,146390,22,0,P|229:110|232:134,1,50,8|2,3:0|0:0,0:0:0:0:
273,163,146870,2,0,P|298:159|322:165,1,50,8|2,0:0|0:0,0:0:0:0:
366,190,147350,1,10,3:0:0:0:
433,263,147830,2,0,L|437:328,1,50,12|2,1:0|0:0,0:0:0:0:
389,332,148310,38,0,P|364:327|339:330,1,50,8|2,3:0|0:0,0:0:0:0:
295,352,148790,2,0,P|270:355|245:350,1,50,8|2,0:0|0:0,0:0:0:0:
205,320,149270,2,0,P|214:283|196:243,2,75,8|2|2,3:0|0:0|0:0,0:0:0:0:
161,345,150230,2,0,L|53:350,1,100,8|0,3:0|0:0,0:0:0:0:
37,305,150950,2,0,B|23:259|23:259|55:219|47:159,1,150,2|8,0:0|0:0,0:0:0:0:
147,156,152150,22,0,P|172:162|196:159,1,50,6|2,0:0|0:0,0:0:0:0:
225,118,152630,2,0,P|221:93|227:69,1,50,8|2,0:0|0:0,0:0:0:0:
252,25,153110,1,8,3:0:0:0:
341,70,153590,2,0,L|400:71,1,50,12|2,1:0|0:0,0:0:0:0:
423,108,154070,38,0,P|429:133|426:157,1,50,8|2,3:0|0:0,0:0:0:0:
385,186,154550,2,0,P|360:182|336:188,1,50,8|2,0:0|0:0,0:0:0:0:
292,213,155030,1,10,3:0:0:0:
195,238,155510,2,0,L|135:238,1,50,12|2,1:0|0:0,0:0:0:0:
95,237,155990,22,0,P|99:212|94:187,1,50,8|2,3:0|0:0,0:0:0:0:
80,139,156470,2,0,P|75:115|78:90,1,50,8|2,0:0|0:0,0:0:0:0:
120,62,156950,2,0,L|205:39,2,75,8|2|2,3:0|0:0|0:0,0:0:0:0:
131,110,157910,2,0,P|141:158|129:206,1,100,8|8,0:0|0:0,0:0:0:0:
39,252,158870,2,0,P|29:204|41:156,1,100,4|0,3:0|0:0,0:0:0:0:
113,86,159830,21,12,3:0:0:0:
158,175,160310,1,12,3:0:0:0:
214,92,160790,1,12,3:0:0:0:
263,178,161270,54,0,L|323:183,1,50,8|2,1:0|0:0,0:0:0:0:
341,140,161750,2,0,L|401:145,1,50,8|2,1:0|0:0,0:0:0:0:
440,149,162230,2,0,P|423:194|442:249,1,100,8|8,1:0|1:0,0:0:0:0:
371,317,163190,6,0,L|309:314,1,50,8|2,1:0|0:0,0:0:0:0:
271,312,163670,1,8,1:0:0:0:
237,216,164150,2,0,L|175:213,1,50,8|2,1:0|0:0,0:0:0:0:
138,207,164630,2,0,P|153:156|136:106,1,100,8|8,1:0|1:0,0:0:0:0:
214,44,165590,54,0,L|266:36,1,50,8|2,1:0|0:0,0:0:0:0:
313,29,166070,2,0,P|298:80|315:130,1,100,8|8,1:0|1:0,0:0:0:0:
398,172,167030,6,0,L|407:228,1,50,8|2,1:0|0:0,0:0:0:0:
358,237,167510,2,0,L|367:293,1,50,8|2,1:0|0:0,0:0:0:0:
320,308,167990,2,0,P|271:294|216:316,1,100,8|8,1:0|1:0,0:0:0:0:
125,301,168950,54,0,L|115:247,1,50,8|2,1:0|0:0,0:0:0:0:
66,243,169430,2,0,L|56:189,1,50,8|2,1:0|0:0,0:0:0:0:
51,143,169910,2,0,P|101:148|149:125,1,100,8|8,1:0|1:0,0:0:0:0:
236,85,170870,6,0,L|244:141,1,50,8|2,1:0|0:0,0:0:0:0:
254,183,171350,1,8,1:0:0:0:
353,180,171830,2,0,L|361:236,1,50,8|2,1:0|0:0,0:0:0:0:
365,279,172310,2,0,P|320:299|269:287,1,100,8|8,1:0|1:0,0:0:0:0:
172,302,173270,6,0,L|180:193,1,100,8|8,0:0|0:0,0:0:0:0:
269,158,174230,2,0,L|323:144,1,50,8|8,0:0|0:0,0:0:0:0:
308,96,174710,2,0,L|362:82,1,50,8|8,0:0|0:0,0:0:0:0:
358,33,175190,1,4,0:0:0:0:
481,50,178550,5,4,1:0:0:0:
419,130,179030,53,4,0:0:0:0:
419,130,179270,2,0,L|412:184,2,50,2|8|2,0:0|0:0|0:0,0:0:0:0:
338,70,180230,2,0,L|346:18,2,50,2|8|2,0:0|0:0|0:0,0:0:0:0:
277,149,181190,2,0,P|253:154|229:150,1,50,2|8,0:0|0:0,0:0:0:0:
184,127,181670,2,0,P|160:122|136:128,1,50,2|8,0:0|3:0,0:0:0:0:
100,163,182150,22,0,L|37:173,2,50,2|8|2,0:0|0:0|0:0,0:0:0:0:
149,249,183110,2,0,L|202:240,1,50,2|8,0:0|0:0,0:0:0:0:
248,234,183590,1,2,0:0:0:0:
346,218,184070,2,0,P|343:246|348:270,1,50,2|8,0:0|0:0,0:0:0:0:
363,314,184550,2,0,L|257:324,1,100,2|2,0:0|0:0,0:0:0:0:
164,334,185510,37,2,0:0:0:0:
217,249,185990,1,2,0:0:0:0:
117,243,186470,1,2,0:0:0:0:
170,158,186950,22,0,L|164:105,2,50,2|8|2,0:0|0:0|0:0,0:0:0:0:
263,122,187910,2,0,L|253:61,2,50,2|8|2,0:0|0:0|0:0,0:0:0:0:
252,221,188870,2,0,L|264:288,1,50,2|8,0:0|0:0,0:0:0:0:
310,272,189350,2,0,L|322:329,1,50,2|8,0:0|3:0,0:0:0:0:
370,319,189830,38,0,L|431:308,2,50,2|8|2,0:0|0:0|0:0,0:0:0:0:
375,219,190790,2,0,L|432:207,1,50,2|8,0:0|0:0,0:0:0:0:
472,198,191270,1,2,0:0:0:0:
410,119,191750,2,0,L|361:129,1,50,2|8,0:0|0:0,0:0:0:0:
313,140,192230,1,2,0:0:0:0:
231,198,192710,21,8,0:0:0:0:
231,198,192950,2,0,P|227:232|240:264,1,50,8|8,0:0|0:0,0:0:0:0:
274,271,193430,2,0,P|310:262|359:278,2,75,8|8|8,0:0|0:0|0:0,0:0:0:0:
266,320,194390,38,0,L|217:325,1,50,6|2,0:0|0:0,0:0:0:0:
175,297,194870,2,0,L|125:283,1,50,8|2,0:0|0:0,0:0:0:0:
86,312,195350,1,8,3:0:0:0:
86,212,195830,2,0,L|82:162,1,50,12|2,1:0|0:0,0:0:0:0:
104,117,196310,22,0,L|153:122,1,50,8|2,3:0|0:0,0:0:0:0:
199,98,196790,2,0,L|249:84,1,50,8|2,0:0|0:0,0:0:0:0:
288,113,197270,1,10,3:0:0:0:
365,175,197750,2,0,L|369:240,1,50,12|2,1:0|0:0,0:0:0:0:
371,274,198230,38,0,P|346:269|321:272,1,50,8|2,3:0|0:0,0:0:0:0:
271,275,198710,2,0,P|246:278|221:273,1,50,8|2,0:0|0:0,0:0:0:0:
176,252,199190,2,0,L|90:253,2,75,8|2|2,3:0|0:0|0:0,0:0:0:0:
186,203,200150,2,0,P|169:156|183:108,1,100,8|8,3:0|0:0,0:0:0:0:
229,92,200870,2,0,B|275:78|275:78|323:106|385:103,1,150,2|8,0:0|0:0,0:0:0:0:
449,170,202070,22,0,L|444:219,1,50,6|2,0:0|0:0,0:0:0:0:
464,265,202550,2,0,L|478:315,1,50,8|2,0:0|0:0,0:0:0:0:
449,354,203030,1,8,3:0:0:0:
349,350,203510,2,0,L|278:344,1,50,12|2,1:0|0:0,0:0:0:0:
251,329,203990,38,0,L|256:280,1,50,8|2,3:0|0:0,0:0:0:0:
236,234,204470,2,0,L|222:184,1,50,8|2,0:0|0:0,0:0:0:0:
251,145,204950,1,10,3:0:0:0:
157,110,205430,2,0,L|100:119,1,50,12|2,1:0|0:0,0:0:0:0:
58,127,205910,22,0,P|62:152|57:177,1,50,8|2,3:0|0:0,0:0:0:0:
43,225,206390,2,0,P|38:249|41:274,1,50,8|2,0:0|0:0,0:0:0:0:
86,294,206870,2,0,L|88:379,2,75,8|2|2,3:0|0:0|0:0,0:0:0:0:
135,300,207830,2,0,P|183:310|231:298,1,100,8|8,0:0|0:0,0:0:0:0:
281,210,208790,2,0,P|233:200|185:212,1,100,2|0,0:0|0:0,0:0:0:0:
