osu file format v14

[General]
AudioFilename: audio.mp3
AudioLeadIn: 0
PreviewTime: 104390
Countdown: 0
SampleSet: Soft
StackLeniency: 0.4
Mode: 0
LetterboxInBreaks: 0
WidescreenStoryboard: 1

[Editor]
Bookmarks: 13902,31182,46542,63822,79182,94542,111822,129102,144462,159822,175182,179022,194382,209742
DistanceSpacing: 1.2
BeatDivisor: 4
GridSize: 4
TimelineZoom: 1.4

[Metadata]
Title:AS IF IT'S YOUR LAST
TitleUnicode:마지막처럼
Artist:BLACKPINK
ArtistUnicode:BLACKPINK
Creator:Natsu
Version:Advanced
Source:
Tags:k-pop kpop 블핑 블랙핑크 지수 jisoo 제니 jennie 로제 rosÉ 리사 lisa yg entertainment Syph
BeatmapID:1344678
BeatmapSetID:630325

[Difficulty]
HPDrainRate:3
CircleSize:3.5
OverallDifficulty:5
ApproachRate:6.5
SliderMultiplier:1.5
SliderTickRate:1

[Events]
//Background and Video events
0,0,"znvferg.jpg",0,0
Video,-927,"BLACKPINK - AS IF IT'S YOUR LAST.avi"
//Break Periods
2,175390,177492
//Storyboard Layer 0 (Background)
//Storyboard Layer 1 (Fail)
//Storyboard Layer 2 (Pass)
//Storyboard Layer 3 (Foreground)
//Storyboard Sound Samples

[TimingPoints]
13910,480,4,2,1,40,1,0
13910,-125,4,2,1,40,0,0
14870,-100,4,2,1,40,0,0
15590,-100,4,2,1,40,0,0
15830,-100,4,2,1,50,0,0
18950,-100,4,2,1,60,0,0
19430,-100,4,2,1,50,0,0
22790,-100,4,2,1,60,0,0
23270,-100,4,2,1,40,0,0
23750,-100,4,2,1,50,0,0
26630,-100,4,2,1,60,0,0
27110,-100,4,2,1,50,0,0
29270,-125,4,2,1,50,0,0
30230,-100,4,2,1,50,0,0
34310,-100,4,2,1,60,0,0
34790,-100,4,2,1,50,0,0
38150,-100,4,2,1,60,0,0
38630,-100,4,2,1,40,0,0
39110,-100,4,2,1,50,0,0
41990,-100,4,2,1,60,0,0
42470,-100,4,2,1,50,0,0
44630,-125,4,2,1,50,0,0
45590,-99.9999999999999,4,2,1,50,0,0
46070,-125,4,2,1,50,0,0
46550,-125,4,2,1,40,0,0
59990,-100,4,2,1,40,0,0
60950,-100,4,2,1,45,0,0
61190,-100,4,2,1,50,0,0
61430,-100,4,2,1,55,0,0
61670,-100,4,2,1,60,0,0
61910,-100,4,2,1,65,0,0
63350,-90.9090909090909,4,2,1,70,0,0
63590,-100,4,2,1,50,0,0
63830,-100,4,2,1,70,0,1
64070,-100,4,2,2,60,0,1
79070,-100,4,2,2,60,0,0
79190,-100,4,2,2,60,0,1
80630,-90.9090909090909,4,2,2,60,0,1
81110,-100,4,2,2,60,0,1
82550,-90.9090909090909,4,2,2,60,0,1
83030,-100,4,2,2,60,0,1
86390,-90.9090909090909,4,2,2,60,0,1
86870,-100,4,2,2,60,0,1
88310,-90.9090909090909,4,2,2,60,0,1
88790,-100,4,2,2,60,0,1
90230,-90.9090909090909,4,2,2,60,0,1
90710,-100,4,2,2,60,0,1
94070,-100,4,2,1,5,0,0
94550,-125,4,2,1,50,0,0
95510,-100,4,2,1,50,0,0
96950,-100,4,2,2,50,0,0
97190,-100,4,2,1,50,0,0
97910,-100,4,2,2,50,0,0
98150,-100,4,2,1,50,0,0
98870,-100,4,2,2,50,0,0
99110,-100,4,2,1,50,0,0
100790,-125,4,2,2,50,0,0
101030,-125,4,2,1,50,0,0
101270,-100,4,2,1,50,0,0
101750,-100,4,2,2,50,0,0
101990,-100,4,2,1,50,0,0
102710,-100,4,2,2,50,0,0
102950,-100,4,2,1,50,0,0
104630,-100,4,2,1,50,0,0
104790,-100,4,2,1,40,0,0
105110,-100,4,2,1,50,0,0
105270,-100,4,2,1,40,0,0
105590,-100,4,2,1,50,0,0
105750,-100,4,2,1,40,0,0
106070,-100,4,2,1,50,0,0
106230,-100,4,2,1,40,0,0
106550,-100,4,2,1,50,0,0
106710,-100,4,2,1,40,0,0
107030,-100,4,2,1,50,0,0
107190,-100,4,2,1,40,0,0
107510,-100,4,2,1,50,0,0
107670,-100,4,2,1,40,0,0
108470,-100,4,2,1,50,0,0
109430,-100,4,2,2,50,0,0
109590,-100,4,2,1,50,0,0
112310,-125,4,2,1,40,0,0
125270,-100,4,2,1,40,0,0
126230,-100,4,2,1,45,0,0
126470,-100,4,2,1,50,0,0
126710,-100,4,2,1,55,0,0
126950,-100,4,2,1,60,0,0
127190,-100,4,2,1,65,0,0
128630,-90.9090909090909,4,2,1,70,0,0
129110,-100,4,2,1,70,0,1
129350,-100,4,2,2,70,0,1
144350,-100,4,2,2,60,0,0
144470,-100,4,2,2,60,0,1
145910,-90.9090909090909,4,2,2,60,0,1
146390,-100,4,2,2,60,0,1
147830,-90.9090909090909,4,2,2,60,0,1
148310,-100,4,2,2,60,0,1
151670,-90.9090909090909,4,2,2,60,0,1
152150,-100,4,2,2,60,0,1
153590,-90.9090909090909,4,2,2,60,0,1
154070,-100,4,2,2,60,0,1
155510,-90.9090909090909,4,2,2,60,0,1
155990,-100,4,2,2,60,0,1
159350,-125,4,2,1,5,0,0
159830,-125,4,2,1,40,0,0
173270,-100,4,2,1,40,0,0
174230,-100,4,2,1,45,0,0
174470,-100,4,2,1,50,0,0
174710,-100,4,2,1,55,0,0
174950,-100,4,2,1,60,0,0
175190,-100,4,2,1,65,0,0
178550,-90.9090909090909,4,2,1,70,0,0
179030,-90.9090909090909,4,2,1,70,0,1
179270,-100,4,2,2,60,0,1
194270,-83.3333333333333,4,2,2,60,0,0
194390,-100,4,2,2,60,0,1
195830,-90.9090909090909,4,2,2,60,0,1
196310,-100,4,2,2,60,0,1
197750,-90.9090909090909,4,2,2,60,0,1
198230,-100,4,2,2,60,0,1
201590,-90.9090909090909,4,2,2,60,0,1
202070,-100,4,2,2,60,0,1
203510,-90.9090909090909,4,2,2,60,0,1
203990,-100,4,2,2,60,0,1
205430,-90.9090909090909,4,2,2,60,0,1
205910,-100,4,2,2,60,0,1
209270,-125,4,2,2,5,0,0

[Colours]
Combo1 : 115,115,115
Combo2 : 62,158,255
Combo3 : 255,78,47
Combo4 : 221,0,221
Combo5 : 249,249,249
SliderBorder : 221,0,221
SliderTrackOverride : 30,30,30

[HitObjects]
108,291,13910,70,0,P|96:332|114:383,2,90,12|8|8,3:0|3:0|3:0,0:0:0:0:
175,231,14870,22,0,L|246:217,3,50,12|12|12|12,3:0|3:0|3:0|3:0,0:0:0:0:
393,194,15830,54,0,P|405:230|397:266,2,75,12|0|8,3:0|0:0|3:0,0:0:0:0:
318,149,16550,1,8,0:0:0:0:
318,149,16790,2,0,B|206:139|206:139|240:110,1,150,8|8,3:0|3:0,0:0:0:0:
304,57,17510,1,8,0:0:0:0:
304,57,17750,2,0,B|416:67|416:67|382:96,1,150,8|8,3:0|3:0,0:0:0:0:
318,149,18470,2,0,P|308:184|318:219,1,75,8|8,0:0|3:0,0:0:0:0:
389,273,18950,1,10,0:0:0:0:
307,311,19190,1,14,0:0:0:0:
153,299,19670,22,0,P|141:263|149:227,2,75,12|0|8,3:0|0:0|3:0,0:0:0:0:
236,264,20390,1,8,0:0:0:0:
236,264,20630,2,0,B|348:274|348:274|314:303,1,150,8|8,3:0|3:0,0:0:0:0:
251,355,21350,1,8,0:0:0:0:
251,355,21590,2,0,B|139:345|139:345|173:316,1,150,8|8,3:0|3:0,0:0:0:0:
238,263,22310,2,0,P|248:228|238:193,1,75,8|8,0:0|3:0,0:0:0:0:
158,149,22790,1,10,0:0:0:0:
72,178,23030,2,0,L|66:103,2,75,14|2|10,0:0|0:0|3:0,0:0:0:0:
84,267,23750,37,2,0:0:0:0:
163,306,23990,2,0,P|175:272|156:222,1,75,8|8,3:0|0:0,0:0:0:0:
84,267,24470,2,0,P|78:215|115:165,2,112.5,0|8|8,3:0|0:0|0:0,0:0:0:0:
233,368,25670,21,2,0:0:0:0:
301,309,25910,2,0,P|310:271|298:230,1,75,8|8,3:0|0:0,0:0:0:0:
245,167,26390,1,8,3:0:0:0:
332,144,26630,1,10,0:0:0:0:
419,123,26870,2,0,L|427:34,2,75,14|2|8,0:0|0:0|3:0,0:0:0:0:
392,208,27590,37,2,0:0:0:0:
480,191,27830,2,0,P|482:226|450:269,1,75,8|8,3:0|0:0,0:0:0:0:
392,208,28310,2,0,P|374:261|400:321,2,112.5,8|8|8,3:0|0:0|0:0,0:0:0:0:
419,123,29270,22,0,P|431:76|413:34,2,90,12|12|12,3:0|3:0|3:0,0:0:0:0:
332,144,30230,54,0,L|261:130,3,50,12|12|12|12,3:0|3:0|3:0|3:0,0:0:0:0:
116,70,31190,6,0,P|104:106|112:142,2,75,14|0|8,3:0|0:0|3:0,0:0:0:0:
198,117,31910,1,8,0:0:0:0:
198,117,32150,2,0,B|310:124|310:124|281:90,1,150,8|8,3:0|3:0,0:0:0:0:
227,28,32870,1,8,0:0:0:0:
227,28,33110,2,0,B|114:20|114:20|143:54,1,150,8|8,3:0|3:0,0:0:0:0:
200,117,33830,2,0,P|210:153|196:196,1,75,8|8,0:0|3:0,0:0:0:0:
135,250,34310,1,10,0:0:0:0:
218,283,34550,1,14,0:0:0:0:
64,375,35030,38,0,P|52:339|60:303,2,75,14|0|8,3:0|0:0|3:0,0:0:0:0:
147,338,35750,1,8,0:0:0:0:
147,338,35990,2,0,B|259:328|259:328|225:299,1,150,8|8,3:0|3:0,0:0:0:0:
161,246,36710,1,8,0:0:0:0:
161,246,36950,2,0,B|49:256|49:256|83:285,1,150,8|8,3:0|3:0,0:0:0:0:
147,337,37670,2,0,L|236:328,1,75,8|8,0:0|3:0,0:0:0:0:
311,328,38150,1,10,0:0:0:0:
383,275,38390,2,0,L|398:195,2,75,14|2|10,0:0|0:0|3:0,0:0:0:0:
311,328,39110,21,2,0:0:0:0:
233,281,39350,2,0,P|222:243|234:207,1,75,8|8,3:0|0:0,0:0:0:0:
289,142,39830,2,0,P|319:187|315:243,2,112.5,8|8|8,3:0|0:0|0:0,0:0:0:0:
126,64,41030,37,2,0:0:0:0:
43,98,41270,2,0,P|34:62|44:26,1,75,8|8,3:0|0:0,0:0:0:0:
126,64,41750,1,8,3:0:0:0:
215,53,41990,1,10,0:0:0:0:
203,142,42230,2,0,L|195:226,2,75,14|2|6,0:0|0:0|3:0,0:0:0:0:
286,108,42950,21,2,0:0:0:0:
368,72,43190,2,0,P|379:110|367:146,1,75,8|8,3:0|0:0,0:0:0:0:
298,199,43670,2,0,P|288:237|308:281,2,75,8|2|8,3:0|0:0|0:0,0:0:0:0:
368,72,44630,22,0,P|409:83|467:63,2,90,12|12|12,3:0|3:0|3:0,0:0:0:0:
285,109,45590,22,0,L|215:116,3,50,12|12|12|12,3:0|3:0|3:0|3:0,0:0:0:0:
90,132,46550,21,6,0:0:0:0:
30,276,47030,6,0,L|30:343,1,60,8|2,1:0|0:0,0:0:0:0:
107,331,47510,2,0,P|164:312|224:334,1,120,2|8,1:0|1:0,0:0:0:0:
295,347,48230,2,0,L|295:283,1,60,2|10,1:0|1:0,0:0:0:0:
294,209,48710,1,2,0:0:0:0:
363,244,48950,2,0,P|396:250|434:240,1,60,8|2,1:0|0:0,0:0:0:0:
487,103,49670,54,0,L|487:37,1,60,8|8,1:0|1:0,0:0:0:0:
411,66,50150,2,0,P|355:84|298:71,1,120,10|2,1:0|0:0,0:0:0:0:
144,42,51110,2,0,P|86:28|30:47,2,120,2|2|10,0:0|0:0|1:0,0:0:0:0:
196,99,52310,2,0,P|182:156|201:212,1,120,10|8,1:0|1:0,0:0:0:0:
349,163,53270,6,0,P|362:105|343:49,1,120,2|8,1:0|1:0,0:0:0:0:
187,50,54230,2,0,L|115:59,1,60,10|0,1:0|0:0,0:0:0:0:
125,135,54710,2,0,L|197:144,1,60,8|2,1:0|0:0,0:0:0:0:
331,89,55430,2,0,L|390:81,1,60,8|8,1:0|1:0,0:0:0:0:
450,131,55910,2,0,P|435:187|463:251,2,120,10|2|2,1:0|0:0|0:0,0:0:0:0:
330,30,57350,53,8,1:0:0:0:
253,46,57590,1,8,1:0:0:0:
176,63,57830,2,0,L|193:126,1,60,10|10,1:0|1:0,0:0:0:0:
269,124,58310,2,0,L|252:187,1,60,2|8,0:0|1:0,0:0:0:0:
207,245,58790,2,0,P|253:261|322:214,2,120,2|2|2,0:0|0:0|0:0,0:0:0:0:
129,198,59990,22,0,L|111:275,1,75,8|8,0:0|0:0,0:0:0:0:
40,216,60470,2,0,L|58:139,1,75,8|8,0:0|0:0,0:0:0:0:
138,105,60950,2,0,L|149:54,2,37.5,8|8|8,0:0|0:0|0:0,0:0:0:0:
228,101,61430,2,0,L|239:50,2,37.5,8|8|8,0:0|0:0|0:0,0:0:0:0:
184,180,61910,1,6,0:0:0:0:
487,364,63350,6,0,L|476:273,1,82.5000025177003,4|2,1:0|0:0,0:0:0:0:
461,194,63830,53,6,0:0:0:0:
391,251,64070,2,0,P|356:261|320:251,1,75,2|8,0:0|0:0,0:0:0:0:
237,287,64550,2,0,P|226:251|236:215,1,75,2|8,0:0|3:0,0:0:0:0:
198,133,65030,2,0,P|233:122|269:132,1,75,2|8,0:0|0:0,0:0:0:0:
353,97,65510,2,0,P|363:132|353:168,1,75,2|10,0:0|3:0,0:0:0:0:
299,240,65990,22,0,L|296:284,2,37.5,2|0|8,0:0|3:0|0:0,0:0:0:0:
210,255,66470,2,0,L|207:299,2,37.5,2|0|8,0:0|3:0|3:0,0:0:0:0:
241,170,66950,37,2,0:0:0:0:
151,182,67190,1,8,0:0:0:0:
192,101,67430,2,0,P|226:86|263:87,1,75,2|10,0:0|3:0,0:0:0:0:
328,150,67910,2,0,L|337:203,2,37.5,2|0|8,0:0|3:0|0:0,0:0:0:0:
418,150,68390,2,0,L|427:203,2,37.5,2|0|8,0:0|3:0|3:0,0:0:0:0:
370,73,68870,21,2,0:0:0:0:
279,74,69110,1,8,0:0:0:0:
198,36,69350,2,0,P|188:72|195:109,1,75,2|10,0:0|3:0,0:0:0:0:
277,147,69830,2,0,P|286:111|279:74,1,75,2|8,0:0|0:0,0:0:0:0:
198,36,70310,38,0,L|143:32,2,37.5,2|0|8,0:0|3:0|3:0,0:0:0:0:
169,121,70790,2,0,L|114:117,2,37.5,2|0|8,0:0|3:0|0:0,0:0:0:0:
142,207,71270,2,0,L|87:203,2,37.5,2|0|10,0:0|3:0|3:0,0:0:0:0:
209,267,71750,22,0,P|244:277|280:267,1,75,2|8,0:0|0:0,0:0:0:0:
363,303,72230,2,0,P|374:267|364:231,1,75,2|8,0:0|3:0,0:0:0:0:
402,149,72710,2,0,P|367:138|331:148,1,75,2|8,0:0|0:0,0:0:0:0:
247,113,73190,2,0,P|237:148|247:184,1,75,2|10,0:0|3:0,0:0:0:0:
309,249,73670,38,0,L|360:251,2,37.5,2|0|8,0:0|0:0|0:0,0:0:0:0:
330,336,74150,2,0,L|381:338,2,37.5,2|0|8,0:0|0:0|3:0,0:0:0:0:
243,309,74630,21,2,0:0:0:0:
223,221,74870,1,8,0:0:0:0:
171,146,75110,2,0,P|203:130|241:131,1,75,2|10,0:0|3:0,0:0:0:0:
329,152,75590,2,0,L|369:154,2,37.5,2|0|8,0:0|0:0|0:0,0:0:0:0:
347,240,76070,2,0,L|387:242,2,37.5,2|0|8,0:0|0:0|3:0,0:0:0:0:
262,209,76550,37,2,0:0:0:0:
255,298,76790,1,8,0:0:0:0:
182,241,77030,2,0,P|147:230|111:237,1,75,2|8,0:0|0:0,0:0:0:0:
33,285,77510,1,8,0:0:0:0:
38,195,77750,2,0,L|32:153,2,37.5,8|8|8,0:0|0:0|0:0,0:0:0:0:
111,237,78230,2,0,P|147:230|182:241,1,75,8|8,0:0|0:0,0:0:0:0:
256,293,78710,2,0,L|257:346,2,37.5,8|8|8,0:0|0:0|0:0,0:0:0:0:
313,223,79190,22,0,L|395:208,1,75,6|2,0:0|0:0,0:0:0:0:
443,139,79670,2,0,L|361:124,1,75,8|2,0:0|0:0,0:0:0:0:
281,106,80150,1,8,3:0:0:0:
118,185,80630,54,0,P|105:225|118:267,1,82.5000025177003,12|2,1:0|0:0,0:0:0:0:
196,223,81110,6,0,L|278:208,1,75,8|2,3:0|0:0,0:0:0:0:
326,139,81590,2,0,L|244:124,1,75,8|2,0:0|0:0,0:0:0:0:
164,106,82070,1,10,3:0:0:0:
1,185,82550,54,0,P|-11:225|1:267,1,82.5000025177003,12|2,1:0|0:0,0:0:0:0:
85,288,83030,6,0,P|120:278|157:286,1,75,8|2,3:0|0:0,0:0:0:0:
240,316,83510,2,0,P|277:325|313:317,1,75,8|2,0:0|0:0,0:0:0:0:
364,242,83990,2,0,L|376:121,2,112.5,8|2|2,3:0|0:0|0:0,0:0:0:0:
280,207,84950,38,0,L|288:127,2,75,8|2|8,3:0|0:0|0:0,0:0:0:0:
199,167,85670,2,0,L|209:82,2,75,2|10|8,0:0|0:0|0:0,0:0:0:0:
186,256,86390,6,0,P|147:247|107:254,1,82.5000025177003,12|8,1:0|0:0,0:0:0:0:
47,187,86870,6,0,L|62:105,1,75,6|2,0:0|0:0,0:0:0:0:
131,57,87350,2,0,L|146:139,1,75,8|2,0:0|0:0,0:0:0:0:
164,219,87830,1,8,3:0:0:0:
78,364,88310,54,0,P|37:376|-4:364,1,82.5000025177003,12|2,1:0|0:0,0:0:0:0:
40,285,88790,6,0,L|55:203,1,75,8|2,3:0|0:0,0:0:0:0:
124,155,89270,2,0,L|139:237,1,75,8|2,0:0|0:0,0:0:0:0:
157,317,89750,1,10,3:0:0:0:
321,263,90230,54,0,P|361:250|403:263,1,82.5000025177003,12|2,1:0|0:0,0:0:0:0:
477,217,90710,6,0,P|486:180|475:145,1,75,6|2,0:0|0:0,0:0:0:0:
397,100,91190,2,0,P|386:64|394:28,1,75,8|2,0:0|0:0,0:0:0:0:
304,31,91670,2,0,L|181:44,2,112.5,8|2|2,3:0|0:0|0:0,0:0:0:0:
276,116,92630,38,0,L|187:127,2,75,8|2|8,0:0|0:0|0:0,0:0:0:0:
365,100,93350,1,8,0:0:0:0:
339,185,93590,2,0,P|384:231|415:174,1,150,12|0,0:0|0:0,0:0:0:0:
282,47,94550,54,0,P|240:37|190:48,2,90,12|12|12,3:0|3:0|3:0,0:0:0:0:
352,103,95510,22,0,L|362:159,3,50,12|12|12|12,3:0|3:0|3:0|3:0,0:0:0:0:
400,328,96470,1,12,3:0:0:0:
314,300,96710,54,0,P|275:292|231:305,2,75,2|10|2,0:0|0:0|0:0,0:0:0:0:
400,328,97430,2,0,L|384:175,1,150,8|8,3:0|0:0,0:0:0:0:
374,88,98150,2,0,P|338:98|301:92,1,75,8|8,0:0|3:0,0:0:0:0:
222,48,98630,2,0,P|185:41|149:51,2,75,2|0|8,0:0|0:0|0:0,0:0:0:0:
188,131,99350,21,8,3:0:0:0:
179,220,99590,1,8,0:0:0:0:
241,285,99830,2,0,P|172:310|108:275,1,150,12|10,0:0|3:0,0:0:0:0:
67,195,100550,38,0,P|73:154|56:119,2,75,2|8|8,0:0|0:0|0:0,0:0:0:0:
108,275,101270,2,0,L|271:260,1,150,8|8,3:0|0:0,0:0:0:0:
346,250,101990,2,0,P|336:214|342:177,1,75,8|8,0:0|3:0,0:0:0:0:
410,118,102470,2,0,P|416:81|406:45,1,75,2|8,0:0|0:0,0:0:0:0:
324,83,102950,21,0,0:0:0:0:
254,140,103190,2,0,P|215:148|178:138,1,75,8|8,3:0|0:0,0:0:0:0:
141,58,103670,2,0,P|64:34|-5:65,1,150,6|10,0:0|3:0,0:0:0:0:
20,237,104630,54,0,L|28:304,2,50,8|2|2,3:0|1:0|1:0,0:0:0:0:
79,228,105110,2,0,L|70:164,2,50,8|2|2,3:0|1:0|1:0,0:0:0:0:
138,221,105590,2,0,L|147:273,2,50,8|2|2,3:0|1:0|1:0,0:0:0:0:
196,207,106070,6,0,L|187:157,2,50,2|2|2,1:0|1:0|1:0,0:0:0:0:
255,200,106550,2,0,L|261:249,2,50,8|2|2,3:0|1:0|1:0,0:0:0:0:
314,191,107030,2,0,L|308:141,2,50,8|2|2,3:0|1:0|1:0,0:0:0:0:
373,194,107510,2,0,L|381:250,2,50,8|2|2,3:0|1:0|1:0,0:0:0:0:
432,184,107990,53,2,3:0:0:0:
300,60,108470,6,0,L|293:9,2,50,8|2|2,3:0|0:0|0:0,0:0:0:0:
309,119,108950,2,0,P|269:114|233:130,1,75,8|2,3:0|0:0,0:0:0:0:
184,199,109430,2,0,L|191:250,2,50,8|2|2,0:0|0:0|0:0,0:0:0:0:
133,167,109910,2,0,P|74:185|11:149,2,112.5,12|8|8,3:0|3:0|3:0,0:0:0:0:
207,116,110870,54,0,L|272:110,3,50,12|12|12|12,3:0|3:0|3:0|3:0,0:0:0:0:
347,106,111590,2,0,P|338:143|357:188,1,75,2|8,0:0|3:0,0:0:0:0:
484,256,112310,38,0,L|484:323,1,60,8|2,1:0|0:0,0:0:0:0:
415,353,112790,2,0,P|358:372|298:350,1,120,2|8,1:0|1:0,0:0:0:0:
249,296,113510,2,0,L|249:232,1,60,8|8,1:0|1:0,0:0:0:0:
250,158,113990,1,2,0:0:0:0:
180,194,114230,2,0,P|147:200|109:190,1,60,8|2,1:0|0:0,0:0:0:0:
15,310,114950,54,0,L|15:376,1,60,8|8,1:0|1:0,0:0:0:0:
91,347,115430,2,0,P|147:329|204:342,1,120,8|2,1:0|0:0,0:0:0:0:
356,303,116390,2,0,P|370:245|351:189,2,120,2|8|8,0:0|1:0|1:0,0:0:0:0:
277,306,117590,2,0,P|257:250|271:192,1,120,8|8,1:0|1:0,0:0:0:0:
420,146,118550,6,0,P|433:88|414:32,1,120,2|8,1:0|1:0,0:0:0:0:
258,47,119510,2,0,L|186:56,1,60,8|0,1:0|0:0,0:0:0:0:
192,132,119990,2,0,L|251:124,1,60,8|2,1:0|0:0,0:0:0:0:
248,202,120470,2,0,L|189:210,1,60,2|2,1:0|0:0,0:0:0:0:
111,222,120950,1,8,1:0:0:0:
33,232,121190,2,0,P|11:176|26:119,2,120,8|2|2,1:0|0:0|0:0,0:0:0:0:
189,244,122630,53,8,1:0:0:0:
266,260,122870,1,8,1:0:0:0:
343,277,123110,2,0,P|334:308|339:337,1,60,8|8,1:0|1:0,0:0:0:0:
413,313,123590,2,0,P|422:282|417:253,1,60,2|8,0:0|1:0,0:0:0:0:
365,197,124070,2,0,P|348:132|371:73,2,120,2|8|8,0:0|1:0|1:0,0:0:0:0:
309,268,125270,22,0,L|229:258,1,75,8|8,0:0|0:0,0:0:0:0:
183,184,125750,2,0,L|263:174,1,75,8|8,0:0|0:0,0:0:0:0:
345,157,126230,2,0,L|356:106,2,37.5,8|8|8,0:0|0:0|0:0,0:0:0:0:
434,166,126710,2,0,L|445:115,2,37.5,8|8|8,0:0|0:0|0:0,0:0:0:0:
415,254,127190,1,4,0:0:0:0:
25,20,128630,6,0,L|40:128,1,82.5000025177003,4|2,1:0|0:0,0:0:0:0:
51,190,129110,53,4,0:0:0:0:
121,133,129350,2,0,L|202:117,1,75,2|8,0:0|0:0,0:0:0:0:
283,107,129830,2,0,L|261:181,1,75,2|8,0:0|3:0,0:0:0:0:
239,265,130310,2,0,L|320:249,1,75,2|8,0:0|0:0,0:0:0:0:
401,239,130790,2,0,L|379:313,1,75,2|10,0:0|3:0,0:0:0:0:
293,338,131270,22,0,L|251:348,2,37.5,2|0|8,0:0|0:0|0:0,0:0:0:0:
237,267,131750,2,0,L|200:278,2,37.5,2|0|8,0:0|0:0|3:0,0:0:0:0:
326,256,132230,37,2,0:0:0:0:
273,182,132470,1,8,0:0:0:0:
362,179,132710,2,0,L|438:174,1,75,2|10,0:0|3:0,0:0:0:0:
502,235,133190,2,0,L|511:288,2,37.5,2|0|8,0:0|0:0|0:0,0:0:0:0:
432,292,133670,2,0,L|441:345,2,37.5,2|0|8,0:0|0:0|3:0,0:0:0:0:
420,202,134150,21,2,0:0:0:0:
346,253,134390,1,8,0:0:0:0:
267,212,134630,2,0,P|257:248|264:285,1,75,2|10,0:0|3:0,0:0:0:0:
344,326,135110,2,0,P|353:290|346:253,1,75,2|8,0:0|0:0,0:0:0:0:
267,212,135590,38,0,L|212:208,2,37.5,2|0|8,0:0|0:0|3:0,0:0:0:0:
323,141,136070,2,0,L|360:143,2,37.5,2|0|8,0:0|0:0|0:0,0:0:0:0:
266,70,136550,2,0,L|211:66,2,37.5,2|0|10,0:0|0:0|3:0,0:0:0:0:
323,141,137030,22,0,L|307:222,1,75,2|8,0:0|0:0,0:0:0:0:
297,303,137510,2,0,L|371:281,1,75,2|8,0:0|3:0,0:0:0:0:
308,214,137990,2,0,L|236:192,1,75,2|8,0:0|0:0,0:0:0:0:
150,165,138470,2,0,L|164:238,1,75,2|10,0:0|3:0,0:0:0:0:
239,287,138950,38,0,L|290:289,2,37.5,2|0|8,0:0|0:0|0:0,0:0:0:0:
266,373,139430,2,0,L|317:375,2,37.5,2|0|8,0:0|0:0|3:0,0:0:0:0:
176,358,139910,21,2,0:0:0:0:
147,272,140150,1,8,0:0:0:0:
87,339,140390,2,0,P|51:349|10:340,1,75,2|10,0:0|3:0,0:0:0:0:
45,257,140870,2,0,L|38:212,2,37.5,2|0|8,0:0|0:0|0:0,0:0:0:0:
114,199,141350,2,0,L|108:156,2,37.5,2|0|8,0:0|0:0|3:0,0:0:0:0:
128,287,141830,37,2,0:0:0:0:
190,222,142070,1,8,0:0:0:0:
218,307,142310,2,0,P|254:317|297:303,1,75,2|8,0:0|0:0,0:0:0:0:
366,260,142790,1,8,0:0:0:0:
439,312,143030,2,0,L|442:350,2,37.5,8|8|8,0:0|0:0|0:0,0:0:0:0:
366,260,143510,2,0,L|360:179,1,75,8|8,0:0|0:0,0:0:0:0:
274,157,143990,2,0,L|273:119,2,37.5,8|8|8,0:0|0:0|0:0,0:0:0:0:
212,235,144470,22,0,P|172:224|136:236,1,75,6|2,0:0|0:0,0:0:0:0:
102,315,144950,2,0,P|141:325|174:316,1,75,8|2,0:0|0:0,0:0:0:0:
212,235,145430,1,8,3:0:0:0:
84,121,145910,54,0,P|71:161|84:203,1,82.5000025177003,12|2,1:0|0:0,0:0:0:0:
162,160,146390,6,0,P|197:149|233:158,1,75,8|2,3:0|0:0,0:0:0:0:
272,240,146870,2,0,P|236:250|200:241,1,75,8|2,0:0|0:0,0:0:0:0:
162,160,147350,1,10,3:0:0:0:
307,64,147830,54,0,P|318:102|309:142,1,82.5000025177003,12|2,1:0|0:0,0:0:0:0:
238,198,148310,6,0,L|221:285,1,75,8|2,3:0|0:0,0:0:0:0:
150,324,148790,2,0,L|138:247,1,75,8|2,0:0|0:0,0:0:0:0:
62,201,149270,2,0,L|50:312,2,112.5,8|2|2,3:0|0:0|0:0,0:0:0:0:
106,122,150230,38,0,P|69:111|24:124,2,75,8|0|0,3:0|0:0|0:0,0:0:0:0:
155,197,150950,2,0,P|191:207|237:195,2,75,2|10|0,0:0|0:0|0:0,0:0:0:0:
75,249,151670,6,0,P|64:292|78:330,1,82.5000025177003,8|10,0:0|0:0,0:0:0:0:
157,287,152150,6,0,P|192:297|228:288,1,75,6|2,0:0|0:0,0:0:0:0:
267,207,152629,2,0,P|231:196|195:205,1,75,8|2,0:0|0:0,0:0:0:0:
157,287,153110,1,8,3:0:0:0:
302,375,153590,54,0,P|313:336|304:296,1,82.5000025177003,12|2,1:0|0:0,0:0:0:0:
265,215,154070,6,0,P|300:204|336:213,1,75,8|2,3:0|0:0,0:0:0:0:
375,295,154549,2,0,P|339:305|303:296,1,75,8|2,0:0|0:0,0:0:0:0:
265,215,155030,1,10,3:0:0:0:
410,119,155510,54,0,P|421:157|412:197,1,82.5000025177003,12|2,1:0|0:0,0:0:0:0:
328,163,155990,6,0,L|249:151,1,75,8|2,3:0|0:0,0:0:0:0:
172,189,156470,2,0,P|161:153|169:117,1,75,8|2,0:0|0:0,0:0:0:0:
192,30,156950,2,0,L|69:43,2,112.5,8|2|2,3:0|0:0|0:0,0:0:0:0:
263,85,157910,38,0,P|277:119|262:169,2,75,8|2|8,0:0|0:0|0:0,0:0:0:0:
182,126,158630,1,8,0:0:0:0:
132,201,158870,2,0,P|67:197|89:136,1,150,4|0,3:0|0:0,0:0:0:0:
203,30,159830,53,12,3:0:0:0:
239,181,160310,1,12,3:0:0:0:
88,136,160790,1,12,3:0:0:0:
203,30,161270,54,0,P|238:22|264:28,1,60,8|2,1:0|0:0,0:0:0:0:
320,78,161750,2,0,P|327:113|322:139,1,60,8|2,1:0|0:0,0:0:0:0:
273,196,162230,2,0,P|237:203|212:198,1,60,8|2,1:0|0:0,0:0:0:0:
147,158,162710,1,8,1:0:0:0:
33,264,163190,6,0,L|25:331,1,60,8|2,1:0|0:0,0:0:0:0:
101,342,163670,2,0,L|109:270,1,60,8|0,1:0|0:0,0:0:0:0:
184,295,164150,2,0,L|177:364,1,60,8|2,1:0|0:0,0:0:0:0:
255,349,164630,2,0,P|311:332|368:352,1,120,8|8,1:0|1:0,0:0:0:0:
444,215,165590,54,0,P|435:184|442:152,1,60,8|2,1:0|0:0,0:0:0:0:
481,91,166070,2,0,P|486:62|474:30,1,60,8|2,1:0|0:0,0:0:0:0:
406,67,166550,1,8,1:0:0:0:
328,202,167030,6,0,P|299:209|269:205,1,60,8|2,1:0|0:0,0:0:0:0:
211,154,167510,2,0,P|203:125|207:95,1,60
258,36,167990,2,0,P|286:28|316:32,1,60,8|2,1:0|0:0,0:0:0:0:
384,74,168469,1,8,1:0:0:0:
312,212,168950,54,0,L|313:277,1,60,8|2,1:0|0:0,0:0:0:0:
235,280,169430,2,0,L|168:288,1,60,8|2,1:0|0:0,0:0:0:0:
97,294,169910,2,0,L|100:232,1,60,8|2,1:0|0:0,0:0:0:0:
109,156,170390,1,8,1:0:0:0:
261,188,170870,6,0,P|291:194|320:187,1,60,8|2,1:0|0:0,0:0:0:0:
392,161,171350,2,0,L|412:226,1,60,8|0,1:0|0:0,0:0:0:0:
393,294,171830,2,0,P|363:288|334:295,1,60,8|2,1:0|0:0,0:0:0:0:
260,317,172310,2,0,P|198:339|144:316,1,120,8|8,1:0|1:0,0:0:0:0:
49,170,173270,6,0,P|39:133|47:97,1,75,8|8,0:0|0:0,0:0:0:0:
138,98,173750,2,0,P|146:134|136:170,1,75,8|8,0:0|0:0,0:0:0:0:
168,254,174230,2,0,L|224:244,2,37.5,8|8|8,0:0|0:0|0:0,0:0:0:0:
112,325,174710,2,0,L|64:333,2,37.5,8|8|8,0:0|0:0|0:0,0:0:0:0:
201,336,175190,1,4,0:0:0:0:
103,35,178550,6,0,L|112:116,1,82.5000025177003,4|2,1:0|0:0,0:0:0:0:
129,205,179030,53,4,0:0:0:0:
145,292,179270,2,0,P|183:295|217:281,1,75,2|8,0:0|0:0,0:0:0:0:
266,205,179750,2,0,L|346:194,1,75,2|8,0:0|3:0,0:0:0:0:
427,218,180230,2,0,P|429:180|415:146,1,75,2|8,0:0|0:0,0:0:0:0:
339,98,180710,2,0,L|328:18,1,75,2|10,0:0|3:0,0:0:0:0:
243,53,181190,22,0,L|247:103,2,37.5,2|0|8,0:0|0:0|0:0,0:0:0:0:
154,70,181670,2,0,L|158:115,2,37.5,2|0|8,0:0|0:0|3:0,0:0:0:0:
64,84,182150,37,2,0:0:0:0:
79,172,182390,1,8,0:0:0:0:
103,258,182630,2,0,P|137:243|178:250,1,75,2|10,0:0|3:0,0:0:0:0:
255,285,183110,2,0,L|265:339,2,37.5,2|0|8,0:0|0:0|0:0,0:0:0:0:
343,267,183590,2,0,L|353:318,2,37.5,2|0|8,0:0|0:0|3:0,0:0:0:0:
282,200,184070,21,2,0:0:0:0:
370,182,184310,1,8,0:0:0:0:
308,116,184550,2,0,P|272:111|235:125,1,75,2|10,0:0|3:0,0:0:0:0:
155,164,185030,2,0,P|118:170|82:161,1,75,2|8,0:0|0:0,0:0:0:0:
25,92,185510,38,0,L|13:54,2,37.5,2|0|8,0:0|0:0|3:0,0:0:0:0:
113,74,185990,2,0,L|101:35,2,37.5,2|0|8,0:0|0:0|0:0,0:0:0:0:
201,54,186470,2,0,L|183:5,2,37.5,2|0|10,0:0|0:0|3:0,0:0:0:0:
202,143,186950,22,0,P|234:125|272:125,1,75,2|8,0:0|0:0,0:0:0:0:
347,177,187430,2,0,L|424:155,1,75,2|8,0:0|3:0,0:0:0:0:
490,102,187910,2,0,P|507:134|507:172,1,75,2|8,0:0|0:0,0:0:0:0:
456,247,188390,2,0,L|477:324,1,75,2|8,0:0|3:0,0:0:0:0:
385,330,188870,38,0,L|375:287,2,37.5,2|0|8,0:0|0:0|0:0,0:0:0:0:
296,346,189350,2,0,L|288:308,2,37.5,2|0|8,0:0|0:0|3:0,0:0:0:0:
207,362,189830,21,2,0:0:0:0:
189,273,190070,1,8,0:0:0:0:
118,329,190310,2,0,P|80:341|33:328,1,75,2|8,0:0|3:0,0:0:0:0:
12,250,190790,2,0,L|4:204,2,37.5,2|0|8,0:0|0:0|0:0,0:0:0:0:
94,212,191270,2,0,L|82:166,2,37.5,2|0|8,0:0|0:0|3:0,0:0:0:0:
117,299,191750,37,2,0:0:0:0:
182,236,191990,1,8,0:0:0:0:
204,323,192230,2,0,P|240:332|287:320,1,75,2|8,0:0|0:0,0:0:0:0:
362,295,192710,1,8,0:0:0:0:
407,217,192950,2,0,L|401:175,2,37.5,8|8|8,0:0|0:0|0:0,0:0:0:0:
317,215,193430,2,0,L|308:138,1,75,8|8,0:0|0:0,0:0:0:0:
218,141,193910,2,0,L|211:97,2,37.5,8|8|8,0:0|0:0|0:0,0:0:0:0:
191,227,194390,22,0,P|153:238|112:227,1,75,6|2,0:0|0:0,0:0:0:0:
37,193,194870,2,0,L|25:112,1,75,8|2,0:0|0:0,0:0:0:0:
10,30,195350,1,8,3:0:0:0:
169,99,195830,54,0,P|209:112|251:99,1,82.5000025177003,12|2,1:0|0:0,0:0:0:0:
328,139,196310,6,0,P|339:176|328:218,1,75,8|2,3:0|0:0,0:0:0:0:
294,293,196790,2,0,L|213:305,1,75,8|2,0:0|0:0,0:0:0:0:
131,320,197270,1,10,3:0:0:0:
200,161,197750,54,0,P|213:121|200:79,1,82.5000025177003,12|2,1:0|0:0,0:0:0:0:
120,120,198230,6,0,L|35:135,1,75,8|2,3:0|0:0,0:0:0:0:
8,214,198710,2,0,L|82:228,1,75,8|2,0:0|0:0,0:0:0:0:
168,250,199190,2,0,P|146:301|166:356,2,112.5,8|2|2,3:0|0:0|0:0,0:0:0:0:
241,197,200150,38,0,L|249:117,2,75,8|2|8,3:0|0:0|0:0,0:0:0:0:
330,195,200870,2,0,L|340:110,2,75,2|10|8,0:0|0:0|0:0,0:0:0:0:
312,285,201590,6,0,P|273:276|233:283,1,82.5000025177003,8|10,0:0|0:0,0:0:0:0:
150,244,202070,6,0,P|138:206|150:165,1,75,6|2,0:0|0:0,0:0:0:0:
184,90,202550,2,0,L|265:78,1,75,8|2,0:0|0:0,0:0:0:0:
347,63,203030,1,8,3:0:0:0:
278,222,203510,54,0,P|265:262|278:304,1,82.5000025177003,12|2,1:0|0:0,0:0:0:0:
195,342,203990,6,0,P|157:353|116:342,1,75,8|2,3:0|0:0,0:0:0:0:
41,308,204470,2,0,L|29:227,1,75,8|2,0:0|0:0,0:0:0:0:
14,145,204950,1,10,3:0:0:0:
173,214,205430,54,0,P|213:227|255:214,1,82.5000025177003,12|2,1:0|0:0,0:0:0:0:
334,250,205910,6,0,P|343:213|332:178,1,75,8|2,3:0|0:0,0:0:0:0:
259,125,206390,2,0,P|248:89|256:53,1,75,8|2,0:0|0:0,0:0:0:0:
345,44,206870,2,0,L|456:32,2,112.5,8|2|2,3:0|0:0|0:0,0:0:0:0:
255,53,207830,38,0,L|166:64,2,75,8|2|8,0:0|0:0|0:0,0:0:0:0:
310,124,208550,1,8,0:0:0:0:
287,211,208790,2,0,P|332:257|363:200,1,150,2|0,0:0|0:0,0:0:0:0:
