osu file format v14

[General]
AudioFilename: audio.mp3
AudioLeadIn: 0
PreviewTime: 933
Countdown: 0
SampleSet: Normal
StackLeniency: 0.7
Mode: 1
LetterboxInBreaks: 0
WidescreenStoryboard: 1

[Editor]
DistanceSpacing: 1.8
BeatDivisor: 4
GridSize: 32
TimelineZoom: 0.9999998

[Metadata]
Title:This This Rice Main Theme Song
TitleUnicode:兩餸飯主題曲
Artist:BK Hong
ArtistUnicode:BK Hong
Creator:Irone OSU
Version:This This iRedi's Shokyuu
Source:兩餸飯 | This This Rice
Tags:iRedi BeanKing Computer Entertainment HK Hong Kong Chinese Cantonese 香港 rice with two sides lunch dinner Rock Novelty
BeatmapID:3939311
BeatmapSetID:1908474

[Difficulty]
HPDrainRate:10
CircleSize:2
OverallDifficulty:2
ApproachRate:10
SliderMultiplier:1.4
SliderTickRate:1

[Events]
//Background and Video events
0,0,"this bg.jpg",0,0
//Break Periods
//Storyboard Layer 0 (Background)
//Storyboard Layer 1 (Fail)
//Storyboard Layer 2 (Pass)
//Storyboard Layer 3 (Foreground)
//Storyboard Layer 4 (Overlay)
//Storyboard Sound Samples

[TimingPoints]
1600,333.333333333333,4,1,0,70,1,0
10933,-100,4,1,0,70,0,1
12266,-100,4,1,0,70,0,0
21599,-100,4,1,0,70,0,1
22933,-100,4,1,0,70,0,0
32266,-100,4,1,0,70,0,1
33599,-100,4,1,0,70,0,0
42599,-100,4,1,0,70,0,1
43599,-100,4,1,0,70,0,0
44183,333.333333333333,4,1,0,70,1,0
45516,-100,4,1,0,60,0,0
46849,-100,4,1,0,50,0,0
48182,-100,4,1,0,40,0,0
49516,-100,4,1,0,30,0,0
50849,-100,4,1,0,20,0,0

[HitObjects]
512,0,1600,5,4,0:0:0:0:
256,192,2933,1,0,0:0:0:0:
256,192,3599,1,8,0:0:0:0:
256,192,4266,1,0,0:0:0:0:
256,192,5599,1,8,0:0:0:0:
256,192,6266,1,8,0:0:0:0:
256,192,6933,1,0,0:0:0:0:
256,192,8266,1,8,0:0:0:0:
256,192,8933,1,0,0:0:0:0:
256,192,9599,1,0,0:0:0:0:
256,192,10266,1,0,0:0:0:0:
256,192,10933,1,8,0:0:0:0:
256,192,11599,1,8,0:0:0:0:
512,0,12266,1,4,0:0:0:0:
256,192,13599,1,0,0:0:0:0:
256,192,14266,1,0,0:0:0:0:
256,192,14933,1,8,0:0:0:0:
256,192,16266,1,8,0:0:0:0:
256,192,16933,1,8,0:0:0:0:
256,192,17600,1,0,0:0:0:0:
256,192,18933,1,0,0:0:0:0:
256,192,19600,1,8,0:0:0:0:
256,192,20267,1,8,0:0:0:0:
256,192,20933,1,0,0:0:0:0:
256,192,21600,1,8,0:0:0:0:
256,192,22267,1,8,0:0:0:0:
512,0,22933,1,4,0:0:0:0:
256,192,24266,1,8,0:0:0:0:
256,192,24932,1,0,0:0:0:0:
256,192,25599,1,8,0:0:0:0:
256,192,26932,1,0,0:0:0:0:
256,192,27599,1,0,0:0:0:0:
256,192,28266,1,8,0:0:0:0:
256,192,29599,1,0,0:0:0:0:
256,192,30266,1,8,0:0:0:0:
256,192,30932,1,0,0:0:0:0:
256,192,31599,1,0,0:0:0:0:
256,192,32266,1,8,0:0:0:0:
256,192,32932,1,8,0:0:0:0:
512,0,33599,1,4,0:0:0:0:
256,192,34932,1,8,0:0:0:0:
256,192,35599,1,8,0:0:0:0:
256,192,36266,1,0,0:0:0:0:
256,192,37599,1,0,0:0:0:0:
256,192,38266,1,0,0:0:0:0:
256,192,38933,1,8,0:0:0:0:
256,192,40266,1,0,0:0:0:0:
256,192,40933,1,0,0:0:0:0:
256,192,41600,1,8,0:0:0:0:
256,192,42266,1,0,0:0:0:0:
256,192,42933,1,8,0:0:0:0:
256,192,44183,1,4,0:0:0:0:
256,192,44516,12,0,52182,0:0:0:0:
