osu file format v14

[General]
AudioFilename: audio.mp3
AudioLeadIn: 0
PreviewTime: 933
Countdown: 0
SampleSet: Normal
StackLeniency: 0.7
Mode: 1
LetterboxInBreaks: 0
WidescreenStoryboard: 1

[Editor]
DistanceSpacing: 1.8
BeatDivisor: 4
GridSize: 32
TimelineZoom: 2

[Metadata]
Title:This This Rice Main Theme Song
TitleUnicode:兩餸飯主題曲
Artist:BK Hong
ArtistUnicode:BK Hong
Creator:Irone OSU
Version:This This Muzukashii
Source:兩餸飯 | This This Rice
Tags:iRedi BeanKing Computer Entertainment HK Hong Kong Chinese Cantonese 香港 rice with two sides lunch dinner Rock Novelty
BeatmapID:3935715
BeatmapSetID:1908474

[Difficulty]
HPDrainRate:7
CircleSize:2
OverallDifficulty:5
ApproachRate:2
SliderMultiplier:1.4
SliderTickRate:1

[Events]
//Background and Video events
0,0,"this bg.jpg",0,0
//Break Periods
//Storyboard Layer 0 (Background)
//Storyboard Layer 1 (Fail)
//Storyboard Layer 2 (Pass)
//Storyboard Layer 3 (Foreground)
//Storyboard Layer 4 (Overlay)
//Storyboard Sound Samples

[TimingPoints]
1600,333.333333333333,4,1,0,70,1,0
10933,-100,4,1,0,70,0,1
12266,-100,4,1,0,70,0,0
21599,-100,4,1,0,70,0,1
22933,-100,4,1,0,70,0,0
32266,-100,4,1,0,70,0,1
33599,-100,4,1,0,70,0,0
42599,-100,4,1,0,70,0,1
43599,-100,4,1,0,70,0,0
44183,333.333333333333,4,1,0,70,1,0
45516,-100,4,1,0,60,0,0
46849,-100,4,1,0,50,0,0
48182,-100,4,1,0,40,0,0
49516,-100,4,1,0,30,0,0
50849,-100,4,1,0,20,0,0

[HitObjects]
256,192,933,12,0,1433,0:0:0:0:
256,188,1600,5,4,0:0:0:0:
256,188,1933,1,2,0:0:0:0:
256,188,2099,1,0,0:0:0:0:
256,188,2183,1,0,0:0:0:0:
256,188,2266,1,0,0:0:0:0:
256,188,2433,1,0,0:0:0:0:
256,188,2599,1,2,0:0:0:0:
256,188,2766,1,0,0:0:0:0:
256,188,3266,1,2,0:0:0:0:
256,188,3433,1,0,0:0:0:0:
256,188,3599,1,2,0:0:0:0:
256,188,3683,1,2,0:0:0:0:
256,188,3766,1,2,0:0:0:0:
256,188,3933,1,2,0:0:0:0:
256,188,4099,1,0,0:0:0:0:
256,188,4266,1,0,0:0:0:0:
256,188,4599,1,2,0:0:0:0:
256,188,4683,1,2,0:0:0:0:
256,188,4766,1,2,0:0:0:0:
256,188,4933,1,2,0:0:0:0:
256,188,5099,1,0,0:0:0:0:
256,188,5266,1,2,0:0:0:0:
256,188,5599,1,0,0:0:0:0:
256,188,5933,1,2,0:0:0:0:
256,188,6099,1,0,0:0:0:0:
256,188,6266,1,2,0:0:0:0:
256,188,6349,1,2,0:0:0:0:
256,188,6433,1,2,0:0:0:0:
256,188,6599,1,2,0:0:0:0:
256,188,6766,1,0,0:0:0:0:
256,188,6933,1,0,0:0:0:0:
256,188,7266,1,0,0:0:0:0:
256,188,7433,1,2,0:0:0:0:
256,188,7516,1,2,0:0:0:0:
256,188,7599,1,2,0:0:0:0:
256,188,7766,1,0,0:0:0:0:
256,188,7933,1,0,0:0:0:0:
256,188,8099,1,2,0:0:0:0:
256,188,8599,1,2,0:0:0:0:
256,188,8766,1,0,0:0:0:0:
256,188,8933,1,2,0:0:0:0:
256,188,9016,1,2,0:0:0:0:
256,188,9099,1,2,0:0:0:0:
256,188,9266,1,2,0:0:0:0:
256,188,9433,1,0,0:0:0:0:
256,188,9599,1,0,0:0:0:0:
256,188,9933,1,2,0:0:0:0:
256,188,10099,1,0,0:0:0:0:
256,188,10183,1,0,0:0:0:0:
256,188,10266,1,0,0:0:0:0:
256,188,10433,1,2,0:0:0:0:
256,188,10599,1,0,0:0:0:0:
256,188,10933,1,2,0:0:0:0:
256,188,11016,1,2,0:0:0:0:
256,188,11099,1,2,0:0:0:0:
256,188,11266,1,2,0:0:0:0:
256,188,11433,1,0,0:0:0:0:
256,188,11599,1,2,0:0:0:0:
256,188,11683,1,2,0:0:0:0:
256,188,11766,1,2,0:0:0:0:
256,188,11933,1,0,0:0:0:0:
256,188,12099,1,0,0:0:0:0:
256,188,12266,1,6,0:0:0:0:
256,188,12599,1,2,0:0:0:0:
256,188,12766,1,2,0:0:0:0:
256,188,12849,1,2,0:0:0:0:
256,188,12933,1,2,0:0:0:0:
256,188,13099,1,0,0:0:0:0:
256,188,13266,1,0,0:0:0:0:
256,188,13433,1,2,0:0:0:0:
256,188,13933,1,2,0:0:0:0:
256,188,14099,1,0,0:0:0:0:
256,188,14266,1,2,0:0:0:0:
256,188,14349,1,2,0:0:0:0:
256,188,14433,1,2,0:0:0:0:
256,188,14599,1,2,0:0:0:0:
256,188,14766,1,0,0:0:0:0:
256,188,14933,1,0,0:0:0:0:
256,188,15266,1,2,0:0:0:0:
256,188,15433,1,0,0:0:0:0:
256,188,15599,1,2,0:0:0:0:
256,188,15683,1,2,0:0:0:0:
256,188,15766,1,2,0:0:0:0:
256,188,15933,1,2,0:0:0:0:
256,188,16266,1,0,0:0:0:0:
256,188,16599,1,2,0:0:0:0:
256,188,16766,1,0,0:0:0:0:
256,188,16933,1,2,0:0:0:0:
256,188,17016,1,2,0:0:0:0:
256,188,17099,1,2,0:0:0:0:
256,188,17266,1,2,0:0:0:0:
256,188,17433,1,0,0:0:0:0:
256,188,17599,1,0,0:0:0:0:
256,188,17933,1,2,0:0:0:0:
256,188,18099,1,0,0:0:0:0:
256,188,18183,1,0,0:0:0:0:
256,188,18266,1,0,0:0:0:0:
256,188,18433,1,2,0:0:0:0:
256,188,18599,1,0,0:0:0:0:
256,188,19099,1,0,0:0:0:0:
256,188,19266,1,2,0:0:0:0:
256,188,19433,1,0,0:0:0:0:
256,188,19599,1,2,0:0:0:0:
256,188,19683,1,2,0:0:0:0:
256,188,19766,1,2,0:0:0:0:
256,188,19933,1,2,0:0:0:0:
256,188,20099,1,0,0:0:0:0:
256,188,20266,1,0,0:0:0:0:
256,188,20599,1,2,0:0:0:0:
256,188,20766,1,0,0:0:0:0:
256,188,20849,1,0,0:0:0:0:
256,188,20933,1,0,0:0:0:0:
256,188,21099,1,2,0:0:0:0:
256,188,21266,1,2,0:0:0:0:
256,188,21599,1,2,0:0:0:0:
256,188,21683,1,2,0:0:0:0:
256,188,21766,1,2,0:0:0:0:
256,188,21933,1,2,0:0:0:0:
256,188,22099,1,0,0:0:0:0:
256,188,22183,1,0,0:0:0:0:
256,188,22266,1,0,0:0:0:0:
256,188,22433,1,0,0:0:0:0:
256,188,22599,1,2,0:0:0:0:
256,188,22766,1,2,0:0:0:0:
256,188,22933,1,4,0:0:0:0:
256,188,23266,1,0,0:0:0:0:
256,188,23349,1,0,0:0:0:0:
256,188,23433,1,0,0:0:0:0:
256,188,23599,1,2,0:0:0:0:
256,188,23766,1,0,0:0:0:0:
256,188,23933,1,2,0:0:0:0:
256,188,24099,1,2,0:0:0:0:
256,188,24599,1,2,0:0:0:0:
256,188,24766,1,0,0:0:0:0:
256,188,24933,1,2,0:0:0:0:
256,188,25016,1,2,0:0:0:0:
256,188,25099,1,2,0:0:0:0:
256,188,25266,1,2,0:0:0:0:
256,188,25433,1,0,0:0:0:0:
256,188,25599,1,0,0:0:0:0:
256,188,25933,1,2,0:0:0:0:
256,188,26099,1,0,0:0:0:0:
256,188,26183,1,0,0:0:0:0:
256,188,26266,1,0,0:0:0:0:
256,188,26433,1,0,0:0:0:0:
256,188,26599,1,2,0:0:0:0:
256,188,26933,1,0,0:0:0:0:
256,188,27266,1,2,0:0:0:0:
256,188,27433,1,0,0:0:0:0:
256,188,27599,1,2,0:0:0:0:
256,188,27683,1,2,0:0:0:0:
256,188,27766,1,2,0:0:0:0:
256,188,27933,1,2,0:0:0:0:
256,188,28099,1,0,0:0:0:0:
256,188,28266,1,0,0:0:0:0:
256,188,28599,1,2,0:0:0:0:
256,188,28683,1,2,0:0:0:0:
256,188,28766,1,2,0:0:0:0:
256,188,28933,1,0,0:0:0:0:
256,188,29099,1,2,0:0:0:0:
256,188,29266,1,2,0:0:0:0:
256,188,29766,1,0,0:0:0:0:
256,188,29933,1,2,0:0:0:0:
256,188,30099,1,0,0:0:0:0:
256,188,30266,1,2,0:0:0:0:
256,188,30349,1,2,0:0:0:0:
256,188,30433,1,2,0:0:0:0:
256,188,30599,1,2,0:0:0:0:
256,188,30766,1,0,0:0:0:0:
256,188,30933,1,0,0:0:0:0:
256,188,31266,1,2,0:0:0:0:
256,188,31349,1,2,0:0:0:0:
256,188,31433,1,2,0:0:0:0:
256,188,31599,1,0,0:0:0:0:
256,188,31766,1,0,0:0:0:0:
256,188,31933,1,2,0:0:0:0:
256,188,32266,1,2,0:0:0:0:
256,188,32349,1,2,0:0:0:0:
256,188,32433,1,2,0:0:0:0:
256,188,32599,1,2,0:0:0:0:
256,188,32766,1,0,0:0:0:0:
256,188,32933,1,2,0:0:0:0:
256,188,33016,1,2,0:0:0:0:
256,188,33099,1,2,0:0:0:0:
256,188,33266,1,0,0:0:0:0:
256,188,33433,1,0,0:0:0:0:
256,188,33599,1,6,0:0:0:0:
256,188,33933,1,2,0:0:0:0:
256,188,34099,1,2,0:0:0:0:
256,188,34266,1,0,0:0:0:0:
256,188,34349,1,0,0:0:0:0:
256,188,34433,1,0,0:0:0:0:
256,188,34599,1,2,0:0:0:0:
256,188,34766,1,0,0:0:0:0:
256,188,35266,1,2,0:0:0:0:
256,188,35433,1,0,0:0:0:0:
256,188,35599,1,2,0:0:0:0:
256,188,35683,1,2,0:0:0:0:
256,188,35766,1,2,0:0:0:0:
256,188,35933,1,2,0:0:0:0:
256,188,36099,1,0,0:0:0:0:
256,188,36266,1,0,0:0:0:0:
256,188,36599,1,2,0:0:0:0:
256,188,36683,1,2,0:0:0:0:
256,188,36766,1,2,0:0:0:0:
256,188,36933,1,0,0:0:0:0:
256,188,37099,1,0,0:0:0:0:
256,188,37266,1,2,0:0:0:0:
256,188,37599,1,0,0:0:0:0:
256,188,37933,1,2,0:0:0:0:
256,188,38099,1,0,0:0:0:0:
256,188,38266,1,2,0:0:0:0:
256,188,38349,1,2,0:0:0:0:
256,188,38433,1,2,0:0:0:0:
256,188,38599,1,2,0:0:0:0:
256,188,38766,1,0,0:0:0:0:
256,188,38933,1,0,0:0:0:0:
256,188,39266,1,2,0:0:0:0:
256,188,39433,1,0,0:0:0:0:
256,188,39516,1,0,0:0:0:0:
256,188,39599,1,0,0:0:0:0:
256,188,39766,1,0,0:0:0:0:
256,188,39933,1,2,0:0:0:0:
256,188,40433,1,0,0:0:0:0:
256,188,40599,1,2,0:0:0:0:
256,188,40766,1,0,0:0:0:0:
256,188,40933,1,2,0:0:0:0:
256,188,41016,1,2,0:0:0:0:
256,188,41099,1,2,0:0:0:0:
256,188,41266,1,2,0:0:0:0:
256,188,41433,1,0,0:0:0:0:
256,188,41599,1,0,0:0:0:0:
256,188,41933,1,2,0:0:0:0:
256,188,42016,1,2,0:0:0:0:
256,188,42099,1,2,0:0:0:0:
256,188,42266,1,0,0:0:0:0:
256,188,42599,1,2,0:0:0:0:
256,188,42683,1,2,0:0:0:0:
256,188,42766,1,2,0:0:0:0:
256,188,42933,1,2,0:0:0:0:
256,188,43099,1,0,0:0:0:0:
256,188,43183,1,0,0:0:0:0:
256,188,43266,1,0,0:0:0:0:
256,188,43433,1,0,0:0:0:0:
256,188,43599,1,2,0:0:0:0:
256,188,43933,1,2,0:0:0:0:
256,188,44183,1,4,0:0:0:0:
256,192,44433,12,0,52182,0:0:0:0:
