osu file format v14

[General]
AudioFilename: audio.mp3
AudioLeadIn: 0
PreviewTime: 933
Countdown: 0
SampleSet: Normal
StackLeniency: 0.7
Mode: 1
LetterboxInBreaks: 0
WidescreenStoryboard: 1

[Editor]
DistanceSpacing: 1.8
BeatDivisor: 4
GridSize: 32
TimelineZoom: 0.9999998

[Metadata]
Title:This This Rice Main Theme Song
TitleUnicode:兩餸飯主題曲
Artist:BK Hong
ArtistUnicode:BK Hong
Creator:Irone OSU
Version:This This Kantan
Source:兩餸飯 | This This Rice
Tags:iRedi BeanKing Computer Entertainment HK Hong Kong Chinese Cantonese 香港 rice with two sides lunch dinner Rock Novelty
BeatmapID:3935714
BeatmapSetID:1908474

[Difficulty]
HPDrainRate:9
CircleSize:2
OverallDifficulty:3
ApproachRate:2
SliderMultiplier:1.4
SliderTickRate:1

[Events]
//Background and Video events
0,0,"this bg.jpg",0,0
//Break Periods
//Storyboard Layer 0 (Background)
//Storyboard Layer 1 (Fail)
//Storyboard Layer 2 (Pass)
//Storyboard Layer 3 (Foreground)
//Storyboard Layer 4 (Overlay)
//Storyboard Sound Samples

[TimingPoints]
1600,333.333333333333,4,1,0,70,1,0
10933,-100,4,1,0,70,0,1
12266,-100,4,1,0,70,0,0
21599,-100,4,1,0,70,0,1
22933,-100,4,1,0,70,0,0
32266,-100,4,1,0,70,0,1
33599,-100,4,1,0,70,0,0
42599,-100,4,1,0,70,0,1
43599,-100,4,1,0,70,0,0
44183,333.333333333333,4,1,0,70,1,0
45516,-100,4,1,0,60,0,0
46849,-100,4,1,0,50,0,0
48182,-100,4,1,0,40,0,0
49516,-100,4,1,0,30,0,0
50849,-100,4,1,0,20,0,0

[HitObjects]
256,188,1600,5,4,0:0:0:0:
256,188,2599,1,2,0:0:0:0:
256,188,2933,1,0,0:0:0:0:
256,188,3599,1,2,0:0:0:0:
256,188,3933,1,2,0:0:0:0:
256,188,4266,1,0,0:0:0:0:
256,188,4599,1,2,0:0:0:0:
256,188,4933,1,2,0:0:0:0:
256,188,5266,1,0,0:0:0:0:
256,188,5599,1,2,0:0:0:0:
256,188,6266,1,2,0:0:0:0:
256,188,6599,1,2,0:0:0:0:
256,188,6933,1,0,0:0:0:0:
256,188,7933,1,0,0:0:0:0:
256,188,8266,1,2,0:0:0:0:
256,188,8933,1,2,0:0:0:0:
256,188,9266,1,2,0:0:0:0:
256,188,9599,1,0,0:0:0:0:
256,188,9933,1,2,0:0:0:0:
256,188,10266,1,0,0:0:0:0:
256,188,10933,1,2,0:0:0:0:
256,188,11266,1,2,0:0:0:0:
256,188,11599,1,2,0:0:0:0:
256,188,11933,1,2,0:0:0:0:
256,188,12266,1,4,0:0:0:0:
256,188,13266,1,2,0:0:0:0:
256,188,13599,1,0,0:0:0:0:
256,188,14266,1,2,0:0:0:0:
256,188,14599,1,2,0:0:0:0:
256,188,14933,1,0,0:0:0:0:
256,188,15266,1,2,0:0:0:0:
256,188,15599,1,0,0:0:0:0:
256,188,15933,1,2,0:0:0:0:
256,188,16266,1,0,0:0:0:0:
256,188,16933,1,2,0:0:0:0:
256,188,17266,1,2,0:0:0:0:
256,188,17599,1,0,0:0:0:0:
256,188,18599,1,2,0:0:0:0:
256,188,18933,1,0,0:0:0:0:
256,188,19599,1,2,0:0:0:0:
256,188,19933,1,2,0:0:0:0:
256,188,20266,1,0,0:0:0:0:
256,188,20599,1,0,0:0:0:0:
256,188,20933,1,2,0:0:0:0:
256,188,21599,1,2,0:0:0:0:
256,188,21933,1,2,0:0:0:0:
256,188,22266,1,0,0:0:0:0:
256,188,22599,1,2,0:0:0:0:
256,188,22933,1,4,0:0:0:0:
256,188,23933,1,2,0:0:0:0:
256,188,24266,1,0,0:0:0:0:
256,188,24933,1,2,0:0:0:0:
256,188,25266,1,2,0:0:0:0:
256,188,25599,1,0,0:0:0:0:
256,188,25933,1,2,0:0:0:0:
256,188,26266,1,0,0:0:0:0:
256,188,26599,1,0,0:0:0:0:
256,188,26933,1,2,0:0:0:0:
256,188,27599,1,2,0:0:0:0:
256,188,27933,1,2,0:0:0:0:
256,188,28266,1,0,0:0:0:0:
256,188,29266,1,2,0:0:0:0:
256,188,29599,1,0,0:0:0:0:
256,188,30266,1,2,0:0:0:0:
256,188,30599,1,2,0:0:0:0:
256,188,30933,1,0,0:0:0:0:
256,188,31266,1,2,0:0:0:0:
256,188,31599,1,2,0:0:0:0:
256,188,32266,1,2,0:0:0:0:
256,188,32599,1,2,0:0:0:0:
256,188,32933,1,2,0:0:0:0:
256,188,33266,1,2,0:0:0:0:
256,188,33599,1,4,0:0:0:0:
256,188,34599,1,2,0:0:0:0:
256,188,34933,1,0,0:0:0:0:
256,188,35599,1,2,0:0:0:0:
256,188,35933,1,2,0:0:0:0:
256,188,36266,1,0,0:0:0:0:
256,188,36599,1,2,0:0:0:0:
256,188,36933,1,2,0:0:0:0:
256,188,37266,1,2,0:0:0:0:
256,188,37599,1,0,0:0:0:0:
256,188,38266,1,2,0:0:0:0:
256,188,38599,1,2,0:0:0:0:
256,188,38933,1,0,0:0:0:0:
256,188,39933,1,2,0:0:0:0:
256,188,40266,1,0,0:0:0:0:
256,188,40933,1,2,0:0:0:0:
256,188,41266,1,2,0:0:0:0:
256,188,41599,1,0,0:0:0:0:
256,188,41933,1,2,0:0:0:0:
256,188,42599,1,2,0:0:0:0:
256,188,42933,1,0,0:0:0:0:
256,188,43266,1,0,0:0:0:0:
256,188,43599,1,2,0:0:0:0:
256,188,44183,1,4,0:0:0:0:
256,192,44433,12,0,52182,0:0:0:0:
