osu file format v14

[General]
AudioFilename: audio.mp3
AudioLeadIn: 0
PreviewTime: 47538
Countdown: 0
SampleSet: Soft
StackLeniency: 0.9
Mode: 0
LetterboxInBreaks: 0
EpilepsyWarning: 1
WidescreenStoryboard: 1

[Editor]
Bookmarks: 36415,46700,89752,110324,117181,124038,137752,158324,182324
DistanceSpacing: 1.3
BeatDivisor: 4
GridSize: 16
TimelineZoom: 1.6

[Metadata]
Title:Tsuitachi no Nie
TitleUnicode:朔の贄
Artist:BIN
ArtistUnicode:BIN
Creator:Arsalan
Version:Normal
Source:贄姫と獣の王
Tags:japanese anime opening full ver version jpop j-pop pop niehime to kemono no ou nascent sacrifice sacrificial princess and the king of beasts Cutejohnfan R3aCt10n yama
BeatmapID:4107728
BeatmapSetID:1978556

[Difficulty]
HPDrainRate:3
CircleSize:3
OverallDifficulty:4
ApproachRate:5
SliderMultiplier:1
SliderTickRate:1

[Events]
//Background and Video events
0,0,"ED.png",0,0
//Break Periods
2,76238,81695
2,103667,108610
//Storyboard Layer 0 (Background)
//Storyboard Layer 1 (Fail)
//Storyboard Layer 2 (Pass)
//Storyboard Layer 3 (Foreground)
//Storyboard Layer 4 (Overlay)
//Storyboard Sound Samples

[TimingPoints]
610,428.571428571429,4,2,2,60,1,0
610,-100,4,2,2,60,0,0
9181,-100,4,2,2,40,0,0
22895,-100,4,2,2,55,0,0
36610,-100,4,2,1,60,0,0
46895,-100,4,2,1,35,0,0
47538,-100,4,2,1,50,0,0
48610,-100,4,2,1,65,0,1
72610,-100,4,2,1,45,0,0
76038,-100,4,2,1,45,0,0
89752,-100,4,2,1,60,0,0
103467,-100,4,2,3,50,0,0
108610,-100,4,2,1,30,0,0
110324,-100,4,2,1,60,0,0
122324,-95.2380952380952,4,2,1,60,0,0
123181,-100,4,2,1,55,0,0
124038,-100,4,2,1,60,0,1
136895,-100,4,2,1,60,0,0
137752,-100,4,2,1,70,0,1
158324,-100,4,2,1,65,0,0

[Colours]
Combo1 : 209,14,14
Combo2 : 227,210,187
Combo3 : 156,136,141
Combo4 : 166,189,201
Combo5 : 121,170,209
Combo6 : 82,102,141
Combo7 : 255,91,91

[HitObjects]
0,62,2324,6,0,P|20:116|112:122,1,150,4|8,3:0|0:0,0:0:0:0:
266,20,3610,2,0,L|333:31,1,50,2|0,0:3|0:0,0:0:0:0:
371,63,4038,2,0,L|346:220,1,150,4|8,3:0|0:0,0:0:0:0:
221,360,5324,2,0,L|153:350,1,50,2|2,0:3|0:0,0:0:0:0:
108,339,5752,6,0,P|83:286|140:213,1,150,4|8,3:0|0:0,0:0:0:0:
322,184,7038,2,0,L|373:205,1,50,2|2,0:3|0:3,0:0:0:0:
432,213,7467,2,0,P|476:161|455:69,1,150,4|8,3:0|0:0,0:0:0:0:
282,20,8752,2,0,L|224:41,1,50,2|2,0:3|0:0,0:0:0:0:
182,76,9181,6,0,L|168:175,1,100,2|2,0:0|0:0,0:0:0:0:
89,279,10038,2,0,P|55:271|-4:286,2,75,2|2|2,0:0|0:0|0:0,0:0:0:0:
133,326,10895,2,0,B|256:342|199:252|321:270,1,200,2|2,0:0|0:0,0:0:0:0:
429,328,12181,1,2,0:0:0:0:
508,224,12610,5,2,0:0:0:0:
317,46,13467,2,0,L|225:63,2,75,2|2|2,0:0|0:0|0:0,0:0:0:0:
359,95,14324,2,0,P|345:158|219:180,1,200,2|2,0:0|0:0,0:0:0:0:
117,113,15610,1,2,0:0:0:0:
13,191,16038,6,0,L|35:298,1,100,2|0,0:0|0:0,0:0:0:0:
56,355,16681,1,2,0:0:0:0:
56,355,16895,2,0,L|146:374,1,75,2|2,0:0|0:0,0:0:0:0:
212,317,17538,1,2,0:0:0:0:
212,317,17752,2,0,L|302:298,1,75,2|2,0:0|0:0,0:0:0:0:
367,353,18395,1,2,0:0:0:0:
367,353,18610,2,0,P|431:333|450:252,1,150,2|2,0:0|0:0,0:0:0:0:
407,211,19467,38,0,L|437:45,1,150,2|2,0:0|0:0,0:0:0:0:
485,24,20324,1,2,0:0:0:0:
329,139,20967,5,2,0:0:0:0:
329,139,21181,2,0,P|272:143|246:55,1,150,2|2,0:0|0:2,0:0:0:0:
205,11,22038,1,2,0:2:0:0:
31,96,22681,5,2,0:0:0:0:
31,96,22895,2,0,P|2:160|69:259,1,200,6|2,3:0|0:0,0:0:0:0:
133,248,23967,1,4,3:0:0:0:
258,296,24395,1,2,0:0:0:0:
258,296,24610,2,0,P|310:230|296:154,1,150,4|10,3:0|0:0,0:0:0:0:
212,75,25681,2,0,P|218:50|237:11,1,50,2|8,0:3|0:0,0:0:0:0:
292,8,26110,5,10,0:0:0:0:
292,8,26324,2,0,B|422:20|328:93|453:115,1,200,4|2,3:0|0:0,0:0:0:0:
509,100,27395,1,4,3:0:0:0:
361,227,28038,2,0,P|300:229|233:163,1,150,4|10,3:0|0:0,0:0:0:0:
197,127,28895,1,2,0:0:0:0:
197,127,29110,2,0,L|139:119,1,50,2|10,0:3|0:0,0:0:0:0:
95,156,29538,1,10,0:0:0:0:
95,156,29752,1,4,3:0:0:0:
79,354,30395,5,2,0:0:0:0:
79,354,30610,2,0,L|164:340,1,75,2|2,0:0|0:0,0:0:0:0:
242,299,31252,1,2,0:0:0:0:
242,299,31467,2,0,L|327:313,1,75,4|2,3:0|0:0,0:0:0:0:
407,271,32110,1,10,0:0:0:0:
407,271,32325,2,0,L|511:255,1,100,2|8,0:0|0:0,0:0:0:0:
438,144,33181,38,0,P|341:159|226:189,1,200,4|2,3:0|0:0,0:0:0:0:
187,218,34252,1,4,3:0:0:0:
74,153,34681,1,2,0:0:0:0:
74,153,34895,2,0,P|49:97|117:41,1,150,4|10,3:0|0:0,0:0:0:0:
167,60,35752,1,2,0:0:0:0:
167,60,35967,2,0,L|230:53,1,50,2|10,0:3|0:0,0:0:0:0:
280,32,36395,1,2,0:0:0:0:
280,32,36610,5,6,1:0:0:0:
388,104,37038,2,0,L|381:157,1,50,0|0,1:0|0:0,0:0:0:0:
337,201,37467,2,0,L|351:318,1,100,2|0,1:1|1:0,0:0:0:0:
246,376,38324,5,2,1:0:0:0:
246,376,38538,1,2,0:1:0:0:
246,376,38752,2,0,L|127:358,1,100,2|8,1:0|1:3,0:0:0:0:
79,250,39610,2,0,L|69:179,1,50,0|2,1:0|0:1,0:0:0:0:
39,144,40038,5,0,1:0:0:0:
116,39,40467,2,0,B|171:23|171:23|221:57,1,100,0|0,1:0|1:0,0:0:0:0:
258,95,41110,1,0,0:0:0:0:
258,95,41324,2,0,L|313:89,1,50,0|2,1:0|0:1,0:0:0:0:
372,83,41752,6,0,L|366:193,1,100,2|2,1:0|1:0,0:0:0:0:
462,270,42610,2,0,L|530:265,2,50,0|0|2,1:0|0:0|1:0,0:0:0:0:
389,378,43467,2,0,L|272:363,1,100,0|2,1:0|1:0,0:0:0:0:
224,252,44324,2,0,L|237:144,1,100,0|0,1:0|1:0,0:0:0:0:
205,101,44967,1,2,0:1:0:0:
205,101,45181,38,0,L|140:92,1,50,0|0,1:0|1:0,0:0:0:0:
115,42,45610,2,0,L|50:33,1,50,0|0,1:0|1:0,0:0:0:0:
5,59,46038,2,0,B|-37:168|90:147|37:260,1,200,8|2,1:0|0:1,0:0:0:0:
183,378,47538,5,2,0:0:0:0:
183,378,47752,2,0,L|269:359,2,75,6|2|2,0:0|0:0|0:0,0:0:0:0:
123,351,48610,6,0,P|78:309|88:215,1,150,6|10,1:0|0:0,0:0:0:0:
135,189,49467,1,2,1:2:0:0:
253,136,49895,2,0,P|255:107|247:70,1,50,8|2,1:0|0:0,0:0:0:0:
299,41,50324,2,0,B|378:27|364:96|449:96,1,150,2|10,1:2|0:2,0:0:0:0:
488,62,51181,5,2,1:2:0:0:
509,190,51610,2,0,P|494:233|492:258,1,50,8|8,1:0|1:0,0:0:0:0:
430,251,52038,2,0,P|366:252|308:329,1,150,2|10,1:2|0:2,0:0:0:0:
325,376,52895,1,2,1:2:0:0:
196,355,53324,2,0,L|138:364,1,50,8|2,1:0|0:0,0:0:0:0:
85,384,53752,2,0,P|43:356|48:254,1,150,8|10,1:0|0:2,0:0:0:0:
76,209,54610,5,2,1:2:0:0:
4,100,55038,2,0,P|8:79|-1:40,1,50,8|8,1:0|1:0,0:0:0:0:
60,19,55467,2,0,P|132:11|230:-6,1,150,2|10,1:2|0:2,0:0:0:0:
266,27,56324,1,2,1:2:0:0:
360,115,56752,2,0,P|351:164|350:180,1,50,8|2,1:0|0:0,0:0:0:0:
294,197,57181,2,0,B|216:174|221:242|144:217,1,150,2|10,1:2|0:2,0:0:0:0:
99,179,58038,38,0,L|114:88,2,75,2|2|8,1:2|0:0|1:0,0:0:0:0:
33,291,59110,1,10,0:0:0:0:
33,291,59324,2,0,B|152:276|89:365|218:353,1,200,0|10,1:0|1:0,0:0:0:0:
261,233,60610,2,0,L|254:141,2,75,2|2|8,1:0|0:0|0:0,0:0:0:0:
306,279,61467,6,0,B|387:293|357:221|444:236,1,150,0|8,1:0|3:0,0:0:0:0:
504,248,62324,1,6,1:0:0:0:
480,130,62752,1,0,1:2:0:0:
480,130,62967,1,10,0:0:0:0:
480,130,63181,2,0,P|468:81|505:30,1,100,2|8,1:2|1:0,0:0:0:0:
443,4,63824,1,2,0:0:0:0:
443,4,64038,2,0,L|334:16,1,100,2|2,1:2|1:2,0:0:0:0:
234,85,64895,6,0,P|234:144|258:195,1,100,2|8,1:2|1:0,0:0:0:0:
283,243,65538,1,8,1:0:0:0:
283,243,65752,2,0,P|235:222|175:242,1,100,2|0,1:2|1:0,0:0:0:0:
146,279,66395,1,10,0:2:0:0:
146,279,66610,1,0,1:0:0:0:
32,216,67038,2,0,P|27:186|38:156,1,50,10|2,1:0|0:0,0:0:0:0:
63,110,67467,2,0,L|169:88,1,100,10|2,1:2|1:2,0:0:0:0:
214,51,68110,5,10,0:2:0:0:
214,51,68324,1,2,1:2:0:0:
305,145,68752,2,0,P|304:174|293:212,1,50,8|8,1:0|1:0,0:0:0:0:
242,226,69181,2,0,P|206:207|138:219,1,100,2|2,1:2|1:2,0:0:0:0:
91,239,69824,1,10,0:2:0:0:
91,239,70038,6,0,L|77:154,2,75,2|2|2,1:2|0:0|0:0,0:0:0:0:
52,291,70895,1,2,1:2:0:0:
156,369,71324,2,0,L|218:360,1,50,2|10,1:2|0:2,0:0:0:0:
262,330,71752,2,0,P|336:343|384:281,1,150,8|8,1:0|1:0,0:0:0:0:
433,251,72610,37,4,0:0:0:0:
256,192,73252,12,10,76038,0:0:0:0:
36,188,82895,86,0,P|25:257|92:318,1,150,10|10,3:2|3:2,0:0:0:0:
114,365,83752,2,0,P|183:375|244:308,1,150,10|10,3:2|3:2,0:0:0:0:
304,314,84610,2,0,P|314:244|247:183,1,150,10|10,3:2|3:2,0:0:0:0:
218,141,85467,85,10,3:2:0:0:
218,141,85681,2,0,L|155:121,1,50,10|10,0:0|0:2,0:0:0:0:
136,76,86110,1,10,0:2:0:0:
136,76,86324,1,10,0:2:0:0:
452,2,87395,6,0,P|449:55|417:98,1,100,10|8,0:0|3:0,0:0:0:0:
362,117,88038,2,0,P|310:91|280:92,2,75,6|0|0,3:2|1:0|1:0,0:0:0:0:
387,176,88895,1,0,1:0:0:0:
421,311,89324,85,8,1:0:0:0:
421,311,89538,1,8,1:0:0:0:
421,311,89752,2,0,B|378:340|378:340|326:319,1,100,6|8,3:1|1:0,0:0:0:0:
204,301,90610,2,0,B|159:282|159:282|116:311,1,100,0|8,3:0|1:0,0:0:0:0:
62,344,91252,1,2,3:1:0:0:
62,344,91467,6,0,L|42:236,1,100,2|8,3:1|1:0,0:0:0:0:
0,197,92110,2,0,L|13:144,1,50,2|0,3:1|3:0,0:0:0:0:
26,85,92538,1,10,0:0:0:0:
155,124,92967,1,10,0:0:0:0:
155,124,93181,86,0,B|198:95|198:95|250:116,1,100,2|8,3:1|1:0,0:0:0:0:
288,152,93824,1,2,3:1:0:0:
288,152,94039,2,0,B|332:170|332:170|375:141,1,100,0|8,3:0|1:0,0:0:0:0:
423,97,94681,1,2,3:1:0:0:
423,97,94895,6,0,L|436:199,1,100,2|8,3:1|1:0,0:0:0:0:
417,328,95752,1,2,3:1:0:0:
417,328,95967,1,10,0:0:0:0:
290,325,96395,1,10,0:0:0:0:
290,325,96610,86,0,L|275:214,1,100,2|8,3:1|1:0,0:0:0:0:
234,176,97252,1,2,3:2:0:0:
234,176,97467,2,0,L|241:116,1,50,2|2,3:2|0:2,0:0:0:0:
274,71,97895,1,8,1:0:0:0:
151,26,98324,6,0,L|39:52,1,100,2|8,3:2|1:0,0:0:0:0:
8,96,98967,1,2,3:2:0:0:
8,96,99181,2,0,L|21:161,1,50,2|10,3:2|0:0,0:0:0:0:
73,178,99610,2,0,L|86:243,1,50,10|10,0:2|0:0,0:0:0:0:
51,283,100038,1,0,3:0:0:0:
145,372,100467,86,0,L|207:362,1,50,8|2,1:0|3:2,0:0:0:0:
232,311,100895,2,0,L|294:301,1,50,2|2,3:2|0:2,0:0:0:0:
336,337,101324,1,8,1:0:0:0:
447,270,101752,6,0,L|473:158,1,100,2|8,3:2|1:0,0:0:0:0:
439,121,102395,1,2,3:2:0:0:
439,121,102609,2,0,L|374:108,1,50,0|10,3:0|0:0,0:0:0:0:
353,57,103038,2,0,L|288:44,1,50,10|10,0:2|0:0,0:0:0:0:
258,0,103467,85,10,0:1:0:0:
18,56,110324,6,0,B|61:36|61:36|113:67,1,100,6|8,3:1|1:0,0:0:0:0:
159,110,110967,1,2,3:1:0:0:
159,110,111181,2,0,L|209:104,1,50,2|0,3:1|0:0,0:0:0:0:
261,65,111609,1,8,1:0:0:0:
371,133,112038,86,0,B|388:180|388:180|363:240,1,100,2|8,3:1|1:0,0:0:0:0:
315,261,112681,1,2,3:1:0:0:
315,261,112895,2,0,L|265:255,1,50,2|0,3:1|0:0,0:0:0:0:
213,215,113324,1,8,1:0:0:0:
117,302,113752,6,0,P|97:338|48:359,2,75,2|2|2,3:1|3:1|3:1,0:0:0:0:
74,251,114610,2,0,P|38:272|-14:265,2,75,2|2|2,3:1|3:1|3:1,0:0:0:0:
107,195,115467,86,0,B|235:176|178:254|302:237,1,200,2|8,3:1|3:2,0:0:0:0:
449,153,117181,6,0,B|469:104|469:104|450:41,1,100,6|8,3:1|1:0,0:0:0:0:
411,18,117824,1,2,3:1:0:0:
411,18,118038,2,0,L|355:20,1,50,2|0,3:1|0:0,0:0:0:0:
310,61,118467,1,8,1:0:0:0:
365,178,118895,86,0,B|385:227|385:227|366:290,1,100,2|8,3:1|1:0,0:0:0:0:
327,313,119538,1,2,3:1:0:0:
327,313,119752,2,0,L|271:311,1,50,2|0,3:1|0:0,0:0:0:0:
226,270,120181,1,8,1:0:0:0:
140,171,120610,6,0,P|108:145|56:145,2,75,2|2|2,3:1|3:1|3:1,0:0:0:0:
188,126,121467,2,0,P|173:87|128:61,2,75,2|2|2,3:1|3:1|3:1,0:0:0:0:
252,135,122324,2,0,B|279:102|279:102|273:47,2,78.7499975967408,6|6|6,3:1|3:1|3:1,0:0:0:0:
500,310,124038,6,0,L|509:396,2,75,6|0|0,3:2|3:0|3:0,0:0:0:0:
486,180,125110,1,0,3:0:0:0:
486,180,125324,1,8,1:0:0:0:
388,265,125752,2,0,L|374:350,2,75,2|0|0,3:2|3:0|3:0,0:0:0:0:
408,136,126824,1,0,3:0:0:0:
408,136,127038,2,0,L|415:71,1,50,8|8,1:0|1:0,0:0:0:0:
420,21,127467,6,0,B|500:11,2,75,2|2|2,3:2|3:2|3:2,0:0:0:0:
294,36,128538,1,0,3:0:0:0:
294,36,128752,1,8,1:0:0:0:
351,152,129181,2,0,B|430:163,2,75,2|0|0,3:2|3:0|3:0,0:0:0:0:
226,137,130252,1,0,3:0:0:0:
226,137,130467,2,0,L|159:127,1,50,8|8,1:0|1:0,0:0:0:0:
112,120,130895,6,0,L|103:29,2,75,2|0|2,3:2|3:0|3:2,0:0:0:0:
125,249,131967,1,0,3:0:0:0:
125,249,132181,1,8,1:0:0:0:
13,182,132610,2,0,L|27:91,2,75,2|0|0,3:2|3:0|3:0,0:0:0:0:
0,316,133682,1,0,3:0:0:0:
0,316,133895,2,0,L|65:327,1,50,8|8,1:0|1:0,0:0:0:0:
113,335,134324,6,0,L|97:244,2,75,0|0|0,3:0|3:0|3:0,0:0:0:0:
238,384,135395,1,0,3:0:0:0:
238,384,135610,1,10,1:0:0:0:
357,332,136038,2,0,L|373:241,2,75,0|0|0,3:0|3:0|3:0,0:0:0:0:
406,374,136895,2,0,P|479:359|486:280,1,150,8|8,3:0|3:0,0:0:0:0:
464,234,137752,6,0,P|447:190|465:127,1,100,6|2,1:0|1:2,0:0:0:0:
492,86,138395,1,10,0:0:0:0:
492,86,138610,1,2,1:2:0:0:
387,10,139037,2,0,P|355:6|321:16,1,50,8|2,1:0|0:0,0:0:0:0:
294,57,139466,2,0,B|259:138|326:132|291:214,1,150,2|10,1:2|0:2,0:0:0:0:
260,256,140324,37,2,1:2:0:0:
147,312,140752,1,8,1:0:0:0:
147,312,140967,1,8,1:0:0:0:
147,312,141181,2,0,P|135:352|143:389,2,75,2|2|8,1:2|0:0|0:2,0:0:0:0:
127,249,142038,1,0,1:0:0:0:
11,217,142467,1,8,1:0:0:0:
11,217,142681,1,8,1:0:0:0:
11,217,142895,2,0,P|1:161|44:73,1,150,10|10,1:2|0:2,0:0:0:0:
98,53,143752,5,2,1:2:0:0:
210,118,144180,2,0,P|236:124|270:123,1,50,0|8,1:0|1:0,0:0:0:0:
322,108,144610,2,0,P|314:182|301:256,1,150,2|10,1:2|0:2,0:0:0:0:
277,317,145467,1,2,1:2:0:0:
158,368,145894,2,0,P|133:364|108:358,1,50,8|2,1:0|0:0,0:0:0:0:
56,319,146324,1,2,1:2:0:0:
1,138,146967,5,10,0:2:0:0:
1,138,147181,2,0,P|15:98|23:45,2,75,12|8|8,1:0|1:0|1:0,0:0:0:0:
41,197,148038,1,6,1:0:0:0:
41,197,148252,1,2,0:0:0:0:
166,161,148681,1,8,1:2:0:0:
225,188,148895,1,0,1:0:0:0:
340,127,149324,1,8,1:0:0:0:
396,160,149538,1,2,0:0:0:0:
452,126,149752,2,0,P|450:101|423:27,1,100,2|2,1:2|1:2,0:0:0:0:
363,10,150395,5,10,0:2:0:0:
299,9,150609,2,0,P|246:17|190:51,1,100,2|0,1:2|1:0,0:0:0:0:
109,125,151467,2,0,P|79:112|55:64,2,75,2|2|10,1:2|0:0|0:2,0:0:0:0:
84,185,152324,2,0,P|52:189|7:159,2,75,2|2|2,1:2|0:0|0:0,0:0:0:0:
112,244,153181,2,0,B|199:232|172:301|249:295,1,150,10|10,1:2|0:2,0:0:0:0:
303,264,154038,5,2,1:2:0:0:
430,292,154467,1,8,1:0:0:0:
482,252,154681,1,8,1:0:0:0:
462,190,154895,2,0,P|457:143|469:77,1,100,2|2,1:2|1:2,0:0:0:0:
362,11,155752,2,0,P|313:15|264:8,1,100,2|8,1:2|1:0,0:0:0:0:
202,30,156395,1,2,0:0:0:0:
151,70,156610,2,0,B|139:100|139:100|150:141,2,75,2|0|8,1:2|1:0|1:0,0:0:0:0:
97,33,157467,38,0,P|43:55|22:149,1,150,8|8,1:0|1:0,0:0:0:0:
43,197,158324,1,6,1:2:0:0:
158,246,158752,1,2,1:2:0:0:
158,246,158967,1,2,1:2:0:0:
158,246,159181,1,2,1:2:0:0:
265,170,159610,6,0,B|248:120|248:120|278:62,1,100,8|2,1:0|1:2,0:0:0:0:
392,33,160467,1,2,1:2:0:0:
496,110,160895,1,2,1:2:0:0:
464,235,161324,2,0,L|450:295,1,50,12|8,1:0|1:0,0:0:0:0:
416,336,161752,6,0,B|369:359|369:359|316:329,1,100,2|2,1:2|1:2,0:0:0:0:
225,255,162610,1,2,1:2:0:0:
141,353,163038,2,0,L|92:358,1,50,8|2,1:0|0:0,0:0:0:0:
27,364,163467,6,0,B|8:318|8:318|24:259,1,100,2|2,1:2|1:2,0:0:0:0:
62,218,164110,1,2,1:2:0:0:
62,218,164324,2,0,L|70:145,1,50,2|2,1:2|0:2,0:0:0:0:
106,115,164752,2,0,L|114:42,1,50,8|8,1:0|1:0,0:0:0:0:
159,20,165181,5,2,1:2:0:0:
287,43,165610,1,2,1:2:0:0:
287,43,165824,1,2,1:2:0:0:
287,43,166038,1,2,1:2:0:0:
334,164,166467,2,0,L|322:231,1,50,8|0,1:0|0:0,0:0:0:0:
361,267,166895,38,0,B|407:291|407:291|465:263,1,100,2|2,1:2|1:2,0:0:0:0:
508,153,167752,1,2,1:2:0:0:
409,69,168181,1,8,1:0:0:0:
409,69,168395,1,8,1:0:0:0:
409,69,168610,6,0,B|364:96|364:96|307:77,1,100,2|2,1:2|1:2,0:0:0:0:
199,131,169467,2,0,L|209:200,1,50,2|2,1:2|0:2,0:0:0:0:
160,225,169895,2,0,L|170:294,1,50,8|2,1:0|0:0,0:0:0:0:
208,325,170324,6,0,B|255:306|255:306|305:334,1,100,2|2,1:2|1:2,0:0:0:0:
424,363,171181,2,0,L|429:307,1,50,8|8,1:0|1:0,0:0:0:0:
478,270,171610,2,0,L|483:214,1,50,0|8,1:0|1:0,0:0:0:0:
488,155,172038,5,2,1:2:0:0:
371,211,172467,1,2,1:2:0:0:
262,141,172895,1,2,1:2:0:0:
147,200,173324,2,0,L|86:193,1,50,8|2,1:0|0:0,0:0:0:0:
33,188,173752,6,0,B|18:144|18:144|41:86,1,100,2|2,1:2|1:2,0:0:0:0:
149,25,174610,2,0,L|205:19,1,50,2|2,1:2|0:2,0:0:0:0:
259,45,175038,2,0,L|315:39,1,50,8|8,1:0|1:0,0:0:0:0:
366,70,175467,37,2,1:2:0:0:
382,198,175895,1,2,1:2:0:0:
293,292,176324,1,2,1:2:0:0:
166,269,176752,2,0,L|172:219,1,50,8|2,1:0|0:0,0:0:0:0:
122,177,177181,6,0,P|75:173|20:197,1,100,2|2,1:2|1:2,0:0:0:0:
9,320,178038,2,0,L|67:313,1,50,2|2,1:2|0:2,0:0:0:0:
113,350,178467,2,0,L|179:343,1,50,8|8,1:0|1:0,0:0:0:0:
218,380,178895,5,2,1:2:0:0:
316,294,179324,1,2,1:2:0:0:
441,329,179752,2,0,L|450:264,1,50,2|2,1:2|0:2,0:0:0:0:
489,228,180181,2,0,L|498:163,1,50,8|2,1:0|0:0,0:0:0:0:
448,134,180610,6,0,B|398:124|398:124|355:158,1,100,2|2,1:2|1:2,0:0:0:0:
256,232,181467,2,0,L|191:223,1,50,2|2,1:2|0:2,0:0:0:0:
166,174,181896,2,0,L|101:165,1,50,8|2,1:0|0:0,0:0:0:0:
68,124,182324,5,6,0:2:0:0:
256,192,182752,12,2,185324,0:0:0:0:
