osu file format v14

[General]
AudioFilename: audio.mp3
AudioLeadIn: 0
PreviewTime: 47538
Countdown: 0
SampleSet: Soft
StackLeniency: 0.9
Mode: 0
LetterboxInBreaks: 0
EpilepsyWarning: 1
WidescreenStoryboard: 1

[Editor]
Bookmarks: 36415,46700,76038,86129,114502,120610,124038,137752,148038,160038
DistanceSpacing: 1.3
BeatDivisor: 4
GridSize: 16
TimelineZoom: 2.1

[Metadata]
Title:Tsuitachi no Nie
TitleUnicode:朔の贄
Artist:BIN
ArtistUnicode:BIN
Creator:Arsalan
Version:Insane
Source:贄姫と獣の王
Tags:japanese anime opening full ver version jpop j-pop pop niehime to kemono no ou nascent sacrifice sacrificial princess and the king of beasts Cutejohnfan R3aCt10n yama
BeatmapID:4107656
BeatmapSetID:1978556

[Difficulty]
HPDrainRate:5
CircleSize:4
OverallDifficulty:8
ApproachRate:9
SliderMultiplier:1.6
SliderTickRate:1

[Events]
//Background and Video events
0,0,"ED.png",0,0
//Break Periods
//Storyboard Layer 0 (Background)
//Storyboard Layer 1 (Fail)
//Storyboard Layer 2 (Pass)
//Storyboard Layer 3 (Foreground)
//Storyboard Layer 4 (Overlay)
//Storyboard Sound Samples

[TimingPoints]
610,428.571428571429,4,2,2,60,1,0
2324,-133.333333333333,4,2,2,60,0,0
9181,-125,4,2,2,40,0,0
22895,-100,4,2,2,55,0,0
36610,-90.9090909090909,4,2,1,60,0,0
46895,-166.666666666667,4,2,1,35,0,0
47538,-125,4,2,1,50,0,0
48610,-90.9090909090909,4,2,1,65,0,1
62324,-83.3333333333333,4,2,1,65,0,1
72610,-133.333333333333,4,2,1,45,0,0
76038,-52.6315789473684,4,2,1,45,0,0
78610,-100,4,2,1,55,0,0
89752,-52.6315789473684,4,2,1,60,0,0
103467,-62.5,4,2,3,50,0,0
108610,-62.5,4,2,1,30,0,0
110324,-52.6315789473684,4,2,1,60,0,0
123181,-76.9230769230769,4,2,1,55,0,0
124038,-71.4285714285714,4,2,1,60,0,1
136895,-71.4285714285714,4,2,1,60,0,0
137752,-66.6666666666667,4,2,1,70,0,1
158324,-58.8235294117647,4,2,1,65,0,0

[Colours]
Combo1 : 209,14,14
Combo2 : 227,210,187
Combo3 : 156,136,141
Combo4 : 166,189,201
Combo5 : 121,170,209
Combo6 : 82,102,141
Combo7 : 255,91,91

[HitObjects]
63,71,2324,6,0,P|53:128|44:199,1,119.999996337891,4|2,3:0|0:0,0:0:0:0:
44,189,2967,1,8,0:0:0:0:
205,171,3610,1,2,0:3:0:0:
205,171,3824,1,0,0:0:0:0:
264,118,4038,6,0,P|254:175|245:246,1,119.999996337891,4|2,3:0|0:3,0:0:0:0:
245,236,4681,1,8,0:0:0:0:
401,225,5110,1,8,0:0:0:0:
485,249,5324,1,2,0:3:0:0:
472,175,5538,1,2,0:0:0:0:
472,175,5645,1,2,0:0:0:0:
472,175,5752,6,0,P|462:232|453:303,1,119.999996337891,4|2,3:0|0:0,0:0:0:0:
453,293,6395,1,8,0:0:0:0:
286,364,6824,1,8,0:0:0:0:
201,344,7038,1,2,0:3:0:0:
262,289,7252,1,2,0:3:0:0:
345,300,7467,6,0,P|352:240|362:181,1,119.999996337891,4|2,3:0|0:0,0:0:0:0:
361,181,8110,1,8,0:0:0:0:
286,20,8538,1,8,0:0:0:0:
201,40,8752,1,2,0:3:0:0:
262,95,8967,1,2,0:0:0:0:
262,95,9074,1,2,0:0:0:0:
262,95,9181,6,0,P|202:104|158:166,1,128,2|2,0:0|0:0,0:0:0:0:
161,153,9824,1,2,0:0:0:0:
94,75,10038,2,0,P|13:61|-23:62,2,96,2|2|2,0:0|0:0|0:0,0:0:0:0:
94,75,10895,37,2,0:0:0:0:
0,215,11324,1,2,0:0:0:0:
0,215,11538,1,2,0:0:0:0:
31,305,11752,1,2,0:0:0:0:
122,274,11967,1,2,0:0:0:0:
90,183,12181,2,0,L|176:198,1,64,2|2,0:0|0:0,0:0:0:0:
227,140,12610,6,0,P|191:187|267:286,1,192,2|2,0:0|0:0,0:0:0:0:
361,351,13467,2,0,P|445:335|464:338,2,96,2|2|2,0:0|0:0|0:0,0:0:0:0:
361,351,14324,5,2,0:0:0:0:
324,228,14752,1,2,0:0:0:0:
414,260,14967,1,2,0:0:0:0:
355,138,15181,1,2,0:0:0:0:
446,169,15395,1,2,0:0:0:0:
355,138,15610,2,0,L|373:74,1,64,2|2,0:0|0:0,0:0:0:0:
311,17,16038,6,0,P|258:17|224:87,1,128,2|0,0:0|0:0,0:0:0:0:
222,76,16681,1,2,0:0:0:0:
222,76,16895,1,2,0:0:0:0:
142,238,17217,5,2,0:0:0:0:
17,140,17538,37,2,0:0:0:0:
17,140,17752,1,2,0:0:0:0:
219,195,18074,6,0,P|269:196|310:161,1,96,2|2,0:0|0:0,0:0:0:0:
380,109,18610,2,0,L|403:229,1,96,2|2,0:0|0:0,0:0:0:0:
512,322,19252,5,2,0:0:0:0:
512,322,19360,1,2,0:0:0:0:
512,322,19467,1,2,0:0:0:0:
384,376,19788,5,2,0:0:0:0:
290,269,20110,1,2,0:0:0:0:
214,286,20324,1,2,0:0:0:0:
361,194,20645,5,2,0:0:0:0:
512,322,20967,1,2,0:0:0:0:
472,242,21181,38,0,L|414:233,1,32,2|0,0:0|0:0,0:0:0:0:
370,279,21395,1,2,0:0:0:0:
357,289,21502,2,0,L|299:280,1,32,2|0,0:0|0:0,0:0:0:0:
253,317,21717,1,2,0:0:0:0:
241,329,21824,1,2,0:0:0:0:
229,340,21931,1,2,0:0:0:0:
219,350,22038,2,0,L|163:343,1,32,2|0,0:0|0:0,0:0:0:0:
113,372,22252,1,2,0:0:0:0:
101,381,22360,2,0,L|11:370,1,64,2|0,0:0|0:0,0:0:0:0:
0,270,22681,5,2,0:0:0:0:
0,270,22788,1,2,0:0:0:0:
0,270,22895,2,0,P|73:269|112:175,1,160,6|0,3:0|0:0,0:0:0:0:
134,194,23431,1,2,0:0:0:0:
153,189,23538,1,2,0:0:0:0:
173,185,23645,1,2,0:0:0:0:
192,180,23752,1,2,0:0:0:0:
67,86,23967,1,4,3:0:0:0:
52,100,24074,2,0,L|-7:88,1,40,2|0,0:0|0:0,0:0:0:0:
138,7,24395,5,2,0:0:0:0:
177,14,24502,1,0,0:0:0:0:
216,21,24609,1,4,3:0:0:0:
328,134,24824,1,2,0:0:0:0:
349,129,24931,1,2,0:0:0:0:
408,26,25145,1,2,0:0:0:0:
389,21,25252,1,10,0:0:0:0:
369,17,25360,1,2,0:0:0:0:
349,13,25467,1,2,0:0:0:0:
236,117,25681,2,0,L|227:156,1,40,2|2,0:3|0:0,0:0:0:0:
250,193,25895,1,8,0:0:0:0:
331,268,26110,5,10,0:0:0:0:
455,236,26324,1,4,3:0:0:0:
312,288,26538,1,2,0:0:0:0:
291,283,26645,1,2,0:0:0:0:
148,189,26860,1,2,0:0:0:0:
129,194,26967,1,2,0:0:0:0:
109,198,27074,1,2,0:0:0:0:
88,202,27181,6,0,L|76:286,1,80,2|4,0:0|3:0,0:0:0:0:
40,362,27502,2,0,L|51:282,1,80,2|0,0:0|0:0,0:0:0:0:
144,340,27824,2,0,L|222:371,1,80,2|4,0:0|3:0,0:0:0:0:
356,290,28467,37,2,0:0:0:0:
478,349,28681,1,10,0:0:0:0:
478,349,28788,1,0,0:0:0:0:
478,349,28895,1,2,0:0:0:0:
387,380,29110,1,2,0:3:0:0:
446,258,29324,1,10,0:0:0:0:
319,209,29538,1,10,0:0:0:0:
319,209,29645,1,10,0:0:0:0:
319,209,29752,6,0,B|221:186|253:274|144:229,1,160,4|0,3:0|0:0,0:0:0:0:
64,170,30395,1,2,0:0:0:0:
40,164,30610,2,0,L|58:76,1,80,2|4,0:0|3:0,0:0:0:0:
9,8,30931,2,0,L|27:96,1,80,2|0,0:0|0:0,0:0:0:0:
112,28,31252,1,2,0:0:0:0:
112,28,31360,1,0,0:0:0:0:
112,28,31467,6,0,B|151:29|151:29|204:3,1,80,4|0,3:0|0:0,0:0:0:0:
269,86,31788,2,0,B|230:85|230:85|193:103,1,80,2|0,0:0|0:0,0:0:0:0:
170,182,32110,1,10,0:0:0:0:
251,226,32324,1,2,0:0:0:0:
321,165,32538,1,2,0:3:0:0:
321,165,32645,1,2,0:3:0:0:
321,165,32752,2,0,B|360:164|360:164|397:182,1,80,8|10,0:0|0:0,0:0:0:0:
461,300,33181,6,0,P|393:284|318:273,2,120,4|2|2,3:0|0:0|0:0,0:0:0:0:
322,358,34038,1,2,0:0:0:0:
282,349,34145,1,0,0:0:0:0:
243,340,34252,1,4,3:0:0:0:
204,332,34360,2,0,L|155:319,1,40,2|0,0:0|0:0,0:0:0:0:
104,224,34681,5,2,0:0:0:0:
0,262,34895,1,4,3:0:0:0:
63,358,35110,1,2,0:0:0:0:
63,358,35217,1,2,0:0:0:0:
63,358,35324,1,0,0:0:0:0:
127,214,35538,37,10,0:0:0:0:
204,155,35752,1,2,0:0:0:0:
31,87,35967,1,2,0:3:0:0:
42,172,36181,1,10,0:0:0:0:
185,70,36395,1,8,0:0:0:0:
185,70,36502,1,8,0:0:0:0:
185,70,36610,6,0,L|91:27,1,88.000002685547,6|0,1:0|0:0,0:0:0:0:
279,45,37038,2,0,L|373:2,1,88.000002685547,0|0,1:0|0:0,0:0:0:0:
245,152,37467,1,2,1:1:0:0:
291,233,37681,1,2,0:1:0:0:
341,161,37895,1,0,1:0:0:0:
199,227,38110,1,2,0:1:0:0:
279,358,38324,5,2,1:0:0:0:
418,297,38538,1,2,0:1:0:0:
268,374,38752,2,0,L|189:347,1,44.0000013427735,2|0,1:0|0:0,0:0:0:0:
135,338,38967,1,8,3:0:0:0:
118,345,39074,1,8,3:0:0:0:
102,352,39181,1,8,1:3:0:0:
88,358,39288,1,8,3:0:0:0:
201,277,39502,1,8,3:0:0:0:
201,277,39610,2,0,L|223:183,1,88.000002685547,0|2,1:0|0:1,0:0:0:0:
332,35,40038,5,2,1:0:0:0:
484,77,40252,1,2,0:1:0:0:
348,61,40467,2,0,L|357:125,1,44.0000013427735,2|0,1:0|0:0,0:0:0:0:
464,180,40681,1,2,0:1:0:0:
464,180,40788,2,0,L|424:164,1,44.0000013427735,2|0,0:1|1:0,0:0:0:0:
303,220,41002,1,2,0:1:0:0:
303,220,41110,2,0,L|338:193,1,44.0000013427735,2|0,0:1|0:0,0:0:0:0:
268,120,41324,2,0,B|237:105|237:105|166:121,1,88.000002685547,2|2,1:0|0:1,0:0:0:0:
21,195,41752,5,2,1:0:0:0:
81,334,41967,1,2,0:1:0:0:
62,224,42181,2,0,L|101:249,1,44.0000013427735,2|0,1:0|0:0,0:0:0:0:
200,282,42395,1,2,0:1:0:0:
200,282,42502,2,0,L|158:303,1,44.0000013427735,2|0,0:1|1:0,0:0:0:0:
213,371,42717,1,2,0:1:0:0:
257,350,42824,1,2,0:1:0:0:
297,380,42931,1,0,0:0:0:0:
341,359,43038,2,0,L|442:336,1,88.000002685547,2|2,1:0|0:1,0:0:0:0:
492,206,43467,37,0,1:0:0:0:
313,144,43681,1,2,0:1:0:0:
475,178,43895,2,0,L|469:127,1,44.0000013427735,2|0,1:0|0:0,0:0:0:0:
364,219,44110,1,0,0:0:0:0:
364,219,44217,2,0,L|411:239,1,44.0000013427735,2|0,0:1|1:0,0:0:0:0:
388,101,44431,1,2,0:1:0:0:
388,101,44538,2,0,L|346:131,1,44.0000013427735
265,177,44752,1,0,1:0:0:0:
98,106,44967,1,2,0:1:0:0:
244,141,45181,6,0,L|251:97,1,44.0000013427735,0|0,1:0|0:0,0:0:0:0:
165,189,45395,6,0,L|172:145,1,44.0000013427735,0|0,1:0|0:0,0:0:0:0:
83,228,45610,6,0,L|90:184,1,44.0000013427735,0|0,1:0|0:0,0:0:0:0:
0,269,45824,6,0,L|7:225,1,44.0000013427735,0|0,1:0|0:0,0:0:0:0:
76,341,46038,37,12,1:0:0:0:
129,320,46146,1,8,1:0:0:0:
185,302,46253,1,8,1:0:0:0:
242,283,46360,1,8,1:0:0:0:
277,315,46467,5,2,1:0:0:0:
319,329,46574,1,2,1:0:0:0:
361,342,46681,1,2,1:0:0:0:
401,358,46788,1,2,1:0:0:0:
440,370,46895,6,0,L|456:270,1,95.9999970703126,2|0,0:1|0:0,0:0:0:0:
512,132,47538,5,2,0:0:0:0:
512,132,47752,2,0,P|462:151|398:155,2,96,6|2|2,0:0|0:0|0:0,0:0:0:0:
343,0,48610,6,0,P|290:31|292:111,1,132.00000402832,6|2,1:0|0:0,0:0:0:0:
317,134,49038,1,0,1:2:0:0:
454,51,49252,1,10,0:0:0:0:
317,134,49467,2,0,P|302:175|302:227,1,88.000002685547,2|2,1:2|0:0,0:0:0:0:
330,251,49788,1,2,0:0:0:0:
330,251,49895,1,8,1:0:0:0:
143,283,50110,37,2,0:0:0:0:
178,276,50217,1,8,1:0:0:0:
213,268,50324,2,0,B|237:298|248:327|248:327|246:356|225:385,1,132.00000402832,2|0,1:2|0:0,0:0:0:0:
182,379,50752,1,2,1:2:0:0:
72,358,50967,1,10,0:2:0:0:
16,235,51181,2,0,B|91:243|61:179|149:193,1,132.00000402832,2|2,1:2|0:0,0:0:0:0:
179,198,51610,1,8,1:0:0:0:
52,53,51824,5,8,1:0:0:0:
44,85,51931,1,8,1:0:0:0:
84,112,52038,2,0,P|136:103|194:113,1,88.000002685547,2|0,1:2|0:2,0:0:0:0:
219,126,52360,1,2,0:0:0:0:
219,126,52467,1,2,1:2:0:0:
330,24,52681,1,10,0:2:0:0:
242,10,52895,1,2,1:2:0:0:
242,10,53002,1,2,0:0:0:0:
301,140,53217,1,2,0:0:0:0:
306,155,53324,2,0,B|344:167|344:167|398:127,1,88.000002685547,8|2,1:0|0:0,0:0:0:0:
429,66,53645,5,8,1:0:0:0:
429,66,53752,2,0,B|423:114|423:114|445:143|445:143|439:197,1,132.00000402832,8|0,1:0|0:0,0:0:0:0:
434,231,54181,1,2,1:2:0:0:
282,280,54395,1,10,0:2:0:0:
393,377,54610,1,2,1:2:0:0:
370,296,54824,1,10,0:2:0:0:
300,365,55038,2,0,L|227:353,1,44.0000013427735,8|0,1:0|0:0,0:0:0:0:
136,302,55252,5,8,1:0:0:0:
159,308,55360,1,8,1:0:0:0:
193,296,55467,2,0,P|207:262|192:160,1,132.00000402832,8|0,1:0|0:0,0:0:0:0:
157,136,55895,1,2,1:2:0:0:
177,47,56110,5,10,0:2:0:0:
246,110,56324,1,2,1:2:0:0:
246,110,56431,1,2,0:0:0:0:
97,77,56645,1,2,0:0:0:0:
87,67,56752,2,0,B|46:93|46:93|41:159,1,88.000002685547,8|2,1:0|0:0,0:0:0:0:
12,173,57074,37,8,1:0:0:0:
12,173,57181,2,0,B|61:169|77:199|77:199|88:227|140:226,1,132.00000402832,2|0,1:2|0:0,0:0:0:0:
170,204,57610,1,2,1:2:0:0:
33,272,57824,1,10,0:2:0:0:
126,377,58038,2,0,B|172:365|172:365|208:376|208:376|258:356,1,132.00000402832,2|2,1:2|0:0,0:0:0:0:
286,333,58467,1,8,1:0:0:0:
346,191,58681,5,8,1:0:0:0:
346,191,58788,1,8,1:0:0:0:
346,191,58895,1,0,1:0:0:0:
489,237,59110,1,8,0:0:0:0:
407,265,59324,1,0,1:0:0:0:
447,98,59538,1,8,0:0:0:0:
512,156,59752,1,8,1:0:0:0:
425,182,59967,1,8,0:0:0:0:
357,113,60181,6,0,B|312:105|312:105|273:138,1,88.000002685547,10|8,1:0|0:0,0:0:0:0:
239,166,60502,1,8,1:0:0:0:
239,166,60610,2,0,B|230:62|249:145|233:23,1,132.00000402832,2|0,1:0|0:0,0:0:0:0:
210,0,61038,1,0,1:0:0:0:
357,113,61252,1,8,0:0:0:0:
170,207,61467,5,0,1:0:0:0:
148,210,61574,1,8,3:0:0:0:
126,214,61681,1,8,3:0:0:0:
94,236,61788,1,8,3:0:0:0:
72,232,61895,1,0,1:0:0:0:
50,228,62002,1,8,3:0:0:0:
17,204,62110,2,0,L|2:265,1,44.0000013427735,8|8,3:0|3:0,0:0:0:0:
51,339,62324,6,0,P|95:353|140:338,1,95.9999970703126,6|0,1:0|0:0,0:0:0:0:
173,313,62645,1,2,0:0:0:0:
173,313,62752,1,0,1:2:0:0:
292,355,62967,1,10,0:0:0:0:
412,260,63181,2,0,P|367:245|267:273,1,143.999995605469,2|2,1:2|0:0,0:0:0:0:
241,245,63610,1,8,1:0:0:0:
386,165,63824,37,2,0:0:0:0:
414,178,63931,1,8,1:0:0:0:
438,167,64038,2,0,P|483:125|466:39,1,143.999995605469,2|2,1:2|0:0,0:0:0:0:
448,24,64467,1,2,1:2:0:0:
303,119,64681,1,10,0:2:0:0:
411,260,64895,2,0,P|450:317|428:383,1,143.999995605469,2|2,1:2|0:0,0:0:0:0:
386,370,65324,1,8,1:0:0:0:
236,316,65538,5,8,1:0:0:0:
215,321,65645,1,8,1:0:0:0:
198,311,65752,2,0,P|153:299|107:324,1,95.9999970703126,2|2,1:2|0:2,0:0:0:0:
25,361,66074,2,0,P|69:372|115:347,1,95.9999970703126,2|0,0:2|0:0,0:0:0:0:
87,239,66395,1,10,0:2:0:0:
87,239,66610,2,0,P|65:193|82:138,1,95.9999970703126,2|2,1:2|0:0,0:0:0:0:
96,59,66931,1,2,0:0:0:0:
96,59,67038,2,0,P|118:105|101:160,1,95.9999970703126,8|2,1:0|0:0,0:0:0:0:
190,188,67360,5,8,1:0:0:0:
190,188,67467,2,0,B|234:180|234:180|279:207|279:207|333:197,1,143.999995605469,10|0,1:2|0:0,0:0:0:0:
352,179,67895,1,2,1:2:0:0:
270,81,68110,1,10,0:2:0:0:
414,7,68324,2,0,P|451:50|454:151,1,143.999995605469,2|2,1:2|0:0,0:0:0:0:
445,169,68752,1,8,1:0:0:0:
361,262,68967,5,8,1:0:0:0:
353,283,69074,1,8,1:0:0:0:
362,299,69181,2,0,B|342:340|342:340|374:389,1,95.9999970703126,2|2,1:2|0:2,0:0:0:0:
462,271,69610,1,2,1:2:0:0:
352,179,69824,1,10,0:2:0:0:
257,287,70038,2,0,B|158:289|208:341|111:343,1,143.999995605469,2|2,1:2|0:0,0:0:0:0:
88,331,70467,1,8,1:0:0:0:
22,172,70681,5,2,0:0:0:0:
22,172,70788,1,8,1:0:0:0:
22,172,70895,2,0,P|77:152|124:233,1,143.999995605469,2|0,1:2|0:0,0:0:0:0:
109,241,71324,1,2,1:2:0:0:
234,366,71538,1,10,0:2:0:0:
383,264,71752,37,8,1:0:0:0:
379,240,71860,1,8,1:0:0:0:
375,216,71967,1,8,1:0:0:0:
371,192,72074,1,8,1:0:0:0:
336,171,72181,1,0,1:0:0:0:
339,147,72288,1,8,1:0:0:0:
343,123,72395,1,8,1:0:0:0:
347,99,72502,1,8,1:0:0:0:
372,75,72610,5,4,0:2:0:0:
256,192,72717,12,2,75610,0:0:0:0:
121,93,76038,53,14,0:0:0:0:
354,229,77538,5,10,0:0:0:0:
366,227,77645,1,2,0:0:0:0:
377,226,77752,1,10,0:0:0:0:
26,319,78610,86,0,L|-12:311,2,26.6666666666667,10|2|2,0:0|0:0|0:0,0:0:0:0:
99,283,78824,2,0,L|124:253,2,26.6666666666667,10|10|10,0:0|0:0|0:0,0:0:0:0:
98,358,79038,2,0,L|110:394,6,26.6666666666667,2|2|2|10|10|10|10,0:0|0:0|0:0|0:0|0:0|0:0|0:0,0:0:0:0:
122,105,80967,5,10,0:0:0:0:
120,93,81074,1,2,0:0:0:0:
119,82,81181,1,10,0:0:0:0:
4,0,82038,85,10,0:0:0:0:
0,39,82145,1,2,0:0:0:0:
14,76,82252,1,10,0:0:0:0:
44,102,82360,1,2,0:0:0:0:
83,110,82467,2,0,P|107:109|139:100,3,40,10|2|10|2,0:0|0:0|0:0|0:0,0:0:0:0:
192,64,82895,5,10,3:2:0:0:
348,146,83217,1,10,3:2:0:0:
344,169,83324,1,2,0:0:0:0:
348,146,83538,1,10,3:2:0:0:
344,169,83645,1,2,0:0:0:0:
321,122,83752,85,10,3:2:0:0:
130,209,84074,1,10,3:2:0:0:
134,232,84181,1,2,0:0:0:0:
130,209,84395,1,10,3:2:0:0:
134,232,84502,1,2,0:0:0:0:
159,177,84610,5,10,3:2:0:0:
334,289,84931,1,10,3:2:0:0:
357,285,85038,1,2,0:0:0:0:
334,289,85252,1,10,3:2:0:0:
357,285,85360,1,2,0:0:0:0:
295,247,85467,85,10,3:2:0:0:
188,344,85681,2,0,L|146:335,3,26.6666666666667,10|10|10|10,0:0|3:2|0:2|0:2,0:0:0:0:
87,371,86110,2,0,L|45:362,3,26.6666666666667,10|10|10|10,0:2|0:2|0:2|0:2,0:0:0:0:
508,350,87395,5,10,0:0:0:0:
512,311,87502,1,2,0:0:0:0:
498,274,87610,1,10,0:0:0:0:
468,248,87717,1,10,0:0:0:0:
431,247,87824,1,8,3:0:0:0:
431,247,87931,1,8,3:0:0:0:
431,247,88038,85,6,3:2:0:0:
226,286,88360,5,0,1:0:0:0:
25,325,88681,85,0,1:0:0:0:
25,325,88895,1,0,1:0:0:0:
297,384,89324,5,8,1:0:0:0:
304,335,89431,1,8,1:0:0:0:
311,286,89538,1,8,1:0:0:0:
318,236,89645,1,8,1:0:0:0:
325,187,89752,86,0,P|392:215|478:175,1,151.999995941162,6|0,3:1|0:0,0:0:0:0:
485,166,90074,1,0,3:0:0:0:
485,166,90181,1,8,1:0:0:0:
447,300,90395,1,2,3:1:0:0:
304,335,90610,5,2,3:1:0:0:
243,142,90931,1,0,3:0:0:0:
243,142,91038,1,8,1:0:0:0:
126,89,91252,1,2,3:1:0:0:
126,89,91360,1,2,0:1:0:0:
126,89,91467,86,0,P|51:81|11:154,1,151.999995941162,2|0,3:1|0:0,0:0:0:0:
24,165,91788,1,0,3:0:0:0:
24,165,91895,1,8,1:0:0:0:
156,204,92110,1,2,3:1:0:0:
191,340,92324,5,2,3:1:0:0:
57,380,92538,2,0,L|4:365,3,50.6666653137207,10|10|10|10,0:0|3:2|0:2|0:2,0:0:0:0:
35,275,92967,2,0,L|-3:235,3,50.6666653137207,10|10|10|2,0:0|3:2|0:2|3:1,0:0:0:0:
213,381,93502,85,0,3:1:0:0:
213,381,93610,1,8,1:0:0:0:
324,237,93824,1,2,3:1:0:0:
475,295,94038,6,0,P|417:284|363:367,1,151.999995941162,2|0,3:1|0:0,0:0:0:0:
379,384,94360,1,0,3:0:0:0:
379,384,94467,1,8,1:0:0:0:
245,273,94681,1,2,3:1:0:0:
245,273,94788,1,2,0:1:0:0:
245,273,94895,86,0,P|237:195|296:156,1,151.999995941162,2|0,3:1|0:0,0:0:0:0:
323,164,95217,1,0,3:0:0:0:
323,164,95324,1,8,1:0:0:0:
462,195,95538,1,2,3:1:0:0:
456,38,95752,6,0,P|435:76|395:93,1,75.9999979705811,2|0,3:1|0:0,0:0:0:0:
370,90,95967,2,0,L|317:75,3,50.6666653137207,10|10|10|10,0:0|3:2|0:2|0:2,0:0:0:0:
242,15,96395,2,0,L|189:30,3,50.6666653137207,10|10|10|2,0:0|3:2|0:2|3:1,0:0:0:0:
101,141,96824,85,2,0:2:0:0:
76,130,96931,1,2,3:2:0:0:
52,120,97038,1,8,1:0:0:0:
179,252,97252,1,2,3:2:0:0:
256,100,97467,1,0,3:0:0:0:
86,230,97681,5,2,0:0:0:0:
86,230,97788,2,0,P|44:236|20:262,1,75.9999979705811,0|8,3:0|1:0,0:0:0:0:
68,335,98002,1,2,0:0:0:0:
92,341,98110,1,2,3:2:0:0:
117,347,98217,1,2,0:0:0:0:
142,352,98324,1,2,3:2:0:0:
262,302,98538,85,2,0:0:0:0:
262,302,98645,2,0,L|262:206,1,75.9999979705811,2|8,0:2|1:0,0:0:0:0:
351,284,98860,1,2,0:2:0:0:
346,310,98967,1,2,3:2:0:0:
340,335,99074,1,2,0:2:0:0:
335,360,99181,1,2,3:2:0:0:
455,380,99395,2,0,L|508:365,3,50.6666653137207,10|10|10|10,0:0|3:2|0:2|0:2,0:0:0:0:
477,275,99824,2,0,L|515:235,3,50.6666653137207,10|10|10|0,0:0|3:2|0:2|3:0,0:0:0:0:
351,284,100252,5,2,0:0:0:0:
262,226,100467,1,8,1:0:0:0:
341,162,100681,1,2,3:2:0:0:
367,168,100788,1,2,0:2:0:0:
393,173,100895,1,2,3:2:0:0:
469,86,101110,85,2,0:0:0:0:
469,86,101217,2,0,B|489:50|489:50|480:4,1,75.9999979705811,2|8,0:2|1:0,0:0:0:0:
398,0,101431,1,2,0:2:0:0:
374,6,101538,1,2,3:2:0:0:
349,12,101645,1,2,0:2:0:0:
324,17,101752,1,2,3:2:0:0:
251,86,101967,5,2,0:2:0:0:
251,86,102074,2,0,L|251:182,1,75.9999979705811,2|8,0:2|1:0,0:0:0:0:
176,200,102288,1,2,0:2:0:0:
170,176,102395,1,2,3:2:0:0:
164,151,102502,1,2,0:2:0:0:
159,126,102610,1,2,3:2:0:0:
48,24,102824,86,0,L|-6:9,3,50.6666653137207,10|10|10|10,0:0|3:2|0:2|0:2,0:0:0:0:
73,119,103252,1,10,0:0:0:0:
73,119,103360,1,2,0:0:0:0:
73,119,103467,5,10,0:1:0:0:
224,55,103788,1,10,0:1:0:0:
399,123,104110,1,10,0:1:0:0:
354,52,104324,85,10,0:1:0:0:
385,231,104645,1,10,0:1:0:0:
207,187,104967,1,10,0:1:0:0:
254,123,105181,5,10,0:1:0:0:
312,305,105502,1,10,0:1:0:0:
500,263,105824,1,10,0:1:0:0:
453,199,106038,85,2,0:1:0:0:
227,230,106360,1,10,0:1:0:0:
0,257,106681,1,10,0:1:0:0:
49,196,106895,5,10,0:1:0:0:
98,375,107217,1,10,0:1:0:0:
273,327,107538,1,10,0:1:0:0:
353,376,107752,85,10,0:1:0:0:
353,376,107860,1,2,0:0:0:0:
353,376,107967,2,0,L|365:289,1,64,0|10,0:0|0:1,0:0:0:0:
319,204,108181,2,0,P|300:191|280:152,2,42.6666666666667,10|0|0,3:2|3:2|3:2,0:0:0:0:
358,177,108395,2,0,P|350:156|355:120,2,42.6666666666667,10|0|0,3:2|3:0|3:0,0:0:0:0:
408,184,108610,5,12,3:2:0:0:
256,192,109252,12,0,110217,0:0:0:0:
184,79,110324,86,0,B|168:41|168:41|185:0,2,75.9999979705811,6|0|0,3:1|0:0|0:0,0:0:0:0:
230,143,110645,1,0,3:0:0:0:
230,143,110752,1,8,1:0:0:0:
386,86,110967,1,2,3:1:0:0:
401,75,111181,6,0,L|410:0,2,75.9999979705811,2|0|0,3:1|0:0|0:0,0:0:0:0:
330,29,111502,1,0,0:0:0:0:
330,29,111610,1,8,1:0:0:0:
489,127,111824,1,2,3:1:0:0:
489,127,111931,1,2,0:1:0:0:
489,127,112038,86,0,P|506:194|436:251,1,151.999995941162,2|0,3:1|0:0,0:0:0:0:
424,234,112360,1,0,3:0:0:0:
424,234,112467,1,8,1:0:0:0:
245,129,112681,1,2,3:1:0:0:
230,143,112895,6,0,L|221:218,2,75.9999979705811,2|0|0,3:1|0:0|0:0,0:0:0:0:
306,202,113217,1,0,3:0:0:0:
306,202,113324,1,8,1:0:0:0:
171,357,113538,1,2,3:1:0:0:
171,357,113645,1,0,3:0:0:0:
171,357,113752,86,0,B|72:368|119:309|22:316,1,151.999995941162,2|0,3:1|0:0,0:0:0:0:
0,343,114074,1,0,3:0:0:0:
0,343,114181,1,8,1:0:0:0:
95,215,114395,1,2,3:1:0:0:
114,198,114610,6,0,B|130:160|130:160|113:119,2,75.9999979705811,2|0|0,3:1|0:0|0:0,0:0:0:0:
42,151,114931,1,0,3:0:0:0:
42,151,115038,1,8,1:0:0:0:
156,300,115252,1,0,3:0:0:0:
173,285,115467,86,0,B|218:289|218:289|266:261|266:261|326:271,1,151.999995941162,2|0,3:1|0:0,0:0:0:0:
355,287,115788,1,0,3:0:0:0:
355,287,115895,1,8,1:0:0:0:
512,218,116110,1,0,3:0:0:0:
425,331,116324,6,0,L|411:396,6,50.6666653137207,8|2|8|2|8|2|8,3:2|3:2|3:2|3:2|3:2|3:2|3:2,0:0:0:0:
470,153,116967,1,2,3:1:0:0:
465,139,117074,1,2,0:1:0:0:
460,125,117181,86,0,B|416:114|386:134|386:134|367:102|322:90,1,151.999995941162,6|0,3:1|0:0,0:0:0:0:
307,114,117502,1,0,3:0:0:0:
307,114,117610,1,8,1:0:0:0:
126,191,117824,1,2,3:1:0:0:
116,207,118038,6,0,B|134:248|166:262|166:262|196:264|235:238,1,151.999995941162,2|0,3:1|0:0,0:0:0:0:
262,207,118360,1,0,3:0:0:0:
262,207,118467,1,8,1:0:0:0:
71,303,118681,1,2,3:1:0:0:
71,303,118788,1,2,0:1:0:0:
71,303,118895,86,0,B|55:341|55:341|72:382,2,75.9999979705811,2|0|0,3:1|0:0|0:0,0:0:0:0:
145,341,119217,1,0,3:0:0:0:
145,341,119324,1,8,1:0:0:0:
13,174,119538,1,2,3:1:0:0:
35,186,119752,6,0,P|74:125|16:53,1,151.999995941162,2|0,3:1|0:0,0:0:0:0:
4,46,120074,1,0,3:0:0:0:
4,46,120181,1,8,1:0:0:0:
179,119,120395,1,2,3:1:0:0:
179,119,120502,1,2,0:1:0:0:
179,119,120610,86,0,B|213:134|213:134|259:116,2,75.9999979705811,2|0|0,3:1|0:0|0:0,0:0:0:0:
221,48,120931,1,0,3:0:0:0:
221,48,121038,1,8,1:0:0:0:
316,224,121252,1,2,3:1:0:0:
289,242,121467,6,0,P|250:303|308:375,1,151.999995941162,2|0,3:1|0:0,0:0:0:0:
327,384,121788,1,0,3:0:0:0:
327,384,121895,1,8,1:0:0:0:
502,344,122110,85,2,3:1:0:0:
502,344,122217,1,8,0:0:0:0:
502,344,122324,21,6,3:1:0:0:
438,176,122645,5,6,3:1:0:0:
383,8,122967,5,6,3:1:0:0:
383,8,123181,6,0,P|297:48|311:89,2,155.999992858887,6|2|2,1:2|0:2|0:2,0:0:0:0:
391,147,124038,6,0,P|311:123|201:111,2,167.999994873047,6|4|0,3:2|1:0|3:0,0:0:0:0:
475,289,125110,1,2,3:2:0:0:
451,366,125324,1,8,1:0:0:0:
393,261,125538,1,2,0:0:0:0:
301,338,125752,2,0,B|268:375|224:366|224:366|174:346|171:293,2,167.999994873047,2|0|0,3:2|3:0|3:0,0:0:0:0:
163,171,126824,37,0,3:0:0:0:
83,188,127038,1,8,1:0:0:0:
10,207,127252,1,8,1:0:0:0:
10,207,127360,1,8,1:0:0:0:
10,207,127467,2,0,P|38:128|-13:42,2,167.999994873047,2|2|2,3:2|3:2|3:2,0:0:0:0:
123,58,128324,5,2,0:0:0:0:
200,73,128538,1,0,3:0:0:0:
281,89,128752,1,8,1:0:0:0:
364,106,128967,1,2,0:0:0:0:
364,106,129181,2,0,P|380:39|471:49,2,167.999994873047,2|0|0,3:2|3:0|3:0,0:0:0:0:
363,230,130038,5,2,0:0:0:0:
311,299,130252,1,2,3:2:0:0:
230,252,130467,1,8,1:0:0:0:
283,187,130681,1,8,1:0:0:0:
283,187,130788,1,8,1:0:0:0:
283,187,130895,2,0,P|280:127|284:4,2,167.999994873047,2|0|2,3:2|3:0|3:2,0:0:0:0:
130,155,131752,5,2,0:0:0:0:
53,136,131967,1,0,3:0:0:0:
14,203,132181,1,8,1:0:0:0:
71,267,132395,1,2,0:0:0:0:
71,267,132610,2,0,P|72:347|-1:376,2,167.999994873047,2|0|2,3:2|3:0|3:2,0:0:0:0:
205,341,133467,5,2,0:0:0:0:
283,349,133681,1,0,3:0:0:0:
358,357,133895,1,8,1:0:0:0:
440,367,134110,1,8,1:0:0:0:
440,367,134217,1,8,1:0:0:0:
440,367,134324,2,0,B|476:341|487:298|487:298|480:258|442:219,2,167.999994873047,0|0|0,3:0|3:0|3:0,0:0:0:0:
330,274,135181,37,2,0:0:0:0:
274,189,135395,1,0,3:0:0:0:
357,199,135610,1,10,1:0:0:0:
357,199,135717,1,0,0:0:0:0:
357,199,135824,1,2,0:1:0:0:
249,268,136038,2,0,B|149:275|203:215|92:221,2,167.999994873047,0|0|0,3:0|3:0|3:0,0:0:0:0:
357,185,136895,5,8,3:0:0:0:
383,190,137002,1,8,3:0:0:0:
412,190,137109,1,8,3:0:0:0:
438,183,137216,1,8,3:0:0:0:
462,167,137323,1,8,3:0:0:0:
481,146,137430,1,8,3:0:0:0:
493,121,137537,1,8,3:0:0:0:
497,94,137645,1,8,3:0:0:0:
494,65,137752,6,0,P|455:41|367:38,1,120.000004577637,6|0,1:0|0:0,0:0:0:0:
340,63,138074,1,2,0:0:0:0:
340,63,138181,2,0,P|301:62|265:49,1,60.0000022888184,2|0,1:2|0:0,0:0:0:0:
244,26,138395,1,10,0:0:0:0:
67,100,138610,2,0,P|42:156|63:225,1,120.000004577637,2|0,1:2|0:0,0:0:0:0:
93,237,138931,1,2,0:0:0:0:
93,237,139038,2,0,P|149:216|227:229,1,120.000004577637,8|2,1:0|0:0,0:0:0:0:
267,294,139360,5,8,1:0:0:0:
251,293,139467,2,0,P|255:370|338:348,1,180.000006866455,2|0,1:2|0:0,0:0:0:0:
352,323,139895,1,2,1:2:0:0:
417,150,140110,1,10,0:2:0:0:
512,263,140324,6,0,B|403:284|467:208|331:227,1,180.000006866455,2|2,1:2|0:0,0:0:0:0:
321,246,140752,1,8,1:0:0:0:
184,95,140967,37,8,1:0:0:0:
184,95,141074,1,8,1:0:0:0:
184,95,141181,2,0,P|172:38|224:0,1,120.000004577637,2|2,1:2|0:2,0:0:0:0:
249,2,141502,2,0,L|313:18,1,60.0000022888184,2|2,0:0|1:2,0:0:0:0:
356,134,141824,1,10,0:2:0:0:
201,198,142038,5,2,1:2:0:0:
156,190,142145,1,0,0:0:0:0:
112,182,142252,1,2,0:0:0:0:
69,172,142360,1,2,0:0:0:0:
25,161,142467,2,0,P|49:217|31:285,1,120.000004577637,8|2,1:0|0:0,0:0:0:0:
64,359,142788,5,8,1:0:0:0:
76,345,142895,2,0,B|127:353|162:321|162:321|179:363|242:379,1,180.000006866455,10|0,1:2|0:0,0:0:0:0:
269,372,143324,1,2,1:2:0:0:
386,260,143538,5,10,0:2:0:0:
264,161,143752,1,2,1:2:0:0:
236,187,143860,1,0,0:0:0:0:
223,222,143966,1,2,0:2:0:0:
226,260,144073,1,2,0:0:0:0:
245,293,144180,1,0,1:0:0:0:
375,355,144395,5,8,1:0:0:0:
375,355,144502,1,8,1:0:0:0:
375,355,144610,2,0,P|413:311|472:306,1,120.000004577637,2|0,1:2|0:2,0:0:0:0:
512,332,144931,1,2,0:0:0:0:
512,332,145038,1,2,1:2:0:0:
396,210,145252,37,10,0:2:0:0:
279,291,145467,1,2,1:2:0:0:
245,293,145574,1,0,0:0:0:0:
213,296,145681,1,2,0:2:0:0:
181,300,145788,1,2,0:0:0:0:
147,303,145895,2,0,B|65:308|65:308|44:262,1,120.000004577637,8|0,1:0|0:0,0:0:0:0:
10,190,146217,5,8,1:0:0:0:
1,171,146324,2,0,B|52:180|52:180|118:136|118:136|168:146,1,180.000006866455,2|0,1:2|0:0,0:0:0:0:
196,179,146752,1,2,1:2:0:0:
331,44,146967,1,10,0:2:0:0:
194,42,147181,5,12,1:0:0:0:
237,84,147288,1,8,1:0:0:0:
279,127,147395,1,8,1:0:0:0:
321,169,147502,1,8,1:0:0:0:
356,165,147610,5,0,1:0:0:0:
381,138,147717,1,8,1:0:0:0:
406,113,147824,1,8,1:0:0:0:
427,87,147931,1,8,1:0:0:0:
450,63,148038,6,0,B|506:89|506:89|488:155,1,120.000004577637,6|2,1:0|0:0,0:0:0:0:
494,224,148360,1,0,0:0:0:0:
494,224,148467,2,0,L|420:207,1,60.0000022888184,2|0,1:2|0:0,0:0:0:0:
423,285,148681,2,0,L|481:298,1,60.0000022888184,10|0,0:0|0:0,0:0:0:0:
350,301,148895,2,0,B|330:298|330:298|326:301|326:301|264:339|264:339|192:299,1,180.000006866455,2|0,1:2|0:0,0:0:0:0:
171,312,149324,2,0,L|180:180,1,120.000004577637,8|2,1:0|0:0,0:0:0:0:
130,132,149645,37,8,1:0:0:0:
110,119,149752,2,0,L|105:178,1,60.0000022888184,2|0,1:2|0:0,0:0:0:0:
254,204,149967,2,0,L|259:145,1,60.0000022888184,2|0,0:2|0:0,0:0:0:0:
214,74,150181,1,2,1:2:0:0:
357,221,150395,1,10,0:2:0:0:
194,301,150610,6,0,B|78:318|158:366|29:387,1,180.000006866455,2|2,1:2|0:0,0:0:0:0:
34,339,151038,1,8,1:0:0:0:
224,376,151252,5,8,1:0:0:0:
240,380,151360,1,8,1:0:0:0:
257,384,151467,2,0,B|306:360|319:323|319:323|328:279|288:232,1,180.000006866455,2|0,1:2|0:0,0:0:0:0:
201,187,151895,2,0,L|260:170,1,60.0000022888184,2|0,1:2|0:0,0:0:0:0:
373,137,152110,2,0,L|311:117,1,60.0000022888184,10|0,0:2|0:0,0:0:0:0:
262,20,152324,1,2,1:2:0:0:
234,16,152431,1,2,3:2:0:0:
220,40,152538,1,2,0:0:0:0:
239,61,152645,1,0,1:0:0:0:
265,50,152752,2,0,B|301:30|301:30|389:50,1,120.000004577637,8|0,1:0|0:0,0:0:0:0:
472,173,153074,5,8,1:0:0:0:
466,200,153181,2,0,B|413:184|413:184|375:133|375:133|305:115,1,180.000006866455,10|0,1:2|0:0,0:0:0:0:
282,149,153610,1,2,1:2:0:0:
122,75,153824,1,10,0:2:0:0:
52,243,154038,2,0,B|-5:245|-15:186|-15:186|-23:132|34:115,1,180.000006866455,2|0,1:2|0:0,0:0:0:0:
60,114,154467,1,8,1:0:0:0:
172,272,154681,5,8,1:0:0:0:
200,284,154788,1,8,1:0:0:0:
231,271,154895,2,0,P|268:226|245:156,1,120.000004577637,2|2,1:2|0:2,0:0:0:0:
315,117,155217,1,2,3:2:0:0:
315,117,155324,2,0,L|376:133,1,60.0000022888184,2|0,1:2|0:0,0:0:0:0:
447,85,155538,37,10,0:2:0:0:
512,227,155752,1,2,1:2:0:0:
361,260,155967,1,2,0:2:0:0:
444,188,156181,2,0,B|420:266|453:226|421:316,1,120.000004577637,8|0,1:0|0:0,0:0:0:0:
483,363,156502,1,8,1:0:0:0:
499,347,156610,5,2,1:2:0:0:
243,307,156931,5,0,1:0:0:0:
0,268,157252,5,8,1:0:0:0:
46,110,157467,5,8,1:0:0:0:
92,123,157574,1,8,1:0:0:0:
139,119,157681,1,8,1:0:0:0:
183,101,157788,1,8,1:0:0:0:
208,67,157896,37,0,1:0:0:0:
201,114,158003,1,8,1:0:0:0:
197,161,158110,1,8,1:0:0:0:
190,208,158217,1,8,1:0:0:0:
141,230,158324,5,6,1:2:0:0:
75,377,158538,1,2,0:2:0:0:
75,377,158645,1,2,0:0:0:0:
75,377,158752,1,2,1:2:0:0:
11,258,158967,1,6,1:0:0:0:
201,322,159181,2,0,L|430:301,1,204.000003890991,2|0,1:2|0:0,0:0:0:0:
464,256,159610,6,0,B|408:216|408:216|339:265,1,136.000002593994,8|0,1:0|0:0,0:0:0:0:
496,239,159931,1,8,1:0:0:0:
496,239,160038,5,2,1:2:0:0:
453,142,160252,1,2,0:2:0:0:
409,49,160467,1,2,1:2:0:0:
351,167,160681,5,2,1:2:0:0:
268,101,160895,1,2,1:2:0:0:
185,40,161110,1,2,0:2:0:0:
195,185,161324,37,12,1:0:0:0:
31,232,161538,1,8,1:0:0:0:
26,252,161645,1,8,1:0:0:0:
20,274,161752,5,2,1:2:0:0:
146,256,161967,1,2,0:2:0:0:
224,363,162181,1,2,1:2:0:0:
135,284,162395,5,2,1:2:0:0:
299,241,162610,1,2,1:2:0:0:
377,384,162824,1,2,0:2:0:0:
279,272,163038,5,8,1:0:0:0:
507,191,163360,1,8,1:0:0:0:
499,171,163467,5,2,1:2:0:0:
319,157,163681,1,2,0:2:0:0:
456,74,163895,1,2,1:2:0:0:
252,51,164110,37,2,1:2:0:0:
411,142,164324,1,2,1:2:0:0:
227,196,164538,1,2,0:2:0:0:
61,99,164752,1,8,1:0:0:0:
133,28,164967,1,8,1:0:0:0:
138,48,165074,1,8,1:0:0:0:
144,70,165181,5,2,1:2:0:0:
95,205,165395,1,2,0:2:0:0:
44,348,165610,1,2,1:2:0:0:
209,217,165824,5,2,1:2:0:0:
129,294,166038,1,2,1:2:0:0:
55,366,166252,1,2,0:2:0:0:
0,227,166467,5,8,1:0:0:0:
206,355,166788,1,8,1:0:0:0:
197,381,166895,5,2,1:2:0:0:
352,353,167110,1,2,0:2:0:0:
505,324,167324,1,2,1:2:0:0:
289,245,167538,37,2,1:2:0:0:
401,274,167752,1,2,1:2:0:0:
504,298,167967,1,2,0:2:0:0:
433,119,168181,5,8,1:0:0:0:
233,181,168395,1,8,1:0:0:0:
213,176,168502,1,8,1:0:0:0:
191,170,168609,5,2,1:2:0:0:
51,60,168824,1,2,0:2:0:0:
231,9,169038,1,2,1:2:0:0:
167,152,169252,5,2,1:2:0:0:
156,57,169467,1,2,1:2:0:0:
251,98,169681,1,2,0:2:0:0:
302,281,169895,5,8,1:0:0:0:
91,375,170217,1,8,1:0:0:0:
83,349,170324,37,2,1:2:0:0:
254,371,170538,1,2,0:2:0:0:
356,214,170752,1,2,1:2:0:0:
211,280,170967,5,2,1:2:0:0:
99,215,171181,5,8,1:0:0:0:
75,209,171288,1,8,1:0:0:0:
50,204,171395,1,8,1:0:0:0:
25,198,171502,1,8,1:0:0:0:
0,174,171610,5,0,1:0:0:0:
25,168,171717,1,8,1:0:0:0:
50,163,171824,1,8,1:0:0:0:
75,157,171931,1,8,1:0:0:0:
100,152,172038,5,2,1:2:0:0:
159,70,172252,1,2,0:2:0:0:
60,23,172467,1,2,1:2:0:0:
211,161,172681,37,2,1:2:0:0:
301,93,172895,1,2,1:2:0:0:
231,9,173110,1,2,0:2:0:0:
308,198,173324,5,8,1:0:0:0:
482,113,173645,1,8,1:0:0:0:
475,90,173752,5,2,1:2:0:0:
415,167,173967,1,2,0:2:0:0:
506,211,174181,1,2,1:2:0:0:
412,147,174395,5,2,1:2:0:0:
347,230,174610,1,2,1:2:0:0:
437,295,174824,1,2,0:2:0:0:
256,173,175038,5,8,1:0:0:0:
173,309,175253,1,8,1:0:0:0:
182,341,175360,1,8,1:0:0:0:
191,374,175467,37,2,1:2:0:0:
268,305,175681,1,2,0:2:0:0:
182,231,175895,1,2,1:2:0:0:
344,360,176110,5,2,1:2:0:0:
267,291,176324,1,2,1:2:0:0:
353,217,176538,1,2,0:2:0:0:
504,298,176752,5,8,1:0:0:0:
411,156,177074,1,8,1:0:0:0:
418,133,177181,5,2,1:2:0:0:
495,207,177395,1,2,0:2:0:0:
406,273,177610,1,2,1:2:0:0:
268,132,177824,5,2,1:2:0:0:
345,206,178038,1,2,1:2:0:0:
256,272,178253,1,2,0:2:0:0:
92,180,178467,37,8,1:0:0:0:
8,73,178681,1,8,1:0:0:0:
17,41,178788,1,8,1:0:0:0:
26,8,178895,5,2,1:2:0:0:
119,30,179110,1,2,0:2:0:0:
217,57,179324,1,2,1:2:0:0:
191,129,179538,5,2,1:2:0:0:
277,107,179752,1,2,1:2:0:0:
357,87,179967,1,2,0:2:0:0:
507,129,180181,5,8,1:0:0:0:
378,171,180502,1,8,1:0:0:0:
384,191,180610,5,2,1:2:0:0:
356,259,180824,1,2,0:2:0:0:
325,328,181038,1,2,1:2:0:0:
262,372,181252,37,2,1:2:0:0:
205,357,181467,1,2,1:2:0:0:
149,339,181681,1,2,0:2:0:0:
98,194,181895,5,8,1:0:0:0:
256,192,182324,12,2,185324,0:0:0:0:
