osu file format v14

[General]
AudioFilename: audio.mp3
AudioLeadIn: 0
PreviewTime: 87186
Countdown: 0
SampleSet: Normal
StackLeniency: 0
Mode: 1
LetterboxInBreaks: 0
WidescreenStoryboard: 0

[Editor]
DistanceSpacing: 2.1
BeatDivisor: 4
GridSize: 32
TimelineZoom: 2.9

[Metadata]
Title:ISCHEZAYU (LIELESS FRENCHCORE BOOTLEG)
TitleUnicode:ИСЧЕЗАЮ (LIELESS FRENCHCORE BOOTLEG)
Artist:BILLBOARDS
ArtistUnicode:БИЛБОРДЫ
Creator:Genjuro
Version:INNER ONI
Source:
Tags:electronic russian hardcore lielessx русский
BeatmapID:3886146
BeatmapSetID:1887133

[Difficulty]
HPDrainRate:6
CircleSize:2
OverallDifficulty:6
ApproachRate:10
SliderMultiplier:1.4
SliderTickRate:1

[Events]
//Background and Video events
0,0,"bg.jpg",0,70
//Break Periods
//Storyboard Layer 0 (Background)
//Storyboard Layer 1 (Fail)
//Storyboard Layer 2 (Pass)
//Storyboard Layer 3 (Foreground)
//Storyboard Layer 4 (Overlay)
//Storyboard Sound Samples

[TimingPoints]
1178,300,4,1,0,50,1,0
1178,-133.33333,4,1,0,50,0,0
2377,-133.33333,4,1,0,54,0,0
3577,-133.33333,4,1,0,58,0,0
4777,-133.33333,4,1,0,63,0,0
5977,-133.33333,4,1,0,67,0,0
7177,-133.33333,4,1,0,71,0,0
8377,-133.333333333333,4,1,0,75,0,0
8677,-133.333333333333,4,1,0,78,0,0
8977,-133.333333333333,4,1,0,81,0,0
9277,-133.333333333333,4,1,0,84,0,0
9577,-133.333333333333,4,1,0,88,0,0
9877,-133.333333333333,4,1,0,91,0,0
10177,-133.333333333333,4,1,0,94,0,0
10477,-133.333333333333,4,1,0,97,0,0
10703,-95.2380952380952,4,1,0,100,0,0
10778,-95.2381,4,1,0,100,0,1
29978,-95.2380952380952,4,1,0,100,0,0
30128,-114.285714285714,4,1,0,88,0,0
39428,-100,4,1,0,100,0,0
48878,-97.5609756097561,4,1,0,100,0,0
49178,-95.2380952380952,4,1,0,100,0,1
75728,-96.2406015037594,4,1,0,100,0,1
75878,-97.2644376899696,4,1,0,100,0,1
76028,-98.3102918586789,4,1,0,100,0,1
76178,-99.3788819875776,4,1,0,100,0,1
76328,-100.470957613815,4,1,0,100,0,1
76478,-101.587301587302,4,1,0,100,0,1
76628,-102.728731942215,4,1,0,100,0,1
76778,-103.896103896104,4,1,0,100,0,1
77078,-106.312292358804,4,1,0,100,0,1
77378,-108.843537414966,4,1,0,100,0,1
77528,-110.154905335628,4,1,0,100,0,1
77678,-111.498257839721,4,1,0,100,0,1
77978,-114.285714285714,4,1,0,100,0,0
78128,-133.333333333333,4,1,0,75,0,0
87503,-95.2380952380952,4,1,0,100,0,0
87578,-95.2380952380952,4,1,0,100,0,1
116378,-95.2380952380952,4,1,0,100,0,0
123728,-96.2406015037594,4,1,0,100,0,0
123878,-97.2644376899696,4,1,0,100,0,0
124028,-98.3102918586789,4,1,0,100,0,0
124178,-99.3788819875776,4,1,0,100,0,0
124328,-100.470957613815,4,1,0,100,0,0
124478,-101.587301587302,4,1,0,100,0,0
124628,-102.728731942215,4,1,0,100,0,0
124778,-103.896103896104,4,1,0,100,0,0
125078,-106.312292358804,4,1,0,100,0,0
125378,-108.843537414966,4,1,0,100,0,0
125678,-111.498257839721,4,1,0,100,0,0
125753,-112.182296231376,4,1,0,100,0,0
125828,-112.874779541446,4,1,0,100,0,0

[HitObjects]
256,192,8378,12,0,10478,0:0:0:0:
256,192,10778,5,4,0:0:0:0:
256,192,10928,1,8,0:0:0:0:
256,192,11003,1,8,0:0:0:0:
256,192,11078,1,0,0:0:0:0:
256,192,11228,1,8,0:0:0:0:
256,192,11378,1,0,0:0:0:0:
256,192,11453,1,0,0:0:0:0:
256,192,11528,1,8,0:0:0:0:
256,192,11603,1,8,0:0:0:0:
256,192,11678,1,0,0:0:0:0:
256,192,11828,1,8,0:0:0:0:
256,192,11978,1,0,0:0:0:0:
256,192,12053,1,0,0:0:0:0:
256,192,12128,1,8,0:0:0:0:
256,192,12203,1,0,0:0:0:0:
256,192,12278,1,8,0:0:0:0:
256,192,12353,1,8,0:0:0:0:
256,192,12428,1,0,0:0:0:0:
256,192,12578,1,8,0:0:0:0:
256,192,12728,1,0,0:0:0:0:
256,192,12878,1,8,0:0:0:0:
256,192,12953,1,8,0:0:0:0:
256,192,13028,1,8,0:0:0:0:
256,192,13178,1,0,0:0:0:0:
256,192,13328,1,0,0:0:0:0:
256,192,13403,1,0,0:0:0:0:
256,192,13478,1,8,0:0:0:0:
256,192,13628,1,0,0:0:0:0:
256,192,13778,1,8,0:0:0:0:
256,192,13853,1,8,0:0:0:0:
256,192,13928,1,0,0:0:0:0:
256,192,14003,1,0,0:0:0:0:
256,192,14078,1,8,0:0:0:0:
256,192,14228,1,0,0:0:0:0:
256,192,14378,1,8,0:0:0:0:
256,192,14453,1,0,0:0:0:0:
256,192,14528,1,8,0:0:0:0:
256,192,14603,1,8,0:0:0:0:
256,192,14678,1,0,0:0:0:0:
256,192,14753,1,8,0:0:0:0:
256,192,14828,1,0,0:0:0:0:
256,192,14903,1,0,0:0:0:0:
256,192,14978,1,8,0:0:0:0:
256,192,15128,1,8,0:0:0:0:
256,192,15203,1,0,0:0:0:0:
256,192,15278,1,0,0:0:0:0:
256,192,15353,1,0,0:0:0:0:
256,192,15428,1,8,0:0:0:0:
256,192,15578,1,0,0:0:0:0:
256,192,15728,1,8,0:0:0:0:
256,192,15803,1,8,0:0:0:0:
256,192,15878,1,0,0:0:0:0:
256,192,16028,1,8,0:0:0:0:
256,192,16178,1,0,0:0:0:0:
256,192,16253,1,8,0:0:0:0:
256,192,16403,1,8,0:0:0:0:
256,192,16478,1,0,0:0:0:0:
256,192,16628,1,8,0:0:0:0:
256,192,16778,1,0,0:0:0:0:
256,192,16853,1,0,0:0:0:0:
256,192,16928,1,8,0:0:0:0:
256,192,17003,1,0,0:0:0:0:
256,192,17078,1,8,0:0:0:0:
256,192,17153,1,8,0:0:0:0:
256,192,17228,1,0,0:0:0:0:
256,192,17378,1,8,0:0:0:0:
256,192,17453,1,8,0:0:0:0:
256,192,17528,1,0,0:0:0:0:
256,192,17603,1,8,0:0:0:0:
256,192,17678,1,0,0:0:0:0:
256,192,17753,1,0,0:0:0:0:
256,192,17828,1,8,0:0:0:0:
256,192,17978,1,0,0:0:0:0:
256,192,18128,1,0,0:0:0:0:
256,192,18203,1,0,0:0:0:0:
256,192,18278,1,8,0:0:0:0:
256,192,18428,1,0,0:0:0:0:
256,192,18578,1,8,0:0:0:0:
256,192,18653,1,0,0:0:0:0:
256,192,18803,1,0,0:0:0:0:
256,192,18878,1,8,0:0:0:0:
256,192,19028,1,0,0:0:0:0:
256,192,19178,1,8,0:0:0:0:
256,192,19253,1,0,0:0:0:0:
256,192,19328,1,0,0:0:0:0:
256,192,19403,1,8,0:0:0:0:
256,192,19478,1,0,0:0:0:0:
256,192,19553,1,0,0:0:0:0:
256,192,19628,1,8,0:0:0:0:
256,192,19703,1,8,0:0:0:0:
256,192,19778,1,0,0:0:0:0:
256,192,19928,1,8,0:0:0:0:
256,192,20078,1,0,0:0:0:0:
256,192,20153,1,0,0:0:0:0:
256,192,20228,1,0,0:0:0:0:
256,192,20378,1,8,0:0:0:0:
256,192,20528,1,8,0:0:0:0:
256,192,20678,1,0,0:0:0:0:
256,192,20828,1,8,0:0:0:0:
256,192,20903,1,8,0:0:0:0:
256,192,20978,1,0,0:0:0:0:
256,192,21128,1,8,0:0:0:0:
256,192,21203,1,8,0:0:0:0:
256,192,21278,1,0,0:0:0:0:
256,192,21428,1,8,0:0:0:0:
256,192,21578,1,0,0:0:0:0:
256,192,21653,1,8,0:0:0:0:
256,192,21728,1,0,0:0:0:0:
256,192,21803,1,0,0:0:0:0:
256,192,21878,1,8,0:0:0:0:
256,192,21953,1,8,0:0:0:0:
256,192,22028,1,0,0:0:0:0:
256,192,22178,1,8,0:0:0:0:
256,192,22253,1,0,0:0:0:0:
256,192,22328,1,8,0:0:0:0:
256,192,22403,1,8,0:0:0:0:
256,192,22478,1,0,0:0:0:0:
256,192,22553,1,0,0:0:0:0:
256,192,22628,1,8,0:0:0:0:
256,192,22778,1,0,0:0:0:0:
256,192,22928,1,0,0:0:0:0:
256,192,23003,1,0,0:0:0:0:
256,192,23078,1,8,0:0:0:0:
256,192,23228,1,0,0:0:0:0:
256,192,23378,1,8,0:0:0:0:
256,192,23453,1,8,0:0:0:0:
256,192,23528,1,0,0:0:0:0:
256,192,23603,1,0,0:0:0:0:
256,192,23678,1,8,0:0:0:0:
256,192,23828,1,0,0:0:0:0:
256,192,23978,1,8,0:0:0:0:
256,192,24053,1,8,0:0:0:0:
256,192,24128,1,0,0:0:0:0:
256,192,24203,1,8,0:0:0:0:
256,192,24278,1,0,0:0:0:0:
256,192,24353,1,0,0:0:0:0:
256,192,24428,1,8,0:0:0:0:
256,192,24503,1,0,0:0:0:0:
256,192,24578,1,8,0:0:0:0:
256,192,24728,1,8,0:0:0:0:
256,192,24803,1,8,0:0:0:0:
256,192,24878,1,0,0:0:0:0:
256,192,24953,1,8,0:0:0:0:
256,192,25028,1,8,0:0:0:0:
256,192,25178,1,0,0:0:0:0:
256,192,25328,1,8,0:0:0:0:
256,192,25403,1,8,0:0:0:0:
256,192,25478,1,0,0:0:0:0:
256,192,25628,1,8,0:0:0:0:
256,192,25778,1,0,0:0:0:0:
256,192,25853,1,8,0:0:0:0:
256,192,26003,1,8,0:0:0:0:
256,192,26078,1,0,0:0:0:0:
256,192,26153,1,0,0:0:0:0:
256,192,26228,1,8,0:0:0:0:
256,192,26378,1,0,0:0:0:0:
256,192,26453,1,8,0:0:0:0:
256,192,26528,1,0,0:0:0:0:
256,192,26603,1,0,0:0:0:0:
256,192,26678,1,8,0:0:0:0:
256,192,26753,1,8,0:0:0:0:
256,192,26828,1,0,0:0:0:0:
256,192,26978,1,8,0:0:0:0:
256,192,27053,1,0,0:0:0:0:
256,192,27128,1,8,0:0:0:0:
256,192,27203,1,8,0:0:0:0:
256,192,27278,1,0,0:0:0:0:
256,192,27353,1,0,0:0:0:0:
256,192,27428,1,8,0:0:0:0:
256,192,27578,1,0,0:0:0:0:
256,192,27728,1,0,0:0:0:0:
256,192,27803,1,0,0:0:0:0:
256,192,27878,1,8,0:0:0:0:
256,192,27953,1,0,0:0:0:0:
256,192,28028,1,8,0:0:0:0:
256,192,28178,1,8,0:0:0:0:
256,192,28253,1,8,0:0:0:0:
256,192,28328,1,0,0:0:0:0:
256,192,28478,1,0,0:0:0:0:
256,192,28553,1,0,0:0:0:0:
256,192,28628,1,8,0:0:0:0:
256,192,28778,1,0,0:0:0:0:
256,192,28928,1,0,0:0:0:0:
256,192,29003,1,0,0:0:0:0:
256,192,29078,1,8,0:0:0:0:
256,192,29153,1,0,0:0:0:0:
256,192,29228,1,8,0:0:0:0:
256,192,29378,1,0,0:0:0:0:
256,192,29528,1,0,0:0:0:0:
256,192,29678,1,8,0:0:0:0:
256,192,29828,1,8,0:0:0:0:
256,192,29978,1,4,0:0:0:0:
256,192,30278,1,8,0:0:0:0:
256,192,30428,1,0,0:0:0:0:
256,192,30728,1,0,0:0:0:0:
256,192,30878,1,8,0:0:0:0:
256,192,31178,1,0,0:0:0:0:
256,192,31328,1,0,0:0:0:0:
256,192,31478,1,8,0:0:0:0:
256,192,31628,1,0,0:0:0:0:
256,192,31928,1,0,0:0:0:0:
256,192,32078,1,8,0:0:0:0:
256,192,32378,1,0,0:0:0:0:
256,192,32678,1,8,0:0:0:0:
256,192,32828,1,0,0:0:0:0:
256,192,33128,1,0,0:0:0:0:
256,192,33278,1,8,0:0:0:0:
256,192,33578,1,8,0:0:0:0:
256,192,33728,1,0,0:0:0:0:
256,192,33878,1,8,0:0:0:0:
256,192,34028,1,8,0:0:0:0:
256,192,34178,1,0,0:0:0:0:
256,192,34328,1,0,0:0:0:0:
256,192,34478,1,8,0:0:0:0:
256,192,34778,1,0,0:0:0:0:
256,192,35078,1,8,0:0:0:0:
256,192,35228,1,0,0:0:0:0:
256,192,35528,1,0,0:0:0:0:
256,192,35678,1,8,0:0:0:0:
256,192,35978,1,0,0:0:0:0:
256,192,36128,1,0,0:0:0:0:
256,192,36278,1,8,0:0:0:0:
256,192,36428,1,0,0:0:0:0:
256,192,36728,1,0,0:0:0:0:
256,192,36878,1,8,0:0:0:0:
256,192,37178,1,0,0:0:0:0:
256,192,37478,1,8,0:0:0:0:
256,192,37628,1,0,0:0:0:0:
256,192,37928,1,0,0:0:0:0:
256,192,38078,1,8,0:0:0:0:
256,192,38378,1,0,0:0:0:0:
256,192,38678,1,8,0:0:0:0:
256,192,38828,1,8,0:0:0:0:
256,192,39128,1,0,0:0:0:0:
256,192,39578,1,8,0:0:0:0:
256,192,39728,1,0,0:0:0:0:
256,192,39878,1,8,0:0:0:0:
256,192,40028,1,8,0:0:0:0:
256,192,40178,1,0,0:0:0:0:
256,192,40478,1,8,0:0:0:0:
256,192,40778,1,0,0:0:0:0:
256,192,40928,1,8,0:0:0:0:
256,192,41228,1,8,0:0:0:0:
256,192,41378,1,0,0:0:0:0:
256,192,41528,1,0,0:0:0:0:
256,192,41678,1,8,0:0:0:0:
256,192,41978,1,8,0:0:0:0:
256,192,42128,1,8,0:0:0:0:
256,192,42278,1,8,0:0:0:0:
256,192,42428,1,0,0:0:0:0:
256,192,42578,1,8,0:0:0:0:
256,192,42728,1,8,0:0:0:0:
256,192,42878,1,0,0:0:0:0:
256,192,43028,1,0,0:0:0:0:
256,192,43178,1,8,0:0:0:0:
256,192,43478,1,0,0:0:0:0:
256,192,43778,1,8,0:0:0:0:
256,192,43928,1,0,0:0:0:0:
256,192,44078,1,8,0:0:0:0:
256,192,44228,1,8,0:0:0:0:
256,192,44378,1,0,0:0:0:0:
256,192,44528,1,8,0:0:0:0:
256,192,44828,1,8,0:0:0:0:
256,192,44978,1,0,0:0:0:0:
256,192,45278,1,0,0:0:0:0:
256,192,45428,1,0,0:0:0:0:
256,192,45578,1,8,0:0:0:0:
256,192,45728,1,0,0:0:0:0:
256,192,45878,1,8,0:0:0:0:
256,192,46028,1,8,0:0:0:0:
256,192,46178,1,0,0:0:0:0:
256,192,46478,1,8,0:0:0:0:
256,192,46628,1,0,0:0:0:0:
256,192,46778,1,8,0:0:0:0:
256,192,47078,1,0,0:0:0:0:
256,192,47378,1,8,0:0:0:0:
256,192,47528,1,8,0:0:0:0:
256,192,47678,1,0,0:0:0:0:
256,192,47828,1,8,0:0:0:0:
256,192,47903,1,8,0:0:0:0:
256,192,47978,1,0,0:0:0:0:
256,192,48053,1,0,0:0:0:0:
256,192,48128,1,0,0:0:0:0:
256,192,48203,1,0,0:0:0:0:
256,192,48278,1,8,0:0:0:0:
256,192,48353,1,8,0:0:0:0:
256,192,48428,1,8,0:0:0:0:
256,192,48503,1,8,0:0:0:0:
256,192,48578,1,0,0:0:0:0:
256,192,48878,1,8,0:0:0:0:
256,192,49178,1,4,0:0:0:0:
256,192,49328,1,8,0:0:0:0:
256,192,49403,1,8,0:0:0:0:
256,192,49478,1,0,0:0:0:0:
256,192,49553,1,0,0:0:0:0:
256,192,49628,1,8,0:0:0:0:
256,192,49778,1,0,0:0:0:0:
256,192,49853,1,0,0:0:0:0:
256,192,49928,1,8,0:0:0:0:
256,192,50003,1,8,0:0:0:0:
256,192,50078,1,0,0:0:0:0:
256,192,50228,1,8,0:0:0:0:
256,192,50378,1,0,0:0:0:0:
256,192,50453,1,0,0:0:0:0:
256,192,50528,1,8,0:0:0:0:
256,192,50603,1,0,0:0:0:0:
256,192,50678,1,8,0:0:0:0:
256,192,50753,1,8,0:0:0:0:
256,192,50828,1,0,0:0:0:0:
256,192,50903,1,0,0:0:0:0:
256,192,50978,1,8,0:0:0:0:
256,192,51053,1,8,0:0:0:0:
256,192,51128,1,0,0:0:0:0:
256,192,51203,1,8,0:0:0:0:
256,192,51278,1,0,0:0:0:0:
256,192,51353,1,0,0:0:0:0:
256,192,51428,1,8,0:0:0:0:
256,192,51578,1,0,0:0:0:0:
256,192,51728,1,0,0:0:0:0:
256,192,51803,1,0,0:0:0:0:
256,192,51878,1,8,0:0:0:0:
256,192,52028,1,0,0:0:0:0:
256,192,52178,1,8,0:0:0:0:
256,192,52253,1,8,0:0:0:0:
256,192,52328,1,0,0:0:0:0:
256,192,52403,1,0,0:0:0:0:
256,192,52478,1,8,0:0:0:0:
256,192,52628,1,0,0:0:0:0:
256,192,52778,1,8,0:0:0:0:
256,192,52853,1,0,0:0:0:0:
256,192,52928,1,8,0:0:0:0:
256,192,53003,1,8,0:0:0:0:
256,192,53078,1,0,0:0:0:0:
256,192,53153,1,8,0:0:0:0:
256,192,53228,1,0,0:0:0:0:
256,192,53303,1,0,0:0:0:0:
256,192,53378,1,8,0:0:0:0:
256,192,53528,1,0,0:0:0:0:
256,192,53678,1,8,0:0:0:0:
256,192,53753,1,8,0:0:0:0:
256,192,53828,1,8,0:0:0:0:
256,192,53978,1,0,0:0:0:0:
256,192,54128,1,8,0:0:0:0:
256,192,54203,1,8,0:0:0:0:
256,192,54278,1,0,0:0:0:0:
256,192,54353,1,0,0:0:0:0:
256,192,54428,1,8,0:0:0:0:
256,192,54578,1,0,0:0:0:0:
256,192,54653,1,8,0:0:0:0:
256,192,54803,1,8,0:0:0:0:
256,192,54878,1,0,0:0:0:0:
256,192,55028,1,8,0:0:0:0:
256,192,55178,1,0,0:0:0:0:
256,192,55253,1,0,0:0:0:0:
256,192,55328,1,8,0:0:0:0:
256,192,55403,1,0,0:0:0:0:
256,192,55478,1,8,0:0:0:0:
256,192,55553,1,8,0:0:0:0:
256,192,55628,1,0,0:0:0:0:
256,192,55703,1,0,0:0:0:0:
256,192,55778,1,8,0:0:0:0:
256,192,55853,1,8,0:0:0:0:
256,192,55928,1,0,0:0:0:0:
256,192,56003,1,8,0:0:0:0:
256,192,56078,1,0,0:0:0:0:
256,192,56153,1,0,0:0:0:0:
256,192,56228,1,8,0:0:0:0:
256,192,56378,1,0,0:0:0:0:
256,192,56528,1,0,0:0:0:0:
256,192,56603,1,0,0:0:0:0:
256,192,56678,1,8,0:0:0:0:
256,192,56828,1,0,0:0:0:0:
256,192,56978,1,8,0:0:0:0:
256,192,57053,1,0,0:0:0:0:
256,192,57203,1,0,0:0:0:0:
256,192,57278,1,8,0:0:0:0:
256,192,57428,1,0,0:0:0:0:
256,192,57578,1,8,0:0:0:0:
256,192,57653,1,0,0:0:0:0:
256,192,57728,1,0,0:0:0:0:
256,192,57803,1,8,0:0:0:0:
256,192,57878,1,0,0:0:0:0:
256,192,57953,1,0,0:0:0:0:
256,192,58028,1,8,0:0:0:0:
256,192,58103,1,8,0:0:0:0:
256,192,58178,1,0,0:0:0:0:
256,192,58328,1,8,0:0:0:0:
256,192,58478,1,0,0:0:0:0:
256,192,58553,1,0,0:0:0:0:
256,192,58628,1,0,0:0:0:0:
256,192,58778,1,8,0:0:0:0:
256,192,58928,1,8,0:0:0:0:
256,192,59078,1,0,0:0:0:0:
256,192,59228,1,8,0:0:0:0:
256,192,59303,1,8,0:0:0:0:
256,192,59378,1,0,0:0:0:0:
256,192,59528,1,8,0:0:0:0:
256,192,59603,1,8,0:0:0:0:
256,192,59678,1,0,0:0:0:0:
256,192,59828,1,8,0:0:0:0:
256,192,59978,1,0,0:0:0:0:
256,192,60053,1,8,0:0:0:0:
256,192,60128,1,0,0:0:0:0:
256,192,60203,1,0,0:0:0:0:
256,192,60278,1,8,0:0:0:0:
256,192,60353,1,8,0:0:0:0:
256,192,60428,1,0,0:0:0:0:
256,192,60503,1,0,0:0:0:0:
256,192,60578,1,8,0:0:0:0:
256,192,60653,1,0,0:0:0:0:
256,192,60728,1,8,0:0:0:0:
256,192,60803,1,8,0:0:0:0:
256,192,60878,1,0,0:0:0:0:
256,192,60953,1,0,0:0:0:0:
256,192,61028,1,8,0:0:0:0:
256,192,61178,1,0,0:0:0:0:
256,192,61328,1,0,0:0:0:0:
256,192,61403,1,0,0:0:0:0:
256,192,61478,1,8,0:0:0:0:
256,192,61628,1,0,0:0:0:0:
256,192,61778,1,8,0:0:0:0:
256,192,61853,1,8,0:0:0:0:
256,192,61928,1,0,0:0:0:0:
256,192,62003,1,0,0:0:0:0:
256,192,62078,1,8,0:0:0:0:
256,192,62228,1,0,0:0:0:0:
256,192,62378,1,8,0:0:0:0:
256,192,62453,1,8,0:0:0:0:
256,192,62528,1,0,0:0:0:0:
256,192,62603,1,8,0:0:0:0:
256,192,62678,1,0,0:0:0:0:
256,192,62753,1,0,0:0:0:0:
256,192,62828,1,8,0:0:0:0:
256,192,62903,1,0,0:0:0:0:
256,192,62978,1,8,0:0:0:0:
256,192,63128,1,0,0:0:0:0:
256,192,63278,1,8,0:0:0:0:
256,192,63353,1,8,0:0:0:0:
256,192,63428,1,8,0:0:0:0:
256,192,63578,1,0,0:0:0:0:
256,192,63728,1,8,0:0:0:0:
256,192,63803,1,8,0:0:0:0:
256,192,63878,1,0,0:0:0:0:
256,192,63953,1,0,0:0:0:0:
256,192,64028,1,8,0:0:0:0:
256,192,64178,1,0,0:0:0:0:
256,192,64253,1,8,0:0:0:0:
256,192,64403,1,8,0:0:0:0:
256,192,64478,1,0,0:0:0:0:
256,192,64553,1,0,0:0:0:0:
256,192,64628,1,8,0:0:0:0:
256,192,64778,1,0,0:0:0:0:
256,192,64853,1,8,0:0:0:0:
256,192,64928,1,0,0:0:0:0:
256,192,65003,1,0,0:0:0:0:
256,192,65078,1,8,0:0:0:0:
256,192,65153,1,8,0:0:0:0:
256,192,65228,1,0,0:0:0:0:
256,192,65303,1,0,0:0:0:0:
256,192,65378,1,8,0:0:0:0:
256,192,65453,1,0,0:0:0:0:
256,192,65528,1,8,0:0:0:0:
256,192,65603,1,8,0:0:0:0:
256,192,65678,1,0,0:0:0:0:
256,192,65753,1,0,0:0:0:0:
256,192,65828,1,8,0:0:0:0:
256,192,65978,1,0,0:0:0:0:
256,192,66128,1,0,0:0:0:0:
256,192,66203,1,0,0:0:0:0:
256,192,66278,1,8,0:0:0:0:
256,192,66353,1,0,0:0:0:0:
256,192,66428,1,8,0:0:0:0:
256,192,66503,1,8,0:0:0:0:
256,192,66578,1,0,0:0:0:0:
256,192,66728,1,8,0:0:0:0:
256,192,66803,1,0,0:0:0:0:
256,192,66878,1,0,0:0:0:0:
256,192,66953,1,0,0:0:0:0:
256,192,67028,1,8,0:0:0:0:
256,192,67178,1,0,0:0:0:0:
256,192,67328,1,0,0:0:0:0:
256,192,67403,1,0,0:0:0:0:
256,192,67478,1,8,0:0:0:0:
256,192,67553,1,0,0:0:0:0:
256,192,67628,1,8,0:0:0:0:
256,192,67703,1,8,0:0:0:0:
256,192,67778,1,0,0:0:0:0:
256,192,67928,1,8,0:0:0:0:
256,192,68078,1,0,0:0:0:0:
256,192,68153,1,0,0:0:0:0:
256,192,68228,1,0,0:0:0:0:
256,192,68378,1,8,0:0:0:0:
256,192,68528,1,8,0:0:0:0:
256,192,68678,1,0,0:0:0:0:
256,192,68828,1,8,0:0:0:0:
256,192,68903,1,8,0:0:0:0:
256,192,68978,1,0,0:0:0:0:
256,192,69053,1,0,0:0:0:0:
256,192,69128,1,8,0:0:0:0:
256,192,69203,1,0,0:0:0:0:
256,192,69278,1,0,0:0:0:0:
256,192,69353,1,0,0:0:0:0:
256,192,69428,1,8,0:0:0:0:
256,192,69578,1,0,0:0:0:0:
256,192,69728,1,8,0:0:0:0:
256,192,69803,1,8,0:0:0:0:
256,192,69878,1,0,0:0:0:0:
256,192,70028,1,8,0:0:0:0:
256,192,70103,1,8,0:0:0:0:
256,192,70178,1,0,0:0:0:0:
256,192,70253,1,0,0:0:0:0:
256,192,70328,1,8,0:0:0:0:
256,192,70478,1,0,0:0:0:0:
256,192,70553,1,0,0:0:0:0:
256,192,70628,1,8,0:0:0:0:
256,192,70778,1,0,0:0:0:0:
256,192,70928,1,8,0:0:0:0:
256,192,71003,1,0,0:0:0:0:
256,192,71078,1,8,0:0:0:0:
256,192,71228,1,8,0:0:0:0:
256,192,71303,1,8,0:0:0:0:
256,192,71378,1,0,0:0:0:0:
256,192,71528,1,8,0:0:0:0:
256,192,71603,1,0,0:0:0:0:
256,192,71678,1,8,0:0:0:0:
256,192,71828,1,0,0:0:0:0:
256,192,71978,1,8,0:0:0:0:
256,192,72053,1,8,0:0:0:0:
256,192,72128,1,0,0:0:0:0:
256,192,72278,1,8,0:0:0:0:
256,192,72353,1,0,0:0:0:0:
256,192,72428,1,8,0:0:0:0:
256,192,72503,1,8,0:0:0:0:
256,192,72578,1,0,0:0:0:0:
256,192,72728,1,8,0:0:0:0:
256,192,72878,1,0,0:0:0:0:
256,192,72953,1,0,0:0:0:0:
256,192,73028,1,0,0:0:0:0:
256,192,73178,1,8,0:0:0:0:
256,192,73328,1,8,0:0:0:0:
256,192,73478,1,0,0:0:0:0:
256,192,73628,1,8,0:0:0:0:
256,192,73703,1,8,0:0:0:0:
256,192,73778,1,0,0:0:0:0:
256,192,73853,1,0,0:0:0:0:
256,192,73928,1,8,0:0:0:0:
256,192,74003,1,0,0:0:0:0:
256,192,74078,1,0,0:0:0:0:
256,192,74153,1,0,0:0:0:0:
256,192,74228,1,8,0:0:0:0:
256,192,74378,1,0,0:0:0:0:
256,192,74528,1,8,0:0:0:0:
256,192,74603,1,8,0:0:0:0:
256,192,74678,1,0,0:0:0:0:
256,192,74828,1,8,0:0:0:0:
256,192,74903,1,8,0:0:0:0:
256,192,74978,1,0,0:0:0:0:
256,192,75053,1,0,0:0:0:0:
256,192,75128,1,8,0:0:0:0:
256,192,75278,1,0,0:0:0:0:
256,192,75353,1,0,0:0:0:0:
256,192,75428,1,8,0:0:0:0:
256,192,75578,1,0,0:0:0:0:
256,192,75728,1,0,0:0:0:0:
256,192,75878,1,8,0:0:0:0:
256,192,76028,1,8,0:0:0:0:
256,192,76178,1,0,0:0:0:0:
256,192,76328,1,8,0:0:0:0:
256,192,76478,1,8,0:0:0:0:
256,192,76628,1,8,0:0:0:0:
256,192,76778,1,0,0:0:0:0:
256,192,77078,1,8,0:0:0:0:
256,192,77378,1,0,0:0:0:0:
256,192,77528,1,0,0:0:0:0:
256,192,77678,1,8,0:0:0:0:
256,192,77978,1,4,0:0:0:0:
256,192,79178,1,8,0:0:0:0:
256,192,79328,1,0,0:0:0:0:
256,192,79478,1,8,0:0:0:0:
256,192,79628,1,8,0:0:0:0:
256,192,79778,1,0,0:0:0:0:
256,192,80078,1,8,0:0:0:0:
256,192,80378,1,0,0:0:0:0:
256,192,80528,1,8,0:0:0:0:
256,192,81578,1,8,0:0:0:0:
256,192,81728,1,0,0:0:0:0:
256,192,81878,1,0,0:0:0:0:
256,192,82028,1,8,0:0:0:0:
256,192,82328,1,0,0:0:0:0:
256,192,82478,1,8,0:0:0:0:
256,192,82628,1,0,0:0:0:0:
256,192,82778,1,8,0:0:0:0:
256,192,82928,1,8,0:0:0:0:
256,192,83978,1,8,0:0:0:0:
256,192,84128,1,0,0:0:0:0:
256,192,84278,1,8,0:0:0:0:
256,192,84428,1,8,0:0:0:0:
256,192,84578,1,0,0:0:0:0:
256,192,84878,1,8,0:0:0:0:
256,192,85178,1,0,0:0:0:0:
256,192,85328,1,8,0:0:0:0:
256,192,86378,1,0,0:0:0:0:
256,192,86528,1,8,0:0:0:0:
256,192,86678,1,0,0:0:0:0:
256,192,86978,1,8,0:0:0:0:
256,192,87578,1,4,0:0:0:0:
256,192,87728,1,8,0:0:0:0:
256,192,87803,1,8,0:0:0:0:
256,192,87878,1,0,0:0:0:0:
256,192,87953,1,0,0:0:0:0:
256,192,88028,1,8,0:0:0:0:
256,192,88178,1,0,0:0:0:0:
256,192,88253,1,8,0:0:0:0:
256,192,88328,1,8,0:0:0:0:
256,192,88403,1,8,0:0:0:0:
256,192,88478,1,0,0:0:0:0:
256,192,88553,1,0,0:0:0:0:
256,192,88628,1,8,0:0:0:0:
256,192,88778,1,0,0:0:0:0:
256,192,88853,1,0,0:0:0:0:
256,192,88928,1,8,0:0:0:0:
256,192,89003,1,0,0:0:0:0:
256,192,89078,1,8,0:0:0:0:
256,192,89153,1,8,0:0:0:0:
256,192,89228,1,0,0:0:0:0:
256,192,89303,1,0,0:0:0:0:
256,192,89378,1,8,0:0:0:0:
256,192,89453,1,8,0:0:0:0:
256,192,89528,1,0,0:0:0:0:
256,192,89603,1,8,0:0:0:0:
256,192,89678,1,0,0:0:0:0:
256,192,89753,1,0,0:0:0:0:
256,192,89828,1,8,0:0:0:0:
256,192,89978,1,0,0:0:0:0:
256,192,90128,1,0,0:0:0:0:
256,192,90203,1,0,0:0:0:0:
256,192,90278,1,8,0:0:0:0:
256,192,90428,1,0,0:0:0:0:
256,192,90578,1,8,0:0:0:0:
256,192,90653,1,0,0:0:0:0:
256,192,90728,1,0,0:0:0:0:
256,192,90803,1,0,0:0:0:0:
256,192,90878,1,8,0:0:0:0:
256,192,90953,1,8,0:0:0:0:
256,192,91028,1,0,0:0:0:0:
256,192,91178,1,8,0:0:0:0:
256,192,91253,1,0,0:0:0:0:
256,192,91328,1,8,0:0:0:0:
256,192,91403,1,8,0:0:0:0:
256,192,91478,1,0,0:0:0:0:
256,192,91553,1,8,0:0:0:0:
256,192,91628,1,0,0:0:0:0:
256,192,91703,1,0,0:0:0:0:
256,192,91778,1,8,0:0:0:0:
256,192,91928,1,0,0:0:0:0:
256,192,92078,1,8,0:0:0:0:
256,192,92153,1,8,0:0:0:0:
256,192,92228,1,8,0:0:0:0:
256,192,92378,1,0,0:0:0:0:
256,192,92528,1,8,0:0:0:0:
256,192,92603,1,8,0:0:0:0:
256,192,92678,1,0,0:0:0:0:
256,192,92753,1,0,0:0:0:0:
256,192,92828,1,8,0:0:0:0:
256,192,92978,1,0,0:0:0:0:
256,192,93053,1,8,0:0:0:0:
256,192,93203,1,8,0:0:0:0:
256,192,93278,1,0,0:0:0:0:
256,192,93353,1,0,0:0:0:0:
256,192,93428,1,8,0:0:0:0:
256,192,93578,1,0,0:0:0:0:
256,192,93653,1,0,0:0:0:0:
256,192,93728,1,8,0:0:0:0:
256,192,93803,1,0,0:0:0:0:
256,192,93878,1,8,0:0:0:0:
256,192,93953,1,8,0:0:0:0:
256,192,94028,1,0,0:0:0:0:
256,192,94103,1,0,0:0:0:0:
256,192,94178,1,8,0:0:0:0:
256,192,94253,1,8,0:0:0:0:
256,192,94328,1,0,0:0:0:0:
256,192,94403,1,8,0:0:0:0:
256,192,94478,1,0,0:0:0:0:
256,192,94553,1,0,0:0:0:0:
256,192,94628,1,8,0:0:0:0:
256,192,94778,1,0,0:0:0:0:
256,192,94928,1,0,0:0:0:0:
256,192,95003,1,0,0:0:0:0:
256,192,95078,1,8,0:0:0:0:
256,192,95228,1,0,0:0:0:0:
256,192,95378,1,8,0:0:0:0:
256,192,95453,1,0,0:0:0:0:
256,192,95603,1,0,0:0:0:0:
256,192,95678,1,8,0:0:0:0:
256,192,95753,1,8,0:0:0:0:
256,192,95828,1,0,0:0:0:0:
256,192,95978,1,8,0:0:0:0:
256,192,96053,1,0,0:0:0:0:
256,192,96128,1,0,0:0:0:0:
256,192,96203,1,8,0:0:0:0:
256,192,96278,1,0,0:0:0:0:
256,192,96353,1,0,0:0:0:0:
256,192,96428,1,8,0:0:0:0:
256,192,96503,1,8,0:0:0:0:
256,192,96578,1,0,0:0:0:0:
256,192,96728,1,8,0:0:0:0:
256,192,96878,1,0,0:0:0:0:
256,192,96953,1,0,0:0:0:0:
256,192,97028,1,0,0:0:0:0:
256,192,97178,1,8,0:0:0:0:
256,192,97328,1,8,0:0:0:0:
256,192,97478,1,0,0:0:0:0:
256,192,97628,1,8,0:0:0:0:
256,192,97703,1,8,0:0:0:0:
256,192,97778,1,0,0:0:0:0:
256,192,97853,1,0,0:0:0:0:
256,192,97928,1,8,0:0:0:0:
256,192,98003,1,8,0:0:0:0:
256,192,98078,1,0,0:0:0:0:
256,192,98228,1,8,0:0:0:0:
256,192,98378,1,0,0:0:0:0:
256,192,98453,1,8,0:0:0:0:
256,192,98528,1,0,0:0:0:0:
256,192,98603,1,0,0:0:0:0:
256,192,98678,1,8,0:0:0:0:
256,192,98753,1,8,0:0:0:0:
256,192,98828,1,0,0:0:0:0:
256,192,98903,1,0,0:0:0:0:
256,192,98978,1,8,0:0:0:0:
256,192,99053,1,0,0:0:0:0:
256,192,99128,1,8,0:0:0:0:
256,192,99203,1,8,0:0:0:0:
256,192,99278,1,0,0:0:0:0:
256,192,99353,1,0,0:0:0:0:
256,192,99428,1,8,0:0:0:0:
256,192,99578,1,0,0:0:0:0:
256,192,99728,1,0,0:0:0:0:
256,192,99803,1,0,0:0:0:0:
256,192,99878,1,8,0:0:0:0:
256,192,99953,1,8,0:0:0:0:
256,192,100028,1,0,0:0:0:0:
256,192,100178,1,8,0:0:0:0:
256,192,100253,1,0,0:0:0:0:
256,192,100328,1,0,0:0:0:0:
256,192,100403,1,0,0:0:0:0:
256,192,100478,1,8,0:0:0:0:
256,192,100553,1,8,0:0:0:0:
256,192,100628,1,0,0:0:0:0:
256,192,100778,1,8,0:0:0:0:
256,192,100853,1,8,0:0:0:0:
256,192,100928,1,0,0:0:0:0:
256,192,101003,1,8,0:0:0:0:
256,192,101078,1,0,0:0:0:0:
256,192,101153,1,0,0:0:0:0:
256,192,101228,1,8,0:0:0:0:
256,192,101303,1,0,0:0:0:0:
256,192,101378,1,8,0:0:0:0:
256,192,101528,1,0,0:0:0:0:
256,192,101678,1,8,0:0:0:0:
256,192,101753,1,8,0:0:0:0:
256,192,101828,1,8,0:0:0:0:
256,192,101978,1,0,0:0:0:0:
256,192,102128,1,8,0:0:0:0:
256,192,102203,1,8,0:0:0:0:
256,192,102278,1,0,0:0:0:0:
256,192,102353,1,0,0:0:0:0:
256,192,102428,1,8,0:0:0:0:
256,192,102578,1,0,0:0:0:0:
256,192,102653,1,8,0:0:0:0:
256,192,102803,1,8,0:0:0:0:
256,192,102878,1,0,0:0:0:0:
256,192,102953,1,0,0:0:0:0:
256,192,103028,1,8,0:0:0:0:
256,192,103178,1,0,0:0:0:0:
256,192,103253,1,8,0:0:0:0:
256,192,103328,1,0,0:0:0:0:
256,192,103403,1,0,0:0:0:0:
256,192,103478,1,8,0:0:0:0:
256,192,103553,1,8,0:0:0:0:
256,192,103628,1,0,0:0:0:0:
256,192,103703,1,0,0:0:0:0:
256,192,103778,1,8,0:0:0:0:
256,192,103853,1,0,0:0:0:0:
256,192,103928,1,8,0:0:0:0:
256,192,104003,1,8,0:0:0:0:
256,192,104078,1,0,0:0:0:0:
256,192,104153,1,0,0:0:0:0:
256,192,104228,1,8,0:0:0:0:
256,192,104378,1,0,0:0:0:0:
256,192,104528,1,0,0:0:0:0:
256,192,104603,1,0,0:0:0:0:
256,192,104678,1,8,0:0:0:0:
256,192,104753,1,0,0:0:0:0:
256,192,104828,1,8,0:0:0:0:
256,192,104903,1,8,0:0:0:0:
256,192,104978,1,0,0:0:0:0:
256,192,105128,1,8,0:0:0:0:
256,192,105203,1,0,0:0:0:0:
256,192,105278,1,0,0:0:0:0:
256,192,105353,1,0,0:0:0:0:
256,192,105428,1,8,0:0:0:0:
256,192,105578,1,0,0:0:0:0:
256,192,105728,1,0,0:0:0:0:
256,192,105803,1,0,0:0:0:0:
256,192,105878,1,8,0:0:0:0:
256,192,105953,1,0,0:0:0:0:
256,192,106028,1,8,0:0:0:0:
256,192,106103,1,8,0:0:0:0:
256,192,106178,1,0,0:0:0:0:
256,192,106328,1,8,0:0:0:0:
256,192,106478,1,0,0:0:0:0:
256,192,106553,1,0,0:0:0:0:
256,192,106628,1,0,0:0:0:0:
256,192,106778,1,8,0:0:0:0:
256,192,106928,1,8,0:0:0:0:
256,192,107078,1,0,0:0:0:0:
256,192,107228,1,8,0:0:0:0:
256,192,107303,1,8,0:0:0:0:
256,192,107378,1,0,0:0:0:0:
256,192,107453,1,0,0:0:0:0:
256,192,107528,1,8,0:0:0:0:
256,192,107603,1,0,0:0:0:0:
256,192,107678,1,0,0:0:0:0:
256,192,107753,1,0,0:0:0:0:
256,192,107828,1,8,0:0:0:0:
256,192,107978,1,0,0:0:0:0:
256,192,108128,1,8,0:0:0:0:
256,192,108203,1,8,0:0:0:0:
256,192,108278,1,0,0:0:0:0:
256,192,108428,1,8,0:0:0:0:
256,192,108503,1,8,0:0:0:0:
256,192,108578,1,0,0:0:0:0:
256,192,108653,1,0,0:0:0:0:
256,192,108728,1,8,0:0:0:0:
256,192,108878,1,0,0:0:0:0:
256,192,108953,1,0,0:0:0:0:
256,192,109028,1,8,0:0:0:0:
256,192,109178,1,0,0:0:0:0:
256,192,109328,1,8,0:0:0:0:
256,192,109403,1,0,0:0:0:0:
256,192,109478,1,8,0:0:0:0:
256,192,109628,1,8,0:0:0:0:
256,192,109703,1,8,0:0:0:0:
256,192,109778,1,0,0:0:0:0:
256,192,109928,1,8,0:0:0:0:
256,192,110003,1,0,0:0:0:0:
256,192,110078,1,8,0:0:0:0:
256,192,110228,1,0,0:0:0:0:
256,192,110378,1,8,0:0:0:0:
256,192,110453,1,8,0:0:0:0:
256,192,110528,1,0,0:0:0:0:
256,192,110678,1,8,0:0:0:0:
256,192,110753,1,0,0:0:0:0:
256,192,110828,1,8,0:0:0:0:
256,192,110903,1,8,0:0:0:0:
256,192,110978,1,0,0:0:0:0:
256,192,111128,1,8,0:0:0:0:
256,192,111278,1,0,0:0:0:0:
256,192,111353,1,0,0:0:0:0:
256,192,111428,1,0,0:0:0:0:
256,192,111578,1,8,0:0:0:0:
256,192,111728,1,8,0:0:0:0:
256,192,111878,1,0,0:0:0:0:
256,192,112028,1,8,0:0:0:0:
256,192,112103,1,8,0:0:0:0:
256,192,112178,1,0,0:0:0:0:
256,192,112253,1,0,0:0:0:0:
256,192,112328,1,8,0:0:0:0:
256,192,112403,1,0,0:0:0:0:
256,192,112478,1,0,0:0:0:0:
256,192,112553,1,0,0:0:0:0:
256,192,112628,1,8,0:0:0:0:
256,192,112778,1,0,0:0:0:0:
256,192,112928,1,8,0:0:0:0:
256,192,113003,1,8,0:0:0:0:
256,192,113078,1,0,0:0:0:0:
256,192,113228,1,8,0:0:0:0:
256,192,113303,1,8,0:0:0:0:
256,192,113378,1,0,0:0:0:0:
256,192,113453,1,0,0:0:0:0:
256,192,113528,1,8,0:0:0:0:
256,192,113678,1,0,0:0:0:0:
256,192,113753,1,0,0:0:0:0:
256,192,113828,1,8,0:0:0:0:
256,192,113978,1,0,0:0:0:0:
256,192,114128,1,8,0:0:0:0:
256,192,114203,1,0,0:0:0:0:
256,192,114278,1,8,0:0:0:0:
256,192,114428,1,8,0:0:0:0:
256,192,114503,1,8,0:0:0:0:
256,192,114578,1,0,0:0:0:0:
256,192,114728,1,8,0:0:0:0:
256,192,114803,1,0,0:0:0:0:
256,192,114878,1,8,0:0:0:0:
256,192,115028,1,0,0:0:0:0:
256,192,115178,1,8,0:0:0:0:
256,192,115253,1,8,0:0:0:0:
256,192,115328,1,0,0:0:0:0:
256,192,115478,1,8,0:0:0:0:
256,192,115553,1,0,0:0:0:0:
256,192,115628,1,8,0:0:0:0:
256,192,115703,1,8,0:0:0:0:
256,192,115778,1,0,0:0:0:0:
256,192,115928,1,8,0:0:0:0:
256,192,116078,1,0,0:0:0:0:
256,192,116153,1,0,0:0:0:0:
256,192,116228,1,0,0:0:0:0:
256,192,116378,1,12,0:0:0:0:
256,192,116528,1,0,0:0:0:0:
256,192,116603,1,0,0:0:0:0:
256,192,116678,1,8,0:0:0:0:
256,192,116753,1,0,0:0:0:0:
256,192,116828,1,8,0:0:0:0:
256,192,116978,1,0,0:0:0:0:
256,192,117128,1,8,0:0:0:0:
256,192,117203,1,8,0:0:0:0:
256,192,117278,1,0,0:0:0:0:
256,192,117428,1,8,0:0:0:0:
256,192,117578,1,0,0:0:0:0:
256,192,117728,1,8,0:0:0:0:
256,192,117803,1,8,0:0:0:0:
256,192,117878,1,0,0:0:0:0:
256,192,117953,1,0,0:0:0:0:
256,192,118028,1,8,0:0:0:0:
256,192,118178,1,0,0:0:0:0:
256,192,118328,1,8,0:0:0:0:
256,192,118403,1,8,0:0:0:0:
256,192,118478,1,8,0:0:0:0:
256,192,118628,1,8,0:0:0:0:
256,192,118778,1,0,0:0:0:0:
256,192,118928,1,8,0:0:0:0:
256,192,119003,1,8,0:0:0:0:
256,192,119078,1,0,0:0:0:0:
256,192,119228,1,8,0:0:0:0:
256,192,119378,1,0,0:0:0:0:
256,192,119528,1,8,0:0:0:0:
256,192,119603,1,8,0:0:0:0:
256,192,119678,1,0,0:0:0:0:
256,192,119828,1,8,0:0:0:0:
256,192,119978,1,0,0:0:0:0:
256,192,120128,1,8,0:0:0:0:
256,192,120203,1,0,0:0:0:0:
256,192,120278,1,8,0:0:0:0:
256,192,120353,1,8,0:0:0:0:
256,192,120428,1,0,0:0:0:0:
256,192,120578,1,8,0:0:0:0:
256,192,120728,1,8,0:0:0:0:
256,192,120878,1,0,0:0:0:0:
256,192,120953,1,0,0:0:0:0:
256,192,121028,1,0,0:0:0:0:
256,192,121178,1,8,0:0:0:0:
256,192,121328,1,0,0:0:0:0:
256,192,121403,1,0,0:0:0:0:
256,192,121478,1,8,0:0:0:0:
256,192,121553,1,0,0:0:0:0:
256,192,121628,1,8,0:0:0:0:
256,192,121778,1,0,0:0:0:0:
256,192,121928,1,8,0:0:0:0:
256,192,122003,1,8,0:0:0:0:
256,192,122078,1,0,0:0:0:0:
256,192,122228,1,8,0:0:0:0:
256,192,122378,1,0,0:0:0:0:
256,192,122528,1,8,0:0:0:0:
256,192,122603,1,8,0:0:0:0:
256,192,122678,1,0,0:0:0:0:
256,192,122753,1,0,0:0:0:0:
256,192,122828,1,8,0:0:0:0:
256,192,122978,1,0,0:0:0:0:
256,192,123128,1,8,0:0:0:0:
256,192,123203,1,8,0:0:0:0:
256,192,123278,1,8,0:0:0:0:
256,192,123428,1,8,0:0:0:0:
256,192,123578,1,0,0:0:0:0:
256,192,123728,1,8,0:0:0:0:
256,192,123878,1,0,0:0:0:0:
256,192,124028,1,0,0:0:0:0:
256,192,124178,1,8,0:0:0:0:
256,192,124328,1,0,0:0:0:0:
256,192,124478,1,8,0:0:0:0:
256,192,124628,1,8,0:0:0:0:
256,192,124778,1,0,0:0:0:0:
256,192,125078,1,8,0:0:0:0:
256,192,125378,1,0,0:0:0:0:
256,192,125678,1,8,0:0:0:0:
256,192,125753,1,8,0:0:0:0:
256,192,125828,1,8,0:0:0:0:
