osu file format v14

[General]
AudioFilename: audio.mp3
AudioLeadIn: 0
PreviewTime: -1
Countdown: 0
SampleSet: Soft
StackLeniency: 0.3
Mode: 0
LetterboxInBreaks: 0
WidescreenStoryboard: 0

[Editor]
Bookmarks: 13303,19924,26544,33165,36474,39786,53025,66267,72887,77853,79508,86129,92749,99370,105991
DistanceSpacing: 0.2
BeatDivisor: 4
GridSize: 16
TimelineZoom: 1

[Metadata]
Title:Tsundere Disco
TitleUnicode:Tsundere Disco 「 ツンデレディスコ」
Artist:BIGWAVE
ArtistUnicode:ミカヅキBIGWAVE
Creator:caned
Version:
Source:
Tags:
BeatmapID:1413039
BeatmapSetID:667844

[Difficulty]
HPDrainRate:5
CircleSize:4.7
OverallDifficulty:8.7
ApproachRate:8.9
SliderMultiplier:1.8
SliderTickRate:1

[Events]
//Background and Video events
0,0,"1111.jpg",0,0
//Break Periods
//Storyboard Layer 0 (Background)
//Storyboard Layer 1 (Fail)
//Storyboard Layer 2 (Pass)
//Storyboard Layer 3 (Foreground)
//Storyboard Sound Samples

[TimingPoints]
62,413.793103448276,4,1,0,100,1,0
62,-140.845070422535,4,2,0,8,0,0
475,-107.52688172043,4,2,0,8,0,0
889,-140.845070422535,4,2,0,8,0,0
3786,-107.52688172043,4,2,0,8,0,0
4199,-140.845070422535,4,2,0,8,0,0
5441,-107.52688172043,4,2,0,8,0,0
5855,-140.845070422535,4,2,0,8,0,0
8751,-107.52688172043,4,2,0,8,0,0
9993,-140.845070422535,4,2,0,8,0,0
10406,-107.52688172043,4,2,0,8,0,0
11648,-140.845070422535,4,2,0,8,0,0
12062,-107.52688172043,4,2,0,8,0,0
13303,-128.205128205128,4,2,0,10,0,0
19924,-111.111111111111,4,2,0,12,0,0
23234,-83.3333333333333,4,2,0,18,0,0
23648,-71.4285714285714,4,2,0,18,0,0
24062,-83.3333333333333,4,2,0,18,0,0
24165,-83.3333333333333,4,2,0,5,0,0
24268,-83.3333333333333,4,2,0,18,0,0
24372,-83.3333333333333,4,2,0,5,0,0
24475,-83.3333333333333,4,2,0,18,0,0
24579,-83.3333333333333,4,2,0,5,0,0
24682,-83.3333333333333,4,2,0,18,0,0
24786,-83.3333333333333,4,2,0,5,0,0
24889,-83.3333333333333,4,2,0,18,0,0
26130,827.586206896552,4,2,0,18,1,0
26130,-200,4,2,0,18,0,0
26543,413.793103448276,4,2,0,18,1,0
26543,-125,4,2,0,36,0,0
29025,-83.3333333333333,4,2,0,36,0,0
29129,-83.3333333333333,4,2,0,36,0,0
29232,-83.3333333333333,4,2,0,36,0,0
29336,-83.3333333333333,4,2,0,36,0,0
29439,-66.6666666666667,4,2,0,36,0,0
29853,-100,4,2,0,36,0,0
30267,-83.3333333333333,4,2,0,36,0,0
30680,-100,4,2,0,36,0,0
31094,-83.3333333333333,4,2,0,36,0,0
31508,-166.666666666667,4,2,0,36,0,0
33163,-100,4,2,0,36,0,0
35646,-142.857142857143,4,2,0,36,0,0
36060,-200,4,2,0,36,0,0
36474,-100,4,2,0,36,0,0
38956,-58.8235294117647,4,2,0,36,0,0
39577,-200,4,2,0,36,0,0
39784,-66.6666666666667,4,2,0,36,0,0
49715,-100,4,2,0,36,0,0
53025,-66.6666666666667,4,2,0,36,0,0
64611,-100,4,2,0,36,0,0
65853,-58.8235294117647,4,2,0,36,0,0
66267,-128.205128205128,4,2,0,22,0,0
72887,-200,4,2,0,25,0,0
77853,-100,4,2,0,40,0,0
79094,-66.6666666666667,4,2,0,40,0,0
79508,-66.6666666666667,4,2,0,40,0,0
92749,-66.6666666666667,4,2,0,40,0,0
102680,-100,4,2,0,40,0,0

[HitObjects]
192,128,62,6,0,P|227:121|270:134,1,63.8999967823793,4|0,0:0|0:0,0:0:0:0:
234,273,475,6,0,B|220:183,1,83.7000026181794,8|0,0:0|0:0,0:0:0:0:
254,126,889,5,0,0:0:0:0:
222,191,1096,1,0,0:0:0:0:
154,185,1303,1,0,0:0:0:0:
275,67,1510,1,0,3:0:0:0:
268,101,1613,1,0,3:0:0:0:
254,126,1717,6,0,P|274:90|274:56,1,63.8999967823793
199,75,2130,1,8,0:0:0:0:
222,191,2337,1,0,0:0:0:0:
203,69,2544,1,0,0:0:0:0:
240,258,2751,5,8,0:0:0:0:
275,67,2958,1,8,0:0:0:0:
275,67,3372,6,0,B|290:142,1,63.8999967823793
335,177,3786,6,0,P|292:197|248:183,1,83.7000026181794,8|0,0:0|0:0,0:0:0:0:
287,129,4199,1,0,0:0:0:0:
153,183,4406,1,0,0:0:0:0:
295,124,4613,1,8,0:0:0:0:
160,173,4820,1,0,0:0:0:0:
304,120,5027,6,0,B|231:114,1,63.8999967823793
170,104,5441,6,0,P|172:134|209:173,1,83.7000026181794,8|0,0:0|0:0,0:0:0:0:
271,192,5855,1,0,0:0:0:0:
240,114,6062,1,0,0:0:0:0:
200,234,6268,5,8,0:0:0:0:
216,47,6475,1,8,0:0:0:0:
250,175,6682,6,0,P|248:136|232:101,1,63.8999967823793,4|0,0:0|0:0,0:0:0:0:
171,156,7096,1,8,0:0:0:0:
200,234,7303,2,0,L|151:228,2,31.9499983911897
282,244,7717,1,0,0:0:0:0:
304,247,7820,1,0,0:0:0:0:
326,251,7924,2,0,L|394:259,1,63.8999967823793,8|0,0:0|3:0,0:0:0:0:
411,261,8234,1,0,3:0:0:0:
392,274,8337,5,0,0:0:0:0:
353,183,8544,1,0,0:0:0:0:
255,157,8751,2,0,P|270:111|325:94,1,83.7000026181794,8|0,0:0|0:0,0:0:0:0:
353,183,9165,1,0,0:0:0:0:
299,95,9372,5,8,0:0:0:0:
268,316,9579,1,8,0:0:0:0:
301,254,9993,6,0,P|267:245|225:257,1,63.8999967823793
158,272,10406,6,0,P|156:226|190:192,1,83.7000026181794,8|0,0:0|0:0,0:0:0:0:
257,150,10820,1,0,0:0:0:0:
239,249,11027,1,0,0:0:0:0:
329,205,11234,1,8,0:0:0:0:
319,97,11441,1,0,0:0:0:0:
406,119,11648,6,0,P|408:72|420:32,1,63.8999967823793
319,97,12062,6,0,B|302:84|284:87|284:87|271:108|243:120,1,83.7000026181794,8|0,0:0|0:0,0:0:0:0:
204,212,12475,1,0,0:0:0:0:
230,47,12682,1,8,0:0:0:0:
224,56,12889,1,0,0:0:0:0:
195,207,13096,1,0,0:0:0:0:
287,229,13303,6,0,P|292:184|273:144,1,70.2000023565675,4|0,0:0|0:0,0:0:0:0:
153,134,13717,1,8,0:0:0:0:
180,277,13924,1,0,0:0:0:0:
307,187,14130,1,0,0:0:0:0:
181,269,14337,1,0,0:0:0:0:
242,97,14544,2,0,P|264:91|293:83,1,35.1000011782837
399,203,14751,1,0,3:0:0:0:
399,213,14855,1,0,3:0:0:0:
398,224,14958,6,0,P|374:235|328:210,1,70.2000023565675
283,165,15372,1,8,0:0:0:0:
230,261,15579,2,0,L|241:308,1,35.1000011782837
132,212,15786,1,0,0:0:0:0:
170,350,15993,5,8,0:0:0:0:
191,101,16199,1,8,0:0:0:0:
338,325,16613,5,0,0:0:0:0:
350,241,16820,1,0,0:0:0:0:
365,158,17027,2,0,P|374:121|365:78,1,70.2000023565675,8|0,0:0|0:0,0:0:0:0:
306,118,17441,5,0,0:0:0:0:
161,98,17648,1,0,0:0:0:0:
297,120,17855,1,8,0:0:0:0:
105,138,18062,1,0,0:0:0:0:
291,122,18268,5,0,0:0:0:0:
135,212,18475,1,0,0:0:0:0:
232,88,18682,1,8,0:0:0:0:
262,212,18889,1,0,0:0:0:0:
202,158,19096,1,0,0:0:0:0:
245,281,19303,1,0,0:0:0:0:
296,62,19510,5,8,0:0:0:0:
294,338,19717,1,8,0:0:0:0:
366,207,19924,6,0,B|331:200|331:200|305:205|305:205|274:204,1,80.9999975280763,4|0,0:0|0:0,0:0:0:0:
180,208,20337,1,8,0:0:0:0:
260,140,20544,1,0,0:0:0:0:
169,85,20751,2,0,P|126:74|87:82,1,80.9999975280763
152,236,21165,6,0,L|137:184,1,40.4999987640381
148,333,21372,1,0,3:0:0:0:
152,344,21475,1,0,3:0:0:0:
158,352,21579,6,0,P|206:345|234:309,1,80.9999975280763
260,140,21993,1,8,0:0:0:0:
291,268,22199,1,0,0:0:0:0:
259,152,22406,1,0,0:0:0:0:
228,324,22613,5,8,0:0:0:0:
219,87,22820,1,8,0:0:0:0:
369,32,23234,6,0,P|380:77|359:139,1,107.999996704102
219,87,23648,6,0,P|252:54|226:90,1,125.999996154785,8|0,0:0|0:0,0:0:0:0:
165,175,24062,6,0,P|193:199|239:204,1,62.9999980773926
172,176,24268,6,0,P|203:194|249:191,1,62.9999980773926
177,174,24475,6,0,P|211:186|256:175,1,62.9999980773926
183,169,24682,6,0,P|219:175|261:157,1,62.9999980773926
303,115,24889,5,8,0:0:0:0:
184,328,25096,1,0,0:0:0:0:
244,114,25303,5,8,0:0:0:0:
53,149,25510,1,8,0:0:0:0:
122,100,25717,5,2,0:0:0:0:
94,223,25924,1,0,0:0:0:0:
315,118,26130,6,0,L|343:121,1,22.5
353,134,26543,6,0,P|317:144|270:131,1,72,4|0,0:0|0:0,0:0:0:0:
211,287,26956,1,8,0:0:0:0:
162,74,27163,1,0,0:0:0:0:
115,234,27370,1,0,0:0:0:0:
167,63,27577,1,0,0:0:0:0:
205,216,27784,6,0,L|214:310,1,72,8|0,0:0|0:0,0:0:0:0:
227,310,28094,1,0,0:0:0:0:
236,331,28198,1,0,0:0:0:0:
312,225,28405,1,0,0:0:0:0:
421,290,28611,2,0,B|441:309|441:309|464:298|464:298|455:288|455:288|443:254,1,72,8|0,0:0|0:0,0:0:0:0:
233,184,29025,6,0,P|199:174|163:189,1,53.9999983520508
295,87,29232,2,0,P|329:97|365:82,1,53.9999983520508
89,191,29439,6,0,B|119:210|119:210|109:194|109:194|110:176|118:130|118:130|135:138|139:159,1,135.000005149842,2|0,0:0|0:0,0:0:0:0:
334,154,29853,6,0,P|348:195|332:251,1,90
66,279,30267,6,0,P|52:238|115:188,1,107.999996704102,8|0,0:0|0:0,0:0:0:0:
345,124,30680,6,0,P|372:157|376:215,1,90
28,243,31094,6,0,P|28:199|105:174,1,107.999996704102,8|0,0:0|0:0,0:0:0:0:
345,124,31508,6,0,B|339:109|339:109|355:118|383:116,1,53.9999983520508
123,78,31922,2,0,B|129:93|129:93|113:84|85:86,1,53.9999983520508
345,124,32336,6,0,L|317:96,1,26.9999991760254
123,78,32543,2,0,L|147:44,1,26.9999991760254
216,42,32749,1,8,0:0:0:0:
225,284,32956,1,8,0:0:0:0:
216,42,33163,6,0,B|217:74|217:74|228:108|228:108|231:154,1,90
339,149,33577,1,0,0:0:0:0:
113,235,33784,1,0,0:0:0:0:
296,95,33991,2,0,P|351:84|400:107,1,90
113,235,34405,1,0,0:0:0:0:
339,149,34612,1,0,0:0:0:0:
380,213,34818,5,0,0:0:0:0:
413,145,35025,1,0,0:0:0:0:
162,129,35232,1,8,0:0:0:0:
118,54,35439,1,0,0:0:0:0:
344,78,35646,6,0,P|346:111|348:157,1,62.9999980773926
344,78,36060,6,0,B|346:108|346:108|345:85,1,45
251,129,36474,6,0,P|203:129|164:161,1,90
241,348,36887,1,8,0:0:0:0:
225,193,37094,1,0,0:0:0:0:
143,265,37301,1,0,0:0:0:0:
287,235,37508,1,0,0:0:0:0:
300,232,37611,1,0,0:0:0:0:
313,228,37715,1,8,0:0:0:0:
225,193,37922,1,0,0:0:0:0:
340,61,38129,6,0,B|350:80|350:80|334:73|297:71,1,45
160,112,38336,2,0,B|150:131|150:131|166:124|203:122,1,45
345,176,38543,2,0,B|326:166|326:166|333:182|335:219,1,45
256,305,38750,2,0,B|237:315|237:315|244:299|246:262,1,45
147,269,38956,6,0,B|130:274|130:274|112:250|85:254|85:254|100:277,1,76.5000014591217,8|0,0:0|0:0,0:0:0:0:
231,148,39163,2,0,B|248:101|232:86|232:86|196:123,1,76.5000014591217,8|0,0:0|0:0,0:0:0:0:
368,189,39370,1,8,0:0:0:0:
379,168,39474,1,8,0:0:0:0:
392,151,39577,6,0,L|399:187,1,22.5,8|0,0:0|0:0,0:0:0:0:
406,235,39784,6,0,P|342:246|307:186,1,135.000005149842,4|0,3:0|0:0,0:0:0:0:
344,128,40094,1,0,0:0:0:0:
359,113,40198,1,8,0:0:0:0:
155,237,40405,6,0,P|149:201|128:163,1,67.5000025749208
113,315,40611,2,0,B|150:333|186:328|186:328|222:303|235:268,1,135.000005149842,0|0,3:0|0:0,0:0:0:0:
298,185,40922,1,0,0:0:0:0:
298,185,41025,2,0,P|262:179|224:158,1,67.5000025749208,8|0,0:0|0:0,0:0:0:0:
147,121,41232,1,2,0:0:0:0:
165,144,41336,1,2,0:0:0:0:
217,98,41439,6,0,P|192:64|81:86,1,135.000005149842,0|0,3:0|0:0,0:0:0:0:
65,168,41749,1,0,0:0:0:0:
59,148,41853,1,8,0:0:0:0:
115,248,42060,1,0,0:0:0:0:
149,119,42267,1,0,0:0:0:0:
168,355,42474,5,8,0:0:0:0:
149,119,42680,2,0,P|183:128|213:118,1,67.5000025749208,8|0,0:0|0:0,0:0:0:0:
269,52,42887,1,0,0:0:0:0:
110,61,43094,5,0,0:0:0:0:
203,74,43301,1,0,0:0:0:0:
314,151,43508,1,8,0:0:0:0:
221,164,43715,1,0,0:0:0:0:
130,302,43922,5,0,0:0:0:0:
129,288,44129,1,0,0:0:0:0:
129,274,44336,1,8,0:0:0:0:
128,260,44543,1,0,0:0:0:0:
402,323,44749,5,0,0:0:0:0:
309,340,44956,1,0,0:0:0:0:
216,320,45163,1,8,0:0:0:0:
124,341,45370,1,0,0:0:0:0:
382,82,45577,5,0,0:0:0:0:
383,96,45784,1,0,0:0:0:0:
140,124,45991,1,8,0:0:0:0:
384,114,46198,1,8,0:0:0:0:
140,124,46405,6,0,B|179:113|179:113|236:121|236:121|282:114,1,135.000005149842,4|0,0:0|0:0,0:0:0:0:
243,51,46715,1,0,0:0:0:0:
230,48,46818,1,8,0:0:0:0:
280,201,47025,6,0,P|300:228|300:261,1,67.5000025749208
193,201,47232,2,0,P|205:146|296:121,1,135.000005149842
337,172,47543,1,0,0:0:0:0:
337,172,47646,2,0,P|318:191|260:195,1,67.5000025749208
192,201,47853,1,0,0:0:0:0:
204,169,47956,1,0,0:0:0:0:
159,89,48060,6,0,B|131:110|79:96|79:96|61:69|61:34,1,135.000005149842
96,189,48370,1,0,0:0:0:0:
103,200,48474,2,0,P|110:232|91:280,2,67.5000025749208
40,236,48784,1,0,0:0:0:0:
33,250,48887,1,0,0:0:0:0:
127,88,49094,5,0,0:0:0:0:
101,265,49301,2,0,B|110:293|110:293|87:334,2,67.5000025749208
127,88,49715,5,0,0:0:0:0:
261,150,49922,1,0,0:0:0:0:
256,140,50129,1,0,0:0:0:0:
122,202,50336,1,0,0:0:0:0:
376,311,50543,5,0,0:0:0:0:
379,298,50749,1,0,0:0:0:0:
377,284,50956,1,8,0:0:0:0:
369,272,51163,1,0,0:0:0:0:
225,93,51370,6,0,B|212:72|212:72|223:110|197:144,1,90
402,121,51784,2,0,B|428:79|459:100|459:100|438:107|438:107|430:129,1,90
434,203,52094,1,0,0:0:0:0:
438,194,52198,1,0,0:0:0:0:
308,276,52405,5,0,0:0:0:0:
175,253,52611,1,0,0:0:0:0:
267,155,52818,1,0,0:0:0:0:
175,253,53025,6,0,B|163:207|163:207|169:154|169:154|159:113,1,135.000005149842,4|0,0:0|0:0,0:0:0:0:
98,163,53335,1,0,0:0:0:0:
83,178,53439,1,8,0:0:0:0:
353,172,53646,6,0,P|359:208|380:246,1,67.5000025749208
399,114,53852,2,0,B|362:96|326:101|326:101|290:126|277:161,1,135.000005149842,0|0,3:0|0:0,0:0:0:0:
214,199,54163,1,0,0:0:0:0:
214,199,54266,2,0,P|250:205|288:226,1,67.5000025749208,8|0,0:0|0:0,0:0:0:0:
214,296,54473,1,2,0:0:0:0:
227,268,54577,1,2,0:0:0:0:
295,286,54680,6,0,P|320:320|431:298,1,135.000005149842,0|0,3:0|0:0,0:0:0:0:
447,216,54990,1,0,0:0:0:0:
453,236,55094,1,8,0:0:0:0:
397,136,55301,1,0,0:0:0:0:
363,265,55508,1,0,0:0:0:0:
344,29,55715,5,8,0:0:0:0:
363,265,55921,2,0,P|329:256|299:266,1,67.5000025749208,8|0,0:0|0:0,0:0:0:0:
243,332,56128,1,0,0:0:0:0:
274,166,56335,5,0,0:0:0:0:
243,332,56542,1,0,0:0:0:0:
173,102,56749,1,8,0:0:0:0:
204,268,56956,1,0,0:0:0:0:
274,166,57163,5,0,0:0:0:0:
336,189,57369,1,0,0:0:0:0:
403,185,57576,1,8,0:0:0:0:
464,157,57783,1,0,0:0:0:0:
110,61,57990,5,0,0:0:0:0:
135,179,58197,1,0,0:0:0:0:
316,125,58405,1,8,0:0:0:0:
291,243,58612,1,0,0:0:0:0:
130,302,58818,5,0,0:0:0:0:
129,288,59025,1,0,0:0:0:0:
129,105,59232,1,8,0:0:0:0:
128,270,59439,1,8,0:0:0:0:
372,260,59646,6,0,B|333:271|333:271|276:263|276:263|230:270,1,135.000005149842,4|0,0:0|0:0,0:0:0:0:
271,343,59956,1,0,0:0:0:0:
280,334,60059,1,8,0:0:0:0:
258,158,60266,6,0,P|263:125|259:92,1,67.5000025749208
383,170,60473,2,0,B|371:167|349:153|349:153|330:164|309:170|309:170|295:162|229:154,1,135.000005149842
225,225,60784,1,0,0:0:0:0:
225,225,60887,2,0,P|195:201|183:165,1,67.5000025749208
217,303,61094,1,0,0:0:0:0:
248,318,61197,1,0,0:0:0:0:
287,254,61301,6,0,B|315:233|367:247|367:247|385:274|385:309,1,135.000005149842
416,195,61611,1,0,0:0:0:0:
409,184,61715,2,0,P|412:142|400:105,1,67.5000025749208
337,153,61922,2,0,P|303:151|267:175,1,67.5000025749208
225,225,62129,1,0,0:0:0:0:
385,296,62335,5,0,0:0:0:0:
405,117,62542,2,0,B|408:87|421:63|417:48,2,67.5000025749208
385,296,62956,5,0,0:0:0:0:
293,315,63163,1,0,0:0:0:0:
110,263,63370,1,8,0:0:0:0:
202,244,63577,1,0,0:0:0:0:
382,82,63784,5,0,0:0:0:0:
443,112,63991,1,0,0:0:0:0:
381,150,64198,1,8,0:0:0:0:
442,180,64405,1,0,0:0:0:0:
287,291,64611,6,0,B|300:312|300:312|289:274|315:240,1,90,8|0,0:0|0:0,0:0:0:0:
204,161,65025,2,0,B|178:203|146:181|146:181|168:175|168:175|176:153,1,90,2|0,0:0|0:0,0:0:0:0:
323,84,65439,2,0,B|313:74|313:74|296:116|342:145,1,90
94,274,65853,6,0,B|77:294|49:305|49:305|85:307|103:318|103:318|68:323|42:347,1,153.000002918243,8|0,1:0|0:0,0:0:0:0:
334,139,66267,6,0,P|281:129|199:184,1,140.400004713135,4|8,0:0|0:0,0:0:0:0:
288,218,66887,1,0,0:0:0:0:
221,269,67094,1,0,0:0:0:0:
140,245,67301,1,0,0:0:0:0:
208,169,67508,2,0,P|204:129|209:75,1,70.2000023565675,8|0,0:0|0:0,0:0:0:0:
281,137,67922,5,0,0:0:0:0:
319,61,68129,1,0,0:0:0:0:
237,40,68336,2,0,P|201:33|157:55,1,70.2000023565675,8|0,0:0|0:0,0:0:0:0:
206,109,68749,1,0,0:0:0:0:
168,185,68956,1,0,0:0:0:0:
252,178,69163,2,0,P|288:185|332:163,1,70.2000023565675,8|0,0:0|0:0,0:0:0:0:
68,304,69577,6,0,B|107:296|107:296|170:306|170:306|209:300,1,140.400004713135
318,174,70198,1,0,0:0:0:0:
303,256,70405,1,0,0:0:0:0:
235,206,70611,1,0,0:0:0:0:
256,124,70818,2,0,P|262:86|263:54,1,70.2000023565675
169,151,71232,5,0,0:0:0:0:
256,124,71439,1,0,0:0:0:0:
331,181,71646,2,0,P|369:188|414:154,1,70.2000023565675
418,94,72060,1,2,0:0:0:0:
331,181,72267,5,8,3:0:0:0:
255,52,72474,1,0,3:0:0:0:
301,252,72681,1,0,0:0:0:0:
197,95,72887,6,0,P|148:83|94:106,1,90,0|2,0:0|0:0,0:0:0:0:
394,272,73715,1,0,0:0:0:0:
155,152,74129,1,2,0:0:0:0:
352,329,74543,6,0,P|401:341|455:318,1,90,0|2,0:0|0:0,0:0:0:0:
155,152,75371,1,0,0:0:0:0:
394,272,75784,2,0,B|375:268|362:275|362:275|338:274|322:264,1,67.5
303,260,76198,6,0,P|258:253|200:277,3,90
128,186,77853,5,8,0:0:0:0:
382,195,78060,1,0,3:0:0:0:
93,245,78267,5,8,0:0:0:0:
395,127,78474,1,0,3:0:0:0:
63,308,78680,6,0,P|94:313|126:304,1,45
172,189,78887,2,0,P|141:184|109:193,1,45
213,281,79094,6,0,B|225:289|225:289|248:290|248:290|257:273|284:263,1,67.5000025749208,8|0,3:0|0:0,0:0:0:0:
395,127,79301,2,0,B|383:119|383:119|360:118|360:118|351:135|326:129|293:117,1,67.5000025749208,8|0,0:0|0:0,0:0:0:0:
280,177,79508,6,0,P|258:122|304:64,1,135.000005149842,4|0,3:0|0:0,0:0:0:0:
199,74,79818,1,0,0:0:0:0:
184,65,79922,1,8,0:0:0:0:
280,177,80129,2,0,P|312:171|356:188,1,67.5000025749208
322,279,80336,6,0,B|293:278|252:299|252:299|229:298|214:295|191:280,1,135.000005149842,0|0,3:0|0:0,0:0:0:0:
137,218,80646,1,0,0:0:0:0:
124,207,80749,2,0,P|86:200|37:212,1,67.5000025749208,8|0,0:0|0:0,0:0:0:0:
126,88,80956,1,2,0:0:0:0:
123,110,81060,1,2,0:0:0:0:
206,154,81163,6,0,P|223:99|176:30,1,135.000005149842,0|0,3:0|0:0,0:0:0:0:
321,108,81474,1,0,0:0:0:0:
321,108,81577,2,0,P|351:105|390:130,1,67.5000025749208,8|0,0:0|0:0,0:0:0:0:
206,154,81784,2,0,P|176:157|131:135,1,67.5000025749208
318,229,81991,1,0,3:0:0:0:
140,83,82198,5,8,0:0:0:0:
182,314,82405,1,8,0:0:0:0:
206,154,82611,1,0,0:0:0:0:
290,88,82818,6,0,B|312:101|312:101|324:99|349:83|349:83|332:105|351:113|339:157,1,135.000005149842
76,133,83232,2,0,B|70:138|53:150|53:150|101:150|122:161|137:178|134:212,1,135.000005149842,8|0,0:0|0:0,0:0:0:0:
192,336,83646,1,0,0:0:0:0:
208,184,83853,1,0,0:0:0:0:
273,335,84060,1,8,0:0:0:0:
87,272,84267,1,0,0:0:0:0:
208,184,84474,6,0,B|221:206|221:206|219:218|203:243|203:243|225:226|247:210|281:216,1,135.000005149842
200,46,84888,2,0,B|205:40|217:23|217:23|217:71|227:96|227:96|253:95|265:106,1,135.000005149842,8|0,0:0|0:0,0:0:0:0:
342,267,85302,1,0,0:0:0:0:
327,125,85509,1,0,0:0:0:0:
302,335,85716,1,8,0:0:0:0:
322,135,85923,1,8,0:0:0:0:
239,267,86129,6,0,P|183:277|123:224,1,135.000005149842
170,151,86439,1,0,0:0:0:0:
177,165,86543,1,8,0:0:0:0:
239,267,86749,2,0,P|262:258|291:221,1,67.5000025749208
368,193,86956,6,0,P|331:155|233:162,1,135.000005149842
169,201,87267,1,0,0:0:0:0:
169,201,87370,2,0,P|140:214|118:244,1,53.9999983520508,8|0,0:0|0:0,0:0:0:0:
96,139,87577,1,2,0:0:0:0:
93,117,87681,1,2,0:0:0:0:
174,120,87784,6,0,P|224:136|245:226,1,135.000005149842
294,288,88094,1,0,0:0:0:0:
294,288,88198,2,0,P|321:292|355:269,1,67.5000025749208,8|0,0:0|0:0,0:0:0:0:
174,120,88405,2,0,P|147:116|106:139,1,67.5000025749208
66,236,88611,1,0,0:0:0:0:
122,55,88818,5,8,0:0:0:0:
101,297,89025,1,8,0:0:0:0:
155,181,89232,1,0,0:0:0:0:
290,88,89439,6,0,B|274:124|294:119|289:151|289:151|283:132|258:125|258:125|245:131|212:141,1,135.000005149842
109,305,89853,2,0,B|103:310|70:255|106:223|106:223|118:248|118:248|109:268,1,135.000005149842,8|0,0:0|0:0,0:0:0:0:
228,274,90267,1,0,0:0:0:0:
312,206,90474,1,0,0:0:0:0:
224,143,90680,1,8,0:0:0:0:
308,75,90887,1,0,0:0:0:0:
155,260,91095,6,0,B|168:282|168:282|166:294|150:319|150:319|172:302|200:303|221:315,1,135.000005149842
200,46,91509,2,0,B|205:40|219:27|219:27|202:81|202:81|230:97|230:97|206:122,1,135.000005149842,8|0,0:0|0:0,0:0:0:0:
342,267,91923,1,0,0:0:0:0:
327,125,92130,1,0,0:0:0:0:
302,335,92337,1,8,0:0:0:0:
322,135,92544,1,8,0:0:0:0:
106,149,92749,6,0,P|170:138|205:198,1,135.000005149842,4|0,3:0|0:0,0:0:0:0:
168,256,93059,1,0,0:0:0:0:
153,271,93163,1,8,0:0:0:0:
357,147,93370,6,0,P|363:183|384:221,1,67.5000025749208
399,69,93576,2,0,B|362:51|326:56|326:56|290:81|277:116,1,135.000005149842,0|0,3:0|0:0,0:0:0:0:
214,199,93887,1,0,0:0:0:0:
214,199,93990,2,0,P|250:205|288:226,1,67.5000025749208,8|0,0:0|0:0,0:0:0:0:
365,263,94197,1,2,0:0:0:0:
347,240,94301,1,2,0:0:0:0:
295,286,94404,6,0,P|320:320|431:298,1,135.000005149842,0|0,3:0|0:0,0:0:0:0:
447,216,94714,1,0,0:0:0:0:
453,236,94818,1,8,0:0:0:0:
397,136,95025,1,0,0:0:0:0:
363,265,95232,1,0,0:0:0:0:
344,29,95439,5,8,0:0:0:0:
363,265,95645,2,0,P|326:271|288:276,1,67.5000025749208,8|0,0:0|0:0,0:0:0:0:
196,285,95852,1,0,0:0:0:0:
234,140,96059,5,0,0:0:0:0:
296,275,96266,1,0,0:0:0:0:
182,89,96474,1,8,0:0:0:0:
230,218,96681,1,0,0:0:0:0:
382,82,96887,5,0,0:0:0:0:
366,104,97094,1,0,0:0:0:0:
367,130,97301,1,8,0:0:0:0:
383,152,97508,1,0,0:0:0:0:
110,61,97714,5,0,0:0:0:0:
287,128,97921,1,0,0:0:0:0:
166,135,98129,1,8,0:0:0:0:
343,68,98336,1,0,0:0:0:0:
78,142,98542,5,0,0:0:0:0:
343,68,98749,1,0,0:0:0:0:
109,64,98956,1,8,0:0:0:0:
287,128,99163,1,8,0:0:0:0:
372,260,99370,6,0,B|333:271|333:271|276:263|276:263|230:270,1,135.000005149842,4|0,0:0|0:0,0:0:0:0:
269,333,99680,1,0,0:0:0:0:
282,336,99783,1,8,0:0:0:0:
232,183,99990,6,0,P|212:156|212:123,1,67.5000025749208
319,183,100197,2,0,P|307:238|216:263,1,135.000005149842
175,212,100508,1,0,0:0:0:0:
175,212,100611,2,0,P|194:193|252:189,1,67.5000025749208
320,183,100818,1,0,0:0:0:0:
308,215,100921,1,0,0:0:0:0:
353,295,101025,6,0,B|381:274|433:288|433:288|451:315|451:350,1,135.000005149842
416,195,101335,1,0,0:0:0:0:
409,184,101439,2,0,P|402:152|421:104,2,67.5000025749208
472,148,101749,1,0,0:0:0:0:
479,134,101852,1,0,0:0:0:0:
385,296,102059,5,0,0:0:0:0:
411,119,102266,2,0,B|402:91|402:91|425:50,2,67.5000025749208
385,296,102680,5,0,0:0:0:0:
251,234,102887,1,0,0:0:0:0:
256,244,103094,1,0,0:0:0:0:
390,182,103301,1,0,0:0:0:0:
136,73,103508,5,0,0:0:0:0:
133,86,103714,1,0,0:0:0:0:
135,100,103921,1,8,0:0:0:0:
143,112,104128,1,0,0:0:0:0:
287,291,104335,6,0,B|300:312|300:312|289:274|315:240,1,90
110,263,104749,2,0,B|84:305|53:284|53:284|74:277|74:277|82:255,1,90
78,181,105059,1,0,0:0:0:0:
74,190,105163,1,2,0:0:0:0:
204,108,105370,5,8,0:0:0:0:
337,131,105576,1,8,0:0:0:0:
245,229,105783,1,0,3:0:0:0:
