osu file format v14

[General]
AudioFilename: audio.mp3
AudioLeadIn: 0
PreviewTime: 59340
Countdown: 0
SampleSet: Soft
StackLeniency: 0.4
Mode: 0
LetterboxInBreaks: 0
WidescreenStoryboard: 1

[Editor]
Bookmarks: 264,15033,29802,44571,59340,61187,90725,112879,127648,129494,158110,159033,173802,188571,190417,205187,219956
DistanceSpacing: 1.4
BeatDivisor: 4
GridSize: 8
TimelineZoom: 1

[Metadata]
Title:SOBER
TitleUnicode:맨정신
Artist:BIGBANG
ArtistUnicode:BIGBANG
Creator:Syph
Version:NORMAL
Source:
Tags:kpop made teddy choice37 g-dragon t.o.p top seungri taeyang daesung lilyanna
BeatmapID:1537559
BeatmapSetID:702375

[Difficulty]
HPDrainRate:4
CircleSize:3
OverallDifficulty:4
ApproachRate:5
SliderMultiplier:1.2
SliderTickRate:1

[Events]
//Background and Video events
0,0,"sober.jpg",0,0
//Break Periods
2,159284,172630
//Storyboard Layer 0 (Background)
//Storyboard Layer 1 (Fail)
//Storyboard Layer 2 (Pass)
//Storyboard Layer 3 (Foreground)
//Storyboard Sound Samples

[TimingPoints]
315,461.538461538462,4,2,0,70,1,0
15084,-100,4,2,0,65,0,0
42776,-100,4,2,0,60,0,0
61238,-100,4,2,0,75,0,1
90776,-100,4,2,0,65,0,0
112930,-100,4,2,0,60,0,0
129545,-100,4,2,0,75,0,1
158161,-100,4,2,0,65,0,0
158622,-100,4,2,0,55,0,0
173853,-100,4,2,0,60,0,0
205238,-100,4,2,0,70,0,0

[Colours]
Combo1 : 253,149,177
Combo2 : 142,225,253
Combo3 : 248,176,146
Combo4 : 145,251,150

[HitObjects]
72,134,315,6,0,P|126:121|189:150,1,120,6|0,1:2|1:0,0:0:0:0:
238,208,1007,2,0,P|295:220|349:197,1,120,2|2,0:0|0:0,0:0:0:0:
416,145,1699,1,8,1:0:0:0:
416,145,1930,1,8,0:0:0:0:
480,91,2161,2,0,P|449:65|364:74,1,120,6|0,1:2|1:0,0:0:0:0:
305,118,2853,2,0,P|274:144|189:135,1,120,2|2,0:0|0:0,0:0:0:0:
129,92,3545,1,8,1:0:0:0:
129,92,4007,6,0,B|109:145|109:145|128:206,1,120,6|0,1:2|1:0,0:0:0:0:
192,258,4699,2,0,B|212:311|212:311|193:372,1,120,2|2,0:0|0:0,0:0:0:0:
109,381,5391,1,8,1:0:0:0:
109,381,5622,1,8,0:0:0:0:
33,343,5853,2,0,P|60:311|140:305,1,120,6|0,1:2|1:0,0:0:0:0:
210,337,6545,2,0,P|237:368|317:374,1,120,2|2,0:0|0:0,0:0:0:0:
396,353,7238,1,8,1:0:0:0:
396,353,7699,6,0,B|393:305|393:305|402:283|402:283|402:231,1,120,6|0,1:2|1:0,0:0:0:0:
348,171,8391,2,0,B|300:168|300:168|278:177|278:177|226:177,1,120,2|2,0:0|0:0,0:0:0:0:
145,180,9084,1,8,1:0:0:0:
145,180,9315,1,8,0:0:0:0:
99,250,9545,2,0,P|66:218|76:125,1,120,6|0,1:2|1:0,0:0:0:0:
127,93,10238,2,0,P|171:93|228:168,1,120,2|2,0:0|0:0,0:0:0:0:
229,227,10930,1,8,1:0:0:0:
229,227,11391,6,0,B|271:245|271:245|355:230,1,120,6|0,1:2|1:0,0:0:0:0:
395,165,12084,2,0,B|353:147|353:147|269:162,1,120,2|2,0:0|0:0,0:0:0:0:
210,112,12776,1,8,1:0:0:0:
210,112,13007,1,8,0:0:0:0:
153,174,13238,6,0,B|124:182|124:182|86:174,1,60,6|0,1:2|0:0,0:0:0:0:
30,121,13699,2,0,B|22:92|22:92|30:54,1,60,0|0,1:0|0:0,0:0:0:0:
91,6,14161,2,0,B|120:-2|120:-2|158:6,1,60,4|8,3:0|0:0,0:0:0:0:
211,60,14622,1,8,1:0:0:0:
369,5,15084,5,4,0:0:0:0:
369,5,15545,2,0,P|360:44|366:67,1,60,0|0,1:0|0:0,0:0:0:0:
418,127,16007,2,0,P|427:166|421:189,1,60,8|0,3:0|0:0,0:0:0:0:
363,244,16468,2,0,P|354:283|360:306,1,60,0|0,1:0|0:0,0:0:0:0:
300,363,16930,2,0,P|345:345|420:371,2,120,2|0|8,1:2|1:0|3:0,0:0:0:0:
175,249,18315,1,0,1:0:0:0:
290,126,18776,6,0,B|312:169|312:169|301:246,1,120,2|0,1:2|1:0,0:0:0:0:
248,304,19468,1,0,0:0:0:0:
248,304,19699,2,0,P|197:310|179:304,1,60,8|0,3:0|0:0,0:0:0:0:
120,259,20161,2,0,P|69:253|51:259,1,60,0|0,1:0|0:0,0:0:0:0:
7,190,20622,2,0,P|20:247|-1:302,2,120,2|0|8,1:2|1:0|3:0,0:0:0:0:
153,108,22007,1,0,1:0:0:0:
265,232,22468,5,2,1:2:0:0:
265,232,22930,2,0,P|296:240|329:233,1,60,0|0,1:0|0:0,0:0:0:0:
389,183,23391,2,0,P|397:152|390:119,1,60,8|0,3:0|0:0,0:0:0:0:
343,55,23853,2,0,P|312:47|279:54,1,60,0|0,1:0|0:0,0:0:0:0:
224,111,24315,2,0,P|242:66|216:-9,2,120,2|0|8,1:2|1:0|0:3,0:0:0:0:
169,174,25468,1,0,0:0:0:0:
169,174,25699,2,0,P|162:218|171:239,1,60,0|0,1:0|0:0,0:0:0:0:
191,312,26161,5,2,1:2:0:0:
312,195,26622,2,0,P|362:182|439:202,1,120,0|8,1:0|3:0,0:0:0:0:
483,267,27315,1,2,0:0:0:0:
483,267,27545,2,0,P|490:311|481:332,1,60,0|0,1:0|0:0,0:0:0:0:
412,365,28007,2,0,B|355:377|355:377|288:359,2,120,2|0|4,1:2|1:0|3:0,0:0:0:0:
482,318,29161,1,2,1:2:0:0:
482,318,29391,2,0,P|488:288|479:260,1,60,0|0,1:0|1:0,0:0:0:0:
449,182,29853,5,6,1:2:0:0:
449,182,30314,2,0,P|410:173|387:179,1,60,0|0,1:0|0:0,0:0:0:0:
327,231,30776,2,0,P|288:240|265:234,1,60,8|0,3:0|0:0,0:0:0:0:
210,176,31237,2,0,P|171:167|148:173,1,60,0|0,1:0|0:0,0:0:0:0:
91,113,31699,2,0,P|109:158|83:233,2,120,2|0|8,1:2|1:0|3:0,0:0:0:0:
254,73,33084,1,0,1:0:0:0:
322,226,33545,6,0,B|279:248|279:248|202:237,1,120,2|0,1:2|1:0,0:0:0:0:
144,184,34237,1,0,0:0:0:0:
144,184,34468,2,0,P|93:178|75:184,1,60,8|0,3:0|0:0,0:0:0:0:
39,250,34930,2,0,P|33:301|39:319,1,60,0|0,1:0|0:0,0:0:0:0:
101,360,35391,2,0,P|158:373|213:352,2,120,2|0|8,1:2|1:0|3:0,0:0:0:0:
43,202,36776,1,0,1:0:0:0:
216,201,37237,5,2,1:2:0:0:
216,201,37699,2,0,P|208:232|215:265,1,60,0|0,1:0|0:0,0:0:0:0:
265,325,38160,2,0,P|296:333|329:326,1,60,8|2,3:0|0:0,0:0:0:0:
393,279,38622,2,0,P|401:248|394:215,1,60,0|0,1:0|0:0,0:0:0:0:
337,160,39084,2,0,P|382:178|457:152,2,120,2|0|8,1:2|1:0|3:0,0:0:0:0:
274,105,40237,1,0,0:0:0:0:
274,105,40468,2,0,P|230:98|209:107,1,60,0|0,1:0|0:0,0:0:0:0:
136,127,40930,5,2,1:2:0:0:
279,214,41391,2,0,P|292:264|272:341,1,120,0|8,1:0|3:0,0:0:0:0:
201,364,42084,1,0,0:0:0:0:
201,364,42314,2,0,P|157:371|136:362,1,60,0|0,1:0|0:0,0:0:0:0:
88,302,42776,2,0,B|76:245|76:245|94:178,2,120,0|4|0,1:0|3:0|1:0,0:0:0:0:
142,373,43930,1,0,1:0:0:0:
142,373,44160,2,0,P|172:379|200:370,1,60,0|4,1:0|3:0,0:0:0:0:
279,336,44622,5,6,1:2:0:0:
279,336,45084,2,0,P|296:286|278:217,2,120,0|0|0,0:0|0:0|0:0,0:0:0:0:
158,218,46468,2,0,P|141:168|159:99,2,120,4|0|0,0:0|0:0|3:0,0:0:0:0:
281,103,47853,1,0,3:0:0:0:
281,103,48315,6,0,P|341:89|411:106,2,120,6|0|0,0:0|0:0|0:0,0:0:0:0:
167,226,49699,1,0,0:0:0:0:
52,102,50161,2,0,P|90:93|115:98,1,60,0|0,1:0|1:0,0:0:0:0:
180,50,50622,2,0,P|218:59|243:54,1,60,6|0,0:0|0:0,0:0:0:0:
306,105,51084,2,0,P|344:96|369:101,1,60,8|0,3:0|1:0,0:0:0:0:
434,155,51545,1,0,3:0:0:0:
434,155,51776,1,8,3:0:0:0:
482,223,52007,5,6,0:0:0:0:
348,325,52468,2,0,P|298:342|229:324,2,120,0|0|0,0:0|0:0|0:0,0:0:0:0:
397,164,53853,2,0,P|447:147|516:165,2,120,2|0|2,0:0|0:0|0:0,0:0:0:0:
365,329,55238,1,2,0:0:0:0:
246,210,55699,6,0,P|196:193|127:211,2,120,6|0|0,0:0|0:0|0:0,0:0:0:0:
380,311,57084,1,0,1:0:0:0:
478,175,57545,2,0,B|486:147|486:147|479:106,1,60,0|0,1:0|0:0,0:0:0:0:
421,56,58007,2,0,B|393:48|393:48|352:55,1,60,0|0,1:0|0:0,0:0:0:0:
318,124,58468,1,0,1:0:0:0:
237,100,58699,1,0,1:0:0:0:
156,76,58930,1,0,1:0:0:0:
156,76,61238,6,0,B|134:120|134:120|148:199,1,120,6|0,1:2|1:0,0:0:0:0:
195,258,61930,2,0,P|227:263|262:250,1,60,2|8,0:0|3:0,0:0:0:0:
320,205,62391,1,2,0:0:0:0:
320,205,62622,2,0,B|353:199|353:199|392:205,1,60,8|8,1:0|0:0,0:0:0:0:
425,273,63084,2,0,P|419:229|462:168,1,120,6|0,1:2|1:0,0:0:0:0:
511,102,63776,2,0,P|516:70|503:35,1,60,2|8,0:0|3:0,0:0:0:0:
434,2,64238,1,0,0:0:0:0:
434,2,64468,1,8,1:0:0:0:
333,136,64930,6,0,B|289:158|289:158|210:144,1,120,6|0,1:2|1:0,0:0:0:0:
150,97,65622,2,0,P|125:89|76:99,1,60,2|8,0:0|3:0,0:0:0:0:
24,142,66084,1,0,0:0:0:0:
24,142,66315,2,0,B|17:173|17:173|21:206,1,60,8|8,1:0|0:0,0:0:0:0:
78,261,66776,2,0,P|116:237|205:249,1,120,6|0,1:2|1:0,0:0:0:0:
260,295,67468,1,2,0:0:0:0:
260,295,67699,2,0,P|275:267|275:226,1,60,8|4,3:0|3:0,0:0:0:0:
230,169,68161,2,0,P|215:141|215:100,1,60,8|0,1:0|1:0,0:0:0:0:
292,88,68622,6,0,B|248:66|248:66|169:80,1,120,6|0,1:2|1:0,0:0:0:0:
103,116,69314,2,0,P|98:148|111:183,1,60,2|8,0:0|3:0,0:0:0:0:
158,247,69775,1,2,0:0:0:0:
158,247,70007,2,0,B|164:280|164:280|158:319,1,60,8|8,1:0|0:0,0:0:0:0:
85,344,70468,2,0,P|129:338|190:381,1,120,6|0,1:2|1:0,0:0:0:0:
272,379,71160,2,0,P|304:384|339:371,1,60,2|8,0:0|3:0,0:0:0:0:
407,341,71622,1,2,0:0:0:0:
407,341,71852,1,8,0:0:0:0:
271,242,72314,6,0,B|249:198|249:198|263:119,1,120,6|0,1:2|1:0,0:0:0:0:
345,122,73007,2,0,P|353:97|343:48,1,60,2|8,0:0|3:0,0:0:0:0:
286,9,73468,1,2,0:0:0:0:
286,9,73699,2,0,B|255:2|255:2|222:6,1,60,8|8,1:0|0:0,0:0:0:0:
156,59,74160,2,0,P|180:97|168:186,1,120,6|0,1:2|1:0,0:0:0:0:
122,234,74852,1,0,0:0:0:0:
122,234,75083,1,0,1:0:0:0:
172,309,75315,1,0,1:0:0:0:
172,309,75545,2,0,B|203:317|203:317|241:309,1,60,0|0,1:0|1:0,0:0:0:0:
294,256,76007,6,0,P|354:240|425:270,2,120,6|0|8,1:2|1:0|3:0,0:0:0:0:
138,319,77391,1,2,1:2:0:0:
138,319,77622,1,0,0:0:0:0:
83,255,77853,2,0,P|78:219|86:192,1,60,6|0,1:2|0:0,0:0:0:0:
153,147,78315,2,0,P|158:111|150:84,1,60,0|0,1:0|0:0,0:0:0:0:
102,20,78776,2,0,P|154:40|221:30,1,120,8|0,3:0|1:0,0:0:0:0:
294,0,79468,1,0,0:0:0:0:
294,0,79699,6,0,B|317:41|317:41|298:125,2,120,6|0|8,1:2|1:0|3:0,0:0:0:0:
435,91,81084,1,0,1:0:0:0:
435,91,81545,2,0,B|441:122|441:122|434:157,1,60,6|0,1:2|0:0,0:0:0:0:
369,203,82007,2,0,B|363:234|363:234|370:269,1,60,6|0,1:2|0:0,0:0:0:0:
433,325,82468,1,2,1:3:0:0:
508,287,82699,1,8,3:0:0:0:
511,203,82930,1,0,1:0:0:0:
442,154,83161,1,0,1:0:0:0:
369,203,83391,6,0,P|309:219|238:189,2,120,6|0|8,1:2|1:0|3:0,0:0:0:0:
400,38,84775,1,2,1:2:0:0:
400,38,85006,1,0,0:0:0:0:
455,102,85237,2,0,P|460:138|452:165,1,60,6|0,1:2|0:0,0:0:0:0:
385,210,85699,2,0,P|380:246|388:273,1,60,0|0,1:0|0:0,0:0:0:0:
436,337,86160,2,0,P|384:317|317:327,1,120,8|2,3:0|1:2,0:0:0:0:
252,373,86852,1,0,0:0:0:0:
252,373,87083,6,0,B|229:332|229:332|248:248,2,120,6|0|8,1:2|1:0|3:0,0:0:0:0:
96,308,88468,1,0,1:0:0:0:
96,308,88930,2,0,B|90:277|90:277|97:242,1,60,6|2,1:2|0:0,0:0:0:0:
162,196,89391,2,0,B|168:165|168:165|161:130,1,60,6|0,1:2|0:0,0:0:0:0:
98,74,89852,1,4,3:0:0:0:
23,112,90083,1,0,1:0:0:0:
20,196,90314,1,0,1:0:0:0:
89,245,90545,1,0,1:0:0:0:
162,196,90776,6,0,P|194:191|222:197,1,60,6|0,1:2|0:0,0:0:0:0:
294,237,91238,2,0,P|347:251|419:238,1,120,2|8,1:2|3:0,0:0:0:0:
480,194,91930,1,0,0:0:0:0:
480,194,92161,2,0,P|486:165|480:133,1,60,0|0,1:0|0:0,0:0:0:0:
413,84,92622,2,0,P|384:78|352:84,1,60,2|0,1:2|0:0,0:0:0:0:
288,135,93084,2,0,P|259:141|227:135,1,60,2|2,1:2|0:0,0:0:0:0:
165,89,93545,1,0,1:0:0:0:
165,89,93776,1,0,0:0:0:0:
91,134,94007,2,0,P|85:163|91:195,1,60,0|0,1:0|0:0,0:0:0:0:
142,258,94468,6,0,P|171:264|203:258,1,60,2|2,1:2|0:0,0:0:0:0:
279,229,94930,2,0,P|294:189|285:113,1,120,2|8,1:2|3:0,0:0:0:0:
152,10,95853,1,0,1:0:0:0:
152,10,96315,2,0,P|146:41|150:76,1,60,2|2,1:2|0:0,0:0:0:0:
203,132,96776,2,0,P|243:147|319:138,1,120,0|8,1:0|3:0,0:0:0:0:
391,97,97468,1,0,0:0:0:0:
391,97,97699,2,0,B|423:93|423:93|457:99,1,60,0|0,1:0|1:0,0:0:0:0:
422,177,98161,6,0,P|390:182|362:176,1,60,6|0,1:2|0:0,0:0:0:0:
290,136,98623,2,0,P|237:122|165:135,1,120,2|8,1:2|3:0,0:0:0:0:
104,179,99315,1,2,0:0:0:0:
104,179,99546,2,0,P|98:208|104:240,1,60,2|0,1:2|0:0,0:0:0:0:
171,289,100007,2,0,P|200:295|232:289,1,60,2|2,1:2|0:0,0:0:0:0:
295,236,100469,2,0,P|324:230|356:236,1,60,0|2,1:0|0:0,0:0:0:0:
425,289,100930,1,8,3:0:0:0:
425,289,101161,1,0,0:0:0:0:
493,239,101392,2,0,P|499:210|493:178,1,60,0|0,1:0|0:0,0:0:0:0:
442,115,101853,6,0,P|413:109|381:115,1,60,2|0,1:2|0:0,0:0:0:0:
305,144,102315,2,0,P|290:184|299:260,1,120,2|8,1:2|3:0,0:0:0:0:
432,363,103238,1,0,1:0:0:0:
432,363,103700,2,0,P|438:332|434:297,1,60,2|0,1:2|0:0,0:0:0:0:
381,241,104161,2,0,P|341:226|265:235,1,120,0|2,1:0|0:0,0:0:0:0:
193,276,104853,1,0,0:0:0:0:
193,276,105084,2,0,B|161:280|161:280|127:274,1,60,0|0,0:0|0:0,0:0:0:0:
107,195,105545,6,0,P|139:190|167:196,1,60,6|0,1:2|0:0,0:0:0:0:
239,236,106007,2,0,P|292:250|364:237,1,120,2|8,1:2|3:0,0:0:0:0:
425,193,106699,1,2,0:0:0:0:
425,193,106930,2,0,P|431:164|425:132,1,60,0|0,1:0|0:0,0:0:0:0:
358,83,107391,2,0,P|329:77|297:83,1,60,2|2,1:2|0:0,0:0:0:0:
232,134,107853,2,0,P|203:140|171:134,1,60,0|2,1:0|2:0,0:0:0:0:
108,87,108314,1,8,3:0:0:0:
108,87,108545,1,0,0:0:0:0:
36,133,108776,2,0,P|30:162|36:194,1,60,2|0,1:2|0:0,0:0:0:0:
87,257,109237,6,0,P|116:263|148:257,1,60,2|0,1:2|0:0,0:0:0:0:
224,228,109699,2,0,P|239:188|230:112,1,120,2|8,1:2|3:0,0:0:0:0:
97,9,110622,1,0,1:0:0:0:
97,9,111084,2,0,P|91:40|95:75,1,60,2|0,1:2|0:0,0:0:0:0:
148,131,111545,2,0,P|188:146|264:137,1,120,0|4,1:0|3:0,0:0:0:0:
351,143,112237,1,0,1:0:0:0:
351,143,112468,2,0,B|355:111|355:111|349:77,1,60,2|4,1:2|3:0,0:0:0:0:
279,48,112930,5,6,1:2:0:0:
279,48,113392,2,0,P|296:98|278:167,2,120,0|0|0,0:0|0:0|0:0,0:0:0:0:
158,166,114776,2,0,P|141:216|159:285,2,120,4|0|0,0:0|0:0|3:0,0:0:0:0:
281,281,116161,1,0,3:0:0:0:
281,281,116623,6,0,P|341:295|411:278,2,120,6|0|0,0:0|0:0|0:0,0:0:0:0:
167,158,118007,1,0,0:0:0:0:
52,282,118469,2,0,P|90:291|115:286,1,60,0|0,1:0|1:0,0:0:0:0:
180,334,118930,2,0,P|218:325|243:330,1,60,6|0,0:0|0:0,0:0:0:0:
306,279,119392,2,0,P|344:288|369:283,1,60,8|0,3:0|1:0,0:0:0:0:
434,229,119853,1,0,3:0:0:0:
434,229,120084,1,8,3:0:0:0:
482,161,120315,5,6,0:0:0:0:
348,59,120776,2,0,P|298:42|229:60,2,120,0|0|0,0:0|0:0|0:0,0:0:0:0:
397,220,122161,2,0,P|447:237|516:219,2,120,2|0|2,0:0|0:0|0:0,0:0:0:0:
365,55,123546,1,2,0:0:0:0:
246,174,124007,6,0,P|196:191|127:173,2,120,6|0|0,0:0|0:0|0:0,0:0:0:0:
380,73,125392,1,0,1:0:0:0:
478,209,125853,2,0,B|486:237|486:237|479:278,1,60,0|0,1:0|0:0,0:0:0:0:
421,328,126315,2,0,B|393:336|393:336|352:329,1,60,0|0,1:0|0:0,0:0:0:0:
318,260,126776,1,0,1:0:0:0:
237,284,127007,1,0,1:0:0:0:
156,308,127238,1,0,1:0:0:0:
156,308,129546,6,0,B|134:264|134:264|148:185,1,120,6|0,1:2|1:0,0:0:0:0:
195,126,130238,2,0,P|227:121|262:134,1,60,2|8,0:0|3:0,0:0:0:0:
325,182,130699,1,2,0:0:0:0:
325,182,130930,2,0,B|358:188|358:188|397:182,1,60,8|8,1:0|0:0,0:0:0:0:
425,111,131392,2,0,P|419:155|462:216,1,120,6|0,1:2|1:0,0:0:0:0:
511,282,132084,2,0,P|516:314|503:349,1,60,2|8,0:0|3:0,0:0:0:0:
434,382,132546,1,0,0:0:0:0:
434,382,132776,1,8,1:0:0:0:
333,248,133238,6,0,B|289:226|289:226|210:240,1,120,6|0,1:2|1:0,0:0:0:0:
150,287,133930,2,0,P|125:295|76:285,1,60,2|8,0:0|3:0,0:0:0:0:
24,242,134392,1,0,0:0:0:0:
24,242,134623,2,0,B|17:211|17:211|21:178,1,60,8|8,1:0|0:0,0:0:0:0:
78,123,135084,2,0,P|116:147|205:135,1,120,6|0,1:2|1:0,0:0:0:0:
254,89,135776,1,2,0:0:0:0:
254,89,136007,2,0,P|272:125|271:161,1,60,8|4,3:0|3:0,0:0:0:0:
230,216,136468,2,0,P|212:252|213:288,1,60,8|0,1:0|1:0,0:0:0:0:
292,296,136930,6,0,B|248:318|248:318|169:304,1,120,6|0,1:2|1:0,0:0:0:0:
103,268,137622,2,0,P|98:236|111:201,1,60,2|8,0:0|3:0,0:0:0:0:
156,142,138083,1,2,0:0:0:0:
156,142,138315,2,0,B|162:109|162:109|156:70,1,60,8|8,1:0|0:0,0:0:0:0:
85,40,138776,2,0,P|129:46|190:3,1,120,6|0,1:2|1:0,0:0:0:0:
271,2,139468,2,0,P|303:-3|338:10,1,60,2|8,0:0|3:0,0:0:0:0:
408,46,139930,1,2,0:0:0:0:
408,46,140160,1,8,0:0:0:0:
271,142,140622,6,0,B|249:186|249:186|263:265,1,120,6|0,1:2|1:0,0:0:0:0:
345,265,141315,2,0,P|353:290|343:339,1,60,2|8,0:0|3:0,0:0:0:0:
285,377,141776,1,2,0:0:0:0:
285,377,142007,2,0,B|254:384|254:384|221:380,1,60,8|8,1:0|0:0,0:0:0:0:
156,325,142468,2,0,P|180:287|168:198,1,120,6|0,1:2|1:0,0:0:0:0:
131,149,143160,1,0,0:0:0:0:
131,149,143391,1,0,1:0:0:0:
172,75,143623,1,0,1:0:0:0:
172,75,143853,2,0,B|203:67|203:67|241:75,1,60,0|0,1:0|1:0,0:0:0:0:
294,128,144315,6,0,P|354:144|425:114,2,120,6|0|8,1:2|1:0|3:0,0:0:0:0:
138,65,145699,1,2,1:2:0:0:
138,65,145930,1,0,0:0:0:0:
83,129,146161,2,0,P|78:165|86:192,1,60,6|0,1:2|0:0,0:0:0:0:
153,237,146623,2,0,P|158:273|150:300,1,60,0|0,1:0|0:0,0:0:0:0:
102,364,147084,2,0,P|154:344|221:354,1,120,8|0,3:0|1:0,0:0:0:0:
300,384,147776,1,0,0:0:0:0:
300,384,148007,6,0,B|323:343|323:343|304:259,2,120,6|0|8,1:2|1:0|3:0,0:0:0:0:
438,288,149392,1,0,1:0:0:0:
438,288,149853,2,0,B|444:257|444:257|437:222,1,60,6|0,1:2|0:0,0:0:0:0:
369,181,150315,2,0,B|363:150|363:150|370:115,1,60,6|0,1:2|0:0,0:0:0:0:
433,59,150776,1,2,1:3:0:0:
508,97,151007,1,8,3:0:0:0:
511,181,151238,1,0,1:0:0:0:
442,230,151469,1,0,1:0:0:0:
369,181,151699,6,0,P|309:165|238:195,2,120,6|0|8,1:2|1:0|3:0,0:0:0:0:
400,346,153083,1,2,1:2:0:0:
400,346,153314,1,0,0:0:0:0:
455,282,153545,2,0,P|460:246|452:219,1,60,6|0,1:2|0:0,0:0:0:0:
385,174,154007,2,0,P|380:138|388:111,1,60,0|0,1:0|0:0,0:0:0:0:
436,47,154468,2,0,P|384:67|317:57,1,120,8|2,3:0|1:2,0:0:0:0:
260,9,155160,1,0,0:0:0:0:
260,9,155391,6,0,B|237:50|237:50|256:134,2,120,6|0|8,1:2|1:0|3:0,0:0:0:0:
103,69,156776,1,0,1:0:0:0:
103,69,157238,2,0,B|97:100|97:100|104:135,1,60,6|2,1:2|0:0,0:0:0:0:
162,188,157699,2,0,B|168:219|168:219|161:254,1,60,6|0,1:2|0:0,0:0:0:0:
98,310,158160,1,4,3:0:0:0:
10,166,158622,1,0,0:0:0:0:
177,179,159084,1,6,0:0:0:0:
188,155,173853,6,0,B|121:158|121:158|93:143|93:143|11:147,2,180,2|4|8,1:2|3:0|3:0,0:0:0:0:
263,118,175468,1,0,0:0:0:0:
263,118,175699,2,0,B|330:121|330:121|357:106|357:106|439:110,2,180,8|0|4,0:0|1:0|3:0,0:0:0:0:
202,59,177315,1,8,3:0:0:0:
202,59,177545,2,0,P|239:34|347:97,2,180,2|4|8,1:2|3:0|3:0,0:0:0:0:
139,215,179391,1,2,0:0:0:0:
139,215,179622,2,0,P|82:227|9:209,2,120,0|0|8,0:0|0:0|3:0,0:0:0:0:
208,167,180776,2,0,P|243:161|277:167,1,60,4|0,3:0|1:0,0:0:0:0:
329,221,181238,6,0,P|364:227|398:221,1,60,2|0,1:2|0:0,0:0:0:0:
450,167,181699,2,0,P|456:132|450:98,1,60,0|0,0:0|1:0,0:0:0:0:
392,48,182161,2,0,P|357:42|323:48,1,60,0|0,0:0|0:0,0:0:0:0:
284,113,182622,1,0,1:0:0:0:
176,242,183084,6,0,P|141:248|107:242,1,60,2|0,0:0|0:0,0:0:0:0:
55,188,183545,2,0,P|49:153|55:119,1,60,8|0,3:0|0:0,0:0:0:0:
113,69,184007,2,0,P|148:63|182:69,1,60,0|0,0:0|0:0,0:0:0:0:
222,141,184468,1,2,0:0:0:0:
222,141,184699,1,0,0:0:0:0:
299,109,184930,2,0,P|345:98|424:118,1,120,2|0,1:2|0:0,0:0:0:0:
481,164,185622,2,0,B|499:202|499:202|483:295,2,120,0|2|0,1:0|0:0|0:0,0:0:0:0:
421,105,186776,6,0,L|427:36,2,60,6|0|0,0:0|3:0|1:0,0:0:0:0:
357,159,187468,1,8,3:0:0:0:
278,189,187699,2,0,P|246:192|216:187,1,60,0|0,1:0|1:0,0:0:0:0:
150,137,188161,2,0,P|118:134|88:139,1,60,2|0,1:2|1:0,0:0:0:0:
21,186,188622,1,6,1:2:0:0:
413,336,189776,1,4,1:3:0:0:
413,336,190007,2,0,L|416:273,1,60,0|0,1:0|0:0,0:0:0:0:
389,196,190468,6,0,P|432:194|496:304,2,180,6|2|0,1:2|0:0|0:0,0:0:0:0:
220,196,192315,2,0,P|177:194|113:304,2,180,2|0|0,1:2|1:0|1:0,0:0:0:0:
292,347,194161,2,0,L|309:150,2,180,6|2|0,1:2|0:0|0:0,0:0:0:0:
214,313,195776,1,0,0:0:0:0:
214,313,196007,2,0,P|182:304|149:308,1,60,2|0,0:0|1:0,0:0:0:0:
71,309,196468,2,0,P|80:265|148:220,1,120,0|4,1:0|3:0,0:0:0:0:
299,177,197391,2,0,P|308:145|304:112,1,60,0|4,1:0|3:0,0:0:0:0:
379,77,197853,6,0,P|422:75|486:185,2,180,6|2|0,1:2|0:0|0:0,0:0:0:0:
210,77,199700,2,0,P|167:75|103:185,2,180,6|0|0,1:2|0:0|0:0,0:0:0:0:
282,228,201546,2,0,L|299:31,2,180,6|0|0,1:2|1:0|0:0,0:0:0:0:
204,194,203161,1,4,3:0:0:0:
204,194,203392,2,0,P|172:185|139:189,1,60,4|4,1:0|3:0,0:0:0:0:
61,190,203853,2,0,P|70:146|138:101,1,120,4|0,1:0|1:0,0:0:0:0:
211,107,204545,1,0,1:0:0:0:
211,107,204776,2,0,P|243:116|276:112,1,60,0|0,1:0|1:0,0:0:0:0:
348,83,205238,6,0,B|379:132|379:132|354:264,1,180,6|2,1:2|0:0,0:0:0:0:
206,327,206391,1,0,0:0:0:0:
206,327,206622,2,0,P|174:330|135:323,1,60,0|0,1:0|0:0,0:0:0:0:
67,295,207084,2,0,B|36:246|36:246|61:114,1,180,2|2,1:2|0:0,0:0:0:0:
209,52,208237,1,0,0:0:0:0:
209,52,208468,2,0,P|241:49|280:56,1,60,0|0,1:0|0:0,0:0:0:0:
348,78,208930,6,0,B|352:145|352:145|332:176|332:176|337:261,1,180,6|2,1:2|0:0,0:0:0:0:
485,329,210084,1,0,0:0:0:0:
485,329,210315,2,0,P|492:290|486:268,1,60,0|0,1:0|0:0,0:0:0:0:
416,225,210776,2,0,B|412:158|412:158|432:127|432:127|427:42,1,180,2|2,1:2|0:0,0:0:0:0:
266,1,211930,1,8,3:0:0:0:
266,1,212161,2,0,P|259:40|265:62,1,60,4|2,3:0|0:0,0:0:0:0:
329,112,212622,6,0,L|126:96,1,180,6|2,1:2|0:0,0:0:0:0:
14,197,213776,1,0,0:0:0:0:
14,197,214007,2,0,P|6:226|14:267,1,60,0|0,1:0|0:0,0:0:0:0:
50,328,214468,2,0,L|253:344,1,180,2|2,1:2|0:0,0:0:0:0:
365,243,215622,1,0,0:0:0:0:
365,243,215853,2,0,P|373:214|365:173,1,60,0|0,1:0|0:0,0:0:0:0:
371,100,216315,6,0,B|334:81|334:81|173:110,1,180,6|2,1:2|0:0,0:0:0:0:
111,249,217468,1,0,0:0:0:0:
111,249,217699,2,0,P|148:258|181:249,1,60,0|0,1:0|0:0,0:0:0:0:
246,219,218161,2,0,B|279:212|279:212|316:223,1,60,2|0,1:2|0:0,0:0:0:0:
362,280,218622,2,0,B|369:313|369:313|358:350,1,60,0|0,1:0|0:0,0:0:0:0:
289,381,219084,1,0,1:0:0:0:
289,381,219315,1,0,1:0:0:0:
218,336,219545,1,0,1:0:0:0:
265,174,220007,5,6,0:0:0:0:
