osu file format v14

[General]
AudioFilename: audio.mp3
AudioLeadIn: 0
PreviewTime: 59340
Countdown: 0
SampleSet: Soft
StackLeniency: 0.4
Mode: 0
LetterboxInBreaks: 0
WidescreenStoryboard: 0

[Editor]
Bookmarks: 264,15033,29802,44571,59340,61187,90725,112879,127648,129494,158110,159033,173802,188571,190417,205187,219956
DistanceSpacing: 0.5
BeatDivisor: 4
GridSize: 8
TimelineZoom: 1

[Metadata]
Title:SOBER
TitleUnicode:맨정신
Artist:BIGBANG
ArtistUnicode:BIGBANG
Creator:Syph
Version:I HATE BEING SOBER.
Source:
Tags:kpop made teddy choice37 g-dragon t.o.p top seungri taeyang daesung lilyanna
BeatmapID:1486212
BeatmapSetID:702375

[Difficulty]
HPDrainRate:5.5
CircleSize:4
OverallDifficulty:8.3
ApproachRate:8
SliderMultiplier:1.8
SliderTickRate:1

[Events]
//Background and Video events
0,0,"sober.jpg",0,0
//Break Periods
2,159284,173103
//Storyboard Layer 0 (Background)
//Storyboard Layer 1 (Fail)
//Storyboard Layer 2 (Pass)
//Storyboard Layer 3 (Foreground)
//Storyboard Sound Samples

[TimingPoints]
315,461.538461538462,4,2,0,70,1,0
15084,-100,4,2,0,65,0,0
42776,-100,4,2,0,60,0,0
45084,-133.333333333333,4,2,0,60,0,0
61238,-86.9565217391304,4,2,0,75,0,1
90776,-105.263157894737,4,2,0,65,0,0
112930,-133.333333333333,4,2,0,60,0,0
129545,-86.9565217391304,4,2,0,75,0,1
158161,-86.9565217391304,4,2,0,65,0,0
158622,-133.333333333333,4,2,0,55,0,0
173853,-133.333333333333,4,2,0,60,0,0
205238,-100,4,2,0,70,0,0

[Colours]
Combo1 : 253,149,177
Combo2 : 142,225,253
Combo3 : 248,176,146
Combo4 : 145,251,150

[HitObjects]
96,144,315,6,0,P|152:128|232:208,1,180,6|0,1:2|1:0,0:0:0:0:
360,296,1007,2,0,P|352:256|368:208,1,90,2|8,0:0|3:0,0:0:0:0:
472,128,1468,1,2,0:0:0:0:
443,262,1699,1,8,1:0:0:0:
493,47,1930,1,8,0:0:0:0:
443,262,2161,6,0,B|412:267|390:251|390:251|375:263|375:263|330:232|270:261,1,180,6|0,1:2|1:0,0:0:0:0:
153,325,2853,2,0,P|161:285|145:237,1,90,2|8,0:0|3:0,0:0:0:0:
41,157,3314,1,2,0:0:0:0:
165,36,3545,2,0,L|152:136,1,90,8|0,1:0|0:0,0:0:0:0:
417,173,4007,6,0,P|361:157|281:237,1,180,6|0,1:2|1:0,0:0:0:0:
153,325,4699,2,0,P|161:285|145:237,1,90,2|8,0:0|3:0,0:0:0:0:
41,157,5160,1,2,0:0:0:0:
70,291,5391,1,8,1:0:0:0:
20,76,5622,1,8,0:0:0:0:
70,291,5853,6,0,B|140:278|140:278|173:288|173:288|248:279,1,180,6|0,1:2|1:0,0:0:0:0:
416,176,6545,2,0,P|385:168|321:193,1,90,2|8,0:0|3:0,0:0:0:0:
246,279,7007,1,2,0:0:0:0:
382,364,7238,2,0,B|398:321|398:321|381:266,1,90,8|0,1:0|0:0,0:0:0:0:
115,250,7699,6,0,P|171:266|251:186,1,180,6|0,1:2|1:0,0:0:0:0:
379,98,8391,2,0,P|371:138|387:186,1,90,2|8,0:0|3:0,0:0:0:0:
491,266,8852,1,2,0:0:0:0:
462,132,9083,1,8,1:0:0:0:
512,347,9314,1,8,0:0:0:0:
462,132,9545,6,0,B|411:108|411:108|286:128,1,180,6|0,1:2|1:0,0:0:0:0:
190,278,10238,2,0,P|206:237|191:187,1,90,2|8,0:0|3:0,0:0:0:0:
136,115,10699,1,2,0:0:0:0:
23,253,10930,2,0,L|127:231,1,90,8|0,1:0|0:0,0:0:0:0:
372,205,11391,6,0,B|302:192|302:192|269:202|269:202|194:193,1,180,6|0,1:2|1:0,0:0:0:0:
360,125,12084,2,0,L|453:143,1,90,2|8,0:0|3:0,0:0:0:0:
334,237,12545,1,2,0:0:0:0:
383,48,12776,1,8,1:0:0:0:
315,312,13007,1,8,0:0:0:0:
126,192,13238,6,0,P|171:179|222:197,1,90,6|0,1:2|0:0,0:0:0:0:
400,310,13699,2,0,P|355:323|304:305,1,90,0|0,1:0|0:0,0:0:0:0:
297,304,14045,1,0,1:0:0:0:
284,296,14161,1,4,3:0:0:0:
473,206,14391,1,8,0:0:0:0:
344,92,14622,2,0,L|352:196,1,90,8|0,1:0|0:0,0:0:0:0:
368,368,15084,5,4,0:0:0:0:
368,368,15545,1,0,1:0:0:0:
286,341,15776,1,0,0:0:0:0:
286,256,16007,1,8,3:0:0:0:
368,229,16238,1,0,0:0:0:0:
418,298,16468,1,0,1:0:0:0:
286,341,16699,1,0,0:0:0:0:
154,298,16930,5,2,1:2:0:0:
286,255,17161,1,0,0:0:0:0:
87,344,17391,2,0,P|72:292|160:216,1,180,0|8,1:0|3:0,0:0:0:0:
286,255,18084,1,0,0:0:0:0:
154,298,18315,1,0,1:0:0:0:
361,232,18545,1,0,0:0:0:0:
207,159,18776,5,2,1:2:0:0:
281,334,19007,1,0,0:0:0:0:
337,117,19238,1,0,1:0:0:0:
137,190,19468,1,0,0:0:0:0:
409,89,19699,1,8,3:0:0:0:
221,34,19930,1,0,0:0:0:0:
309,191,20161,2,0,B|328:147|328:147|319:86,1,90,0|0,1:0|0:0,0:0:0:0:
199,22,20622,6,0,B|180:66|180:66|189:127,1,90,2|0,1:2|0:0,0:0:0:0:
249,274,21084,1,0,1:0:0:0:
294,167,21315,1,2,0:0:0:0:
221,348,21545,1,8,3:0:0:0:
140,212,21776,1,0,0:0:0:0:
140,212,21891,1,2,3:0:0:0:
140,212,22007,1,0,1:0:0:0:
221,348,22238,1,4,3:0:0:0:
299,180,22468,6,0,L|393:176,1,90,2|0,1:2|0:0,0:0:0:0:
239,252,22930,1,0,1:0:0:0:
207,165,23161,1,0,0:0:0:0:
299,180,23391,1,8,3:0:0:0:
159,239,23622,1,0,0:0:0:0:
265,105,23853,1,0,1:0:0:0:
281,320,24084,1,0,0:0:0:0:
95,193,24315,5,2,1:2:0:0:
299,180,24545,1,2,0:0:0:0:
149,328,24776,2,0,L|158:239,1,90,0|0,1:0|0:0,0:0:0:0:
289,90,25238,2,0,L|298:178,1,90,8|0,0:3|0:0,0:0:0:0:
327,352,25699,1,0,1:0:0:0:
298,179,25930,1,0,0:0:0:0:
472,272,26161,6,0,P|432:294|388:293,1,90,2|0,1:2|0:0,0:0:0:0:
235,228,26622,1,0,1:0:0:0:
411,217,26853,1,0,0:0:0:0:
336,364,27084,1,8,3:0:0:0:
349,129,27315,1,2,0:0:0:0:
139,235,27545,1,0,1:0:0:0:
328,285,27776,1,0,0:0:0:0:
252,71,28007,6,0,B|237:112|237:112|249:170,1,90,2|0,1:2|0:0,0:0:0:0:
400,327,28468,2,0,B|415:286|415:286|403:228,1,90,0|0,1:0|0:0,0:0:0:0:
394,224,28815,1,0,1:0:0:0:
381,211,28930,1,4,3:0:0:0:
216,311,29161,1,2,1:2:0:0:
116,146,29391,1,0,1:0:0:0:
281,46,29622,1,0,1:0:0:0:
281,46,29738,1,0,1:0:0:0:
281,46,29853,5,6,1:2:0:0:
281,46,30315,1,0,1:0:0:0:
199,73,30546,1,0,0:0:0:0:
199,158,30777,1,8,3:0:0:0:
281,185,31008,1,0,0:0:0:0:
331,116,31238,1,0,1:0:0:0:
199,73,31469,1,0,0:0:0:0:
67,116,31700,5,2,1:2:0:0:
199,159,31931,1,0,0:0:0:0:
331,116,32161,1,0,1:0:0:0:
463,159,32391,1,0,0:0:0:0:
358,337,32622,2,0,P|347:296|360:247,1,90,8|0,3:0|0:0,0:0:0:0:
463,72,33084,2,0,P|473:115|462:158,1,90,0|0,1:0|0:0,0:0:0:0:
358,250,33545,5,2,1:2:0:0:
262,152,33776,1,0,0:0:0:0:
393,116,34007,1,0,1:0:0:0:
261,243,34238,1,0,0:0:0:0:
332,58,34468,1,8,3:0:0:0:
158,110,34699,1,0,0:0:0:0:
409,36,34930,1,0,1:0:0:0:
348,211,35161,1,0,0:0:0:0:
158,110,35391,6,0,B|204:100|204:100|250:112,1,90,2|0,1:2|0:0,0:0:0:0:
376,189,35853,1,0,1:0:0:0:
242,252,36084,1,2,0:0:0:0:
443,146,36315,2,0,P|457:190|439:240,1,90,8|0,3:0|0:0,0:0:0:0:
435,251,36661,1,2,3:0:0:0:
421,268,36776,1,0,1:0:0:0:
284,159,37007,1,2,1:3:0:0:
147,268,37238,5,2,1:2:0:0:
288,381,37468,1,0,0:0:0:0:
195,188,37699,1,0,1:0:0:0:
288,381,37930,1,0,0:0:0:0:
388,151,38161,1,8,3:0:0:0:
322,301,38391,1,2,0:0:0:0:
278,82,38622,1,0,1:0:0:0:
308,219,38853,1,0,0:0:0:0:
258,4,39084,5,2,1:2:0:0:
128,139,39315,1,2,0:0:0:0:
363,85,39545,1,0,1:0:0:0:
149,39,39776,1,0,0:0:0:0:
222,249,40007,2,0,P|235:201|223:155,1,90,8|0,3:0|0:0,0:0:0:0:
149,39,40468,1,0,1:0:0:0:
151,205,40699,1,0,0:0:0:0:
149,39,40930,6,0,B|197:20|197:20|328:37,1,180,2|0,1:2|1:0,0:0:0:0:
446,70,41622,1,0,0:0:0:0:
361,232,41853,1,8,3:0:0:0:
396,3,42084,1,0,0:0:0:0:
272,147,42315,1,0,1:0:0:0:
272,147,42776,6,0,L|169:135,1,90,0|0,1:0|0:0,0:0:0:0:
10,222,43238,2,0,L|113:210,1,90,4|0,3:0|0:0,0:0:0:0:
114,211,43584,1,0,1:0:0:0:
132,210,43699,1,0,1:0:0:0:
250,305,43930,1,0,1:0:0:0:
294,78,44161,1,0,1:0:0:0:
294,78,44276,1,8,3:0:0:0:
294,78,44391,1,4,3:0:0:0:
237,380,44622,5,6,1:2:0:0:
237,380,45084,2,0,P|208:362|160:367,1,67.5000025749208,0|0,0:0|0:0,0:0:0:0:
82,351,45545,2,0,P|49:350|21:333,1,67.5000025749208
243,371,46007,2,0,P|214:353|166:358,1,67.5000025749208,0|0,0:0|0:0,0:0:0:0:
84,211,46468,6,0,L|71:291,1,67.5000025749208,4|0,0:0|0:0,0:0:0:0:
168,187,46930,2,0,L|173:151,2,33.7500012874604,0|0|0,0:0|0:0|0:0,0:0:0:0:
221,256,47391,1,0,3:0:0:0:
304,281,47622,1,0,0:0:0:0:
388,255,47853,1,0,3:0:0:0:
428,177,48084,1,0,0:0:0:0:
397,94,48315,6,0,P|453:92|511:149,2,135.000005149842,6|0|0,0:0|0:0|0:0,0:0:0:0:
397,94,49699,1,0,0:0:0:0:
331,152,49930,1,2,0:0:0:0:
193,73,50161,5,0,1:0:0:0:
285,229,50391,1,0,1:0:0:0:
285,229,50507,1,0,1:0:0:0:
285,229,50622,1,6,0:0:0:0:
377,73,50853,1,0,0:0:0:0:
196,147,51084,5,8,3:0:0:0:
357,272,51315,1,0,1:0:0:0:
357,272,51430,1,0,3:0:0:0:
357,272,51545,1,0,3:0:0:0:
183,338,51776,1,8,3:0:0:0:
183,338,51891,1,0,3:0:0:0:
183,338,52007,6,0,P|165:301|182:192,1,135.000005149842,6|0,0:0|0:0,0:0:0:0:
171,209,52584,1,0,0:0:0:0:
171,209,52699,1,0,0:0:0:0:
103,141,52930,2,0,L|-5:155,2,101.250003862381
275,121,53853,5,2,0:0:0:0:
186,85,54084,1,0,0:0:0:0:
239,242,54315,2,0,L|324:230,1,67.5000025749208,0|0,0:0|0:0,0:0:0:0:
465,212,54776,1,2,0:0:0:0:
303,149,55007,1,0,0:0:0:0:
377,338,55238,1,2,0:0:0:0:
428,124,55468,1,0,0:0:0:0:
257,215,55699,6,0,P|310:230|345:216,1,67.5000025749208,6|0,0:0|0:0,0:0:0:0:
469,188,56161,1,0,0:0:0:0:
360,83,56391,2,0,P|349:119|365:164,1,67.5000025749208,0|0,0:0|0:0,0:0:0:0:
425,298,56853,1,0,0:0:0:0:
266,111,57084,1,0,1:0:0:0:
266,111,57199,1,0,3:0:0:0:
266,111,57315,1,0,3:0:0:0:
197,369,57545,5,0,1:0:0:0:
197,369,58007,1,0,1:0:0:0:
116,187,58353,5,8,3:0:0:0:
116,187,58468,1,0,1:0:0:0:
197,369,58699,1,0,1:0:0:0:
259,68,58930,1,0,1:0:0:0:
259,68,59391,5,2,0:0:0:0:
97,116,61238,6,0,P|144:87|256:161,1,207.000003948212,6|0,1:2|1:0,0:0:0:0:
152,281,61930,2,0,L|166:179,1,103.500001974106,2|8,0:0|3:0,0:0:0:0:
315,102,62391,1,2,0:0:0:0:
166,179,62622,1,8,1:0:0:0:
386,223,62853,1,8,0:0:0:0:
107,250,63084,6,0,P|78:203|152:91,1,207.000003948212,6|0,1:2|1:0,0:0:0:0:
268,192,63776,2,0,L|165:178,1,103.500001974106,2|8,0:0|3:0,0:0:0:0:
34,159,64238,1,0,0:0:0:0:
139,0,64468,2,0,P|159:38|147:99,1,103.500001974106,8|0,1:0|0:0,0:0:0:0:
88,279,64930,6,0,B|145:310|145:310|292:296,1,207.000003948212,6|0,1:2|1:0,0:0:0:0:
447,211,65622,2,0,P|408:197|346:211,1,103.500001974106,2|8,0:0|3:0,0:0:0:0:
286,296,66084,1,0,0:0:0:0:
344,127,66315,1,8,1:0:0:0:
395,340,66545,1,8,0:0:0:0:
447,211,66776,6,0,P|370:168|252:202,1,207.000003948212,6|0,1:2|1:0,0:0:0:0:
126,296,67468,2,0,L|112:190,1,103.500001974106,2|8,0:0|3:0,0:0:0:0:
207,40,67930,2,0,L|200:96,1,51.7500009870529,4|0,3:0|0:0,0:0:0:0:
183,231,68161,1,8,1:0:0:0:
183,231,68276,1,0,3:0:0:0:
183,231,68391,1,0,1:0:0:0:
437,160,68622,6,0,B|363:154|363:154|318:174|318:174|235:167,1,207.000003948212,6|0,1:2|1:0,0:0:0:0:
74,102,69315,2,0,P|66:50|91:5,1,103.500001974106,2|8,0:0|3:0,0:0:0:0:
280,2,69776,1,2,0:0:0:0:
152,65,70007,1,8,1:0:0:0:
341,114,70238,1,8,0:0:0:0:
258,282,70468,6,0,B|227:225|227:225|241:78,1,207.000003948212,6|0,1:2|1:0,0:0:0:0:
407,161,71161,2,0,P|348:193|302:183,1,103.500001974106,2|8,0:0|3:0,0:0:0:0:
208,102,71622,1,2,0:0:0:0:
358,11,71853,2,0,L|340:117,1,103.500001974106,8|0,0:0|0:0,0:0:0:0:
218,263,72315,6,0,B|292:257|292:257|337:277|337:277|420:270,1,207.000003948212,6|0,1:2|1:0,0:0:0:0:
153,315,73007,2,0,P|137:264|157:210,1,103.500001974106,2|8,0:0|3:0,0:0:0:0:
261,123,73468,1,2,0:0:0:0:
144,11,73699,2,0,L|153:124,1,103.500001974106,8|8,1:0|0:0,0:0:0:0:
283,261,74161,6,0,B|332:278|332:278|403:260,1,103.500001974106,6|0,1:2|0:0,0:0:0:0:
152,114,74622,2,0,B|103:97|103:97|32:115,1,103.500001974106,0|0,1:0|0:0,0:0:0:0:
33,118,74968,1,0,1:0:0:0:
15,128,75084,1,0,1:0:0:0:
108,268,75315,1,0,1:0:0:0:
174,22,75545,1,0,1:0:0:0:
178,43,75661,1,0,3:0:0:0:
182,64,75776,1,0,1:0:0:0:
186,85,75892,1,0,3:0:0:0:
190,106,76007,6,0,P|241:121|303:108,1,103.500001974106,6|0,1:2|0:0,0:0:0:0:
446,29,76468,2,0,P|395:14|333:27,1,103.500001974106,0|0,1:0|0:0,0:0:0:0:
195,122,76930,2,0,P|246:137|308:124,1,103.500001974106,8|0,3:0|0:0,0:0:0:0:
458,20,77391,1,2,1:2:0:0:
414,224,77622,1,0,0:0:0:0:
414,224,77853,6,0,B|432:177|432:177|416:118,1,103.500001974106,6|0,1:2|0:0,0:0:0:0:
299,31,78315,2,0,B|281:78|281:78|297:137,1,103.500001974106,0|0,1:0|0:0,0:0:0:0:
433,237,78776,2,0,B|468:144|468:144|436:28,1,207.000003948212,8|0,3:0|1:0,0:0:0:0:
278,152,79468,1,0,0:0:0:0:
278,152,79699,6,0,P|330:169|383:153,1,103.500001974106,6|0,1:2|0:0,0:0:0:0:
156,31,80161,2,0,B|109:13|109:13|50:29,1,103.500001974106,0|0,1:0|0:0,0:0:0:0:
145,226,80622,2,0,P|175:158|144:13,1,207.000003948212,8|0,3:0|1:0,0:0:0:0:
24,133,81315,1,2,0:0:0:0:
246,46,81545,5,6,1:2:0:0:
119,277,81776,1,0,0:0:0:0:
82,6,82007,1,6,1:2:0:0:
361,147,82238,1,0,0:0:0:0:
361,147,82353,1,0,3:0:0:0:
361,147,82468,1,2,1:3:0:0:
58,219,82699,1,8,3:0:0:0:
279,50,82930,1,0,1:0:0:0:
263,336,83161,1,0,1:0:0:0:
263,336,83276,1,0,3:0:0:0:
263,336,83391,6,0,P|307:350|368:336,1,103.500001974106,6|0,1:2|0:0,0:0:0:0:
512,274,83853,2,0,P|468:260|407:274,1,103.500001974106,0|0,1:0|0:0,0:0:0:0:
261,346,84315,2,0,P|305:360|366:346,1,103.500001974106,8|0,3:0|0:0,0:0:0:0:
461,197,84776,1,2,1:2:0:0:
492,373,85007,1,0,0:0:0:0:
461,174,85238,6,0,B|411:158|411:158|355:173,1,103.500001974106,6|0,1:2|0:0,0:0:0:0:
228,231,85699,2,0,B|178:244|178:244|128:228,1,103.500001974106,0|0,1:0|0:0,0:0:0:0:
461,155,86161,2,0,B|411:139|411:139|355:154,1,103.500001974106,8|0,3:0|0:0,0:0:0:0:
225,258,86622,1,2,1:2:0:0:
365,133,86853,1,0,0:0:0:0:
235,34,87084,6,0,P|216:82|237:143,1,103.500001974106,6|0,1:2|0:0,0:0:0:0:
298,310,87545,2,0,B|316:260|316:260|299:200,1,103.500001974106,0|0,1:0|0:0,0:0:0:0:
224,20,88007,2,0,P|190:104|227:211,1,207.000003948212,8|0,3:0|1:0,0:0:0:0:
391,307,88699,1,2,0:0:0:0:
285,122,88930,5,6,1:2:0:0:
257,364,89161,1,2,0:0:0:0:
378,79,89391,1,6,1:2:0:0:
447,379,89622,1,0,0:0:0:0:
447,379,89738,1,0,1:0:0:0:
447,379,89853,1,4,3:0:0:0:
221,213,90084,1,0,1:0:0:0:
479,120,90315,1,0,1:0:0:0:
354,361,90545,1,0,1:0:0:0:
354,361,90661,1,0,3:0:0:0:
354,361,90776,5,6,1:2:0:0:
302,251,91007,2,0,P|340:239|389:249,1,85.4999977169037,0|2,0:0|1:2,0:0:0:0:
404,240,91353,1,0,0:0:0:0:
409,219,91468,1,2,0:0:0:0:
415,198,91584,1,0,0:0:0:0:
421,177,91699,1,8,3:0:0:0:
476,278,91930,1,0,0:0:0:0:
344,129,92161,2,0,P|332:167|342:216,1,85.4999977169037,0|0,1:0|0:0,0:0:0:0:
193,332,92622,6,0,P|205:294|195:245,1,85.4999977169037,2|0,1:2|0:0,0:0:0:0:
110,152,93084,1,2,1:2:0:0:
123,288,93315,1,2,0:0:0:0:
123,288,93430,1,0,0:0:0:0:
123,288,93545,1,0,1:0:0:0:
242,209,93776,1,0,0:0:0:0:
48,328,94007,2,0,P|36:290|46:241,1,85.4999977169037,0|0,1:0|0:0,0:0:0:0:
181,107,94468,6,0,P|193:145|183:194,1,85.4999977169037,2|2,1:2|0:0,0:0:0:0:
179,210,94815,1,0,0:0:0:0:
169,229,94930,1,2,1:2:0:0:
277,148,95161,2,0,L|269:192,1,42.7499988584519,0|0,0:0|0:0,0:0:0:0:
253,295,95391,1,8,3:0:0:0:
253,295,95507,1,0,0:0:0:0:
253,295,95622,1,2,0:0:0:0:
410,265,95853,2,0,P|361:247|327:256,1,85.4999977169037,0|0,1:0|0:0,0:0:0:0:
183,341,96315,5,2,1:2:0:0:
182,171,96545,1,2,0:0:0:0:
182,171,96661,1,0,0:0:0:0:
182,171,96776,1,0,1:0:0:0:
254,268,97007,1,2,0:0:0:0:
285,103,97238,1,8,3:0:0:0:
369,193,97468,1,0,0:0:0:0:
453,103,97699,1,0,1:0:0:0:
497,249,97930,1,0,1:0:0:0:
497,249,98045,1,0,1:0:0:0:
497,249,98161,5,6,1:2:0:0:
401,319,98391,2,0,L|404:270,1,42.7499988584519,0|0,0:0|0:0,0:0:0:0:
348,201,98622,2,0,P|308:189|259:199,1,85.4999977169037,2|0,1:2|0:0,0:0:0:0:
179,240,99084,2,0,L|182:191,1,42.7499988584519,8|0,3:0|0:0,0:0:0:0:
186,103,99315,1,2,0:0:0:0:
186,103,99430,1,0,0:0:0:0:
186,103,99545,1,2,1:2:0:0:
88,163,99776,1,0,0:0:0:0:
102,0,100007,6,0,P|113:42|101:88,1,85.4999977169037,2|2,1:2|0:0,0:0:0:0:
94,101,100353,1,0,0:0:0:0:
81,117,100468,1,0,1:0:0:0:
165,212,100699,1,2,0:0:0:0:
249,117,100930,1,8,3:0:0:0:
333,211,101161,1,0,0:0:0:0:
417,116,101391,1,0,1:0:0:0:
333,236,101622,1,0,0:0:0:0:
433,101,101853,6,0,P|446:143|431:192,1,85.4999977169037,2|0,1:2|0:0,0:0:0:0:
430,203,102199,1,0,0:0:0:0:
421,222,102315,1,2,1:2:0:0:
278,283,102545,1,0,0:0:0:0:
296,128,102776,2,0,P|313:175|302:215,1,85.4999977169037,8|2,3:0|0:0,0:0:0:0:
196,281,103238,1,0,1:0:0:0:
101,212,103468,1,0,0:0:0:0:
296,128,103699,5,2,1:2:0:0:
196,281,103930,1,0,0:0:0:0:
163,39,104161,1,0,1:0:0:0:
366,170,104391,1,0,0:0:0:0:
366,170,104507,1,0,0:0:0:0:
366,170,104622,1,2,0:0:0:0:
366,170,105545,5,6,1:2:0:0:
267,117,105776,1,0,0:0:0:0:
271,230,106007,2,0,B|231:239|231:239|188:226,1,85.4999977169037,2|0,1:2|0:0,0:0:0:0:
80,169,106468,1,8,3:0:0:0:
80,169,106584,1,0,0:0:0:0:
80,169,106699,1,2,0:0:0:0:
188,226,106930,1,0,1:0:0:0:
84,291,107161,1,0,0:0:0:0:
192,348,107391,6,0,L|237:333,1,42.7499988584519,2|0,1:2|0:0,0:0:0:0:
318,359,107622,2,0,L|363:374,1,42.7499988584519,2|0,0:0|0:0,0:0:0:0:
441,335,107853,2,0,P|451:296|440:247,1,85.4999977169037,0|2,1:0|2:0,0:0:0:0:
338,152,108315,2,0,P|328:191|339:240,1,85.4999977169037,8|0,3:0|0:0,0:0:0:0:
432,89,108776,1,2,1:2:0:0:
432,89,109007,1,0,0:0:0:0:
338,152,109238,5,2,1:2:0:0:
244,89,109468,1,0,0:0:0:0:
150,152,109699,2,0,P|136:191|151:247,1,85.4999977169037,2|0,1:2|0:0,0:0:0:0:
155,250,110045,1,0,0:0:0:0:
172,262,110161,1,8,3:0:0:0:
227,195,110391,1,2,0:0:0:0:
71,256,110622,1,0,1:0:0:0:
202,360,110853,1,0,0:0:0:0:
131,126,111084,5,2,1:2:0:0:
369,181,111315,1,0,0:0:0:0:
202,360,111545,1,0,1:0:0:0:
255,71,111776,1,0,0:0:0:0:
255,71,111891,1,0,1:0:0:0:
255,71,112007,1,4,3:0:0:0:
202,360,112238,1,0,1:0:0:0:
108,126,112468,1,2,1:2:0:0:
108,126,112584,1,8,3:0:0:0:
108,126,112699,1,4,3:0:0:0:
275,380,112930,5,6,1:2:0:0:
275,380,113392,2,0,P|304:362|352:367,1,67.5000025749208,0|0,0:0|0:0,0:0:0:0:
430,351,113853,2,0,P|463:350|491:333,1,67.5000025749208,0|0,0:0|0:0,0:0:0:0:
269,371,114315,2,0,P|298:353|346:358,1,67.5000025749208,0|0,0:0|0:0,0:0:0:0:
428,211,114776,6,0,L|441:291,1,67.5000025749208,4|0,0:0|0:0,0:0:0:0:
344,187,115238,2,0,L|339:151,2,33.7500012874604,0|0|0,0:0|0:0|0:0,0:0:0:0:
291,256,115699,1,0,3:0:0:0:
208,281,115930,1,0,0:0:0:0:
124,255,116161,1,0,3:0:0:0:
84,177,116392,1,0,0:0:0:0:
115,94,116623,6,0,P|59:92|1:149,2,135.000005149842,6|0|0,0:0|0:0|0:0,0:0:0:0:
115,94,118007,1,0,0:0:0:0:
181,152,118238,1,2,0:0:0:0:
319,73,118469,5,0,1:0:0:0:
227,229,118699,1,0,1:0:0:0:
227,229,118815,1,0,1:0:0:0:
227,229,118930,1,6,0:0:0:0:
135,73,119161,1,0,0:0:0:0:
316,147,119392,5,8,3:0:0:0:
155,272,119623,1,0,1:0:0:0:
155,272,119738,1,0,3:0:0:0:
155,272,119853,1,0,3:0:0:0:
329,338,120084,1,8,3:0:0:0:
329,338,120199,1,0,3:0:0:0:
329,338,120315,6,0,P|347:301|330:192,1,135.000005149842,6|0,0:0|0:0,0:0:0:0:
341,209,120892,1,0,0:0:0:0:
341,209,121007,1,0,0:0:0:0:
409,141,121238,2,0,L|517:155,2,101.250003862381,0|0|0,0:0|0:0|0:0,0:0:0:0:
237,121,122161,5,2,0:0:0:0:
326,85,122392,1,0,0:0:0:0:
273,242,122623,2,0,L|188:230,1,67.5000025749208,0|0,0:0|0:0,0:0:0:0:
47,212,123084,1,2,0:0:0:0:
209,149,123315,1,0,0:0:0:0:
135,338,123546,1,2,0:0:0:0:
84,124,123776,1,0,0:0:0:0:
255,215,124007,6,0,P|202:230|167:216,1,67.5000025749208,6|0,0:0|0:0,0:0:0:0:
43,188,124469,1,0,0:0:0:0:
152,83,124699,2,0,P|163:119|147:164,1,67.5000025749208,0|0,0:0|0:0,0:0:0:0:
87,298,125161,1,0,0:0:0:0:
246,111,125392,1,0,1:0:0:0:
246,111,125507,1,0,3:0:0:0:
246,111,125623,1,0,3:0:0:0:
315,369,125853,5,0,1:0:0:0:
315,369,126315,1,0,1:0:0:0:
396,187,126661,5,8,3:0:0:0:
396,187,126776,1,0,1:0:0:0:
315,369,127007,1,0,1:0:0:0:
253,68,127238,1,0,1:0:0:0:
253,68,127699,5,2,0:0:0:0:
415,116,129546,6,0,P|368:87|256:161,1,207.000003948212,6|0,1:2|1:0,0:0:0:0:
360,281,130238,2,0,L|346:179,1,103.500001974106,2|8,0:0|3:0,0:0:0:0:
197,102,130699,1,2,0:0:0:0:
346,179,130930,1,8,1:0:0:0:
126,223,131161,1,8,0:0:0:0:
405,250,131392,6,0,P|434:203|360:91,1,207.000003948212,6|0,1:2|1:0,0:0:0:0:
244,192,132084,2,0,L|347:178,1,103.500001974106,2|8,0:0|3:0,0:0:0:0:
478,159,132546,1,0,0:0:0:0:
373,0,132776,2,0,P|353:38|365:99,1,103.500001974106,8|0,1:0|0:0,0:0:0:0:
424,279,133238,6,0,B|367:310|367:310|220:296,1,207.000003948212,6|0,1:2|1:0,0:0:0:0:
65,211,133930,2,0,P|104:197|166:211,1,103.500001974106,2|8,0:0|3:0,0:0:0:0:
226,296,134392,1,0,0:0:0:0:
168,127,134623,1,8,1:0:0:0:
117,340,134853,1,8,0:0:0:0:
65,211,135084,6,0,P|142:168|260:202,1,207.000003948212,6|0,1:2|1:0,0:0:0:0:
386,296,135776,2,0,L|400:190,1,103.500001974106,2|8,0:0|3:0,0:0:0:0:
305,40,136238,2,0,L|312:96,1,51.7500009870529,4|0,3:0|0:0,0:0:0:0:
329,231,136469,1,8,1:0:0:0:
329,231,136584,1,0,3:0:0:0:
329,231,136699,1,0,1:0:0:0:
75,160,136930,6,0,B|149:154|149:154|194:174|194:174|277:167,1,207.000003948212,6|0,1:2|1:0,0:0:0:0:
438,102,137623,2,0,P|446:50|421:5,1,103.500001974106,2|8,0:0|3:0,0:0:0:0:
232,2,138084,1,2,0:0:0:0:
360,65,138315,1,8,1:0:0:0:
171,114,138546,1,8,0:0:0:0:
254,282,138776,6,0,B|285:225|285:225|271:78,1,207.000003948212,6|0,1:2|1:0,0:0:0:0:
105,161,139469,2,0,P|164:193|210:183,1,103.500001974106,2|8,0:0|3:0,0:0:0:0:
304,102,139930,1,2,0:0:0:0:
154,11,140161,2,0,L|172:117,1,103.500001974106,8|0,0:0|0:0,0:0:0:0:
294,263,140623,6,0,B|220:257|220:257|175:277|175:277|92:270,1,207.000003948212,6|0,1:2|1:0,0:0:0:0:
359,315,141315,2,0,P|375:264|355:210,1,103.500001974106,2|8,0:0|3:0,0:0:0:0:
251,123,141776,1,2,0:0:0:0:
368,11,142007,2,0,L|359:124,1,103.500001974106,8|8,1:0|0:0,0:0:0:0:
229,261,142469,6,0,B|180:278|180:278|109:260,1,103.500001974106,6|0,1:2|0:0,0:0:0:0:
360,114,142930,2,0,B|409:97|409:97|480:115,1,103.500001974106,0|0,1:0|0:0,0:0:0:0:
479,118,143276,1,0,1:0:0:0:
497,128,143392,1,0,1:0:0:0:
404,268,143623,1,0,1:0:0:0:
338,22,143853,1,0,1:0:0:0:
334,43,143969,1,0,3:0:0:0:
330,64,144084,1,0,1:0:0:0:
326,85,144200,1,0,3:0:0:0:
322,106,144315,6,0,P|271:121|209:108,1,103.500001974106,6|0,1:2|0:0,0:0:0:0:
66,29,144776,2,0,P|117:14|179:27,1,103.500001974106,0|0,1:0|0:0,0:0:0:0:
317,122,145238,2,0,P|266:137|204:124,1,103.500001974106,8|0,3:0|0:0,0:0:0:0:
54,20,145699,1,2,1:2:0:0:
98,224,145930,1,0,0:0:0:0:
98,224,146161,6,0,B|80:177|80:177|96:118,1,103.500001974106,6|0,1:2|0:0,0:0:0:0:
213,31,146623,2,0,B|231:78|231:78|215:137,1,103.500001974106,0|0,1:0|0:0,0:0:0:0:
79,237,147084,2,0,B|44:144|44:144|76:28,1,207.000003948212,8|0,3:0|1:0,0:0:0:0:
234,152,147776,1,0,0:0:0:0:
234,152,148007,6,0,P|182:169|129:153,1,103.500001974106,6|0,1:2|0:0,0:0:0:0:
356,31,148469,2,0,B|403:13|403:13|462:29,1,103.500001974106,0|0,1:0|0:0,0:0:0:0:
367,226,148930,2,0,P|337:158|368:13,1,207.000003948212,8|0,3:0|1:0,0:0:0:0:
488,133,149623,1,2,0:0:0:0:
266,46,149853,5,6,1:2:0:0:
393,277,150084,1,0,0:0:0:0:
430,6,150315,1,6,1:2:0:0:
151,147,150546,1,0,0:0:0:0:
151,147,150661,1,0,3:0:0:0:
151,147,150776,1,2,1:3:0:0:
454,219,151007,1,8,3:0:0:0:
233,50,151238,1,0,1:0:0:0:
249,336,151469,1,0,1:0:0:0:
249,336,151584,1,0,3:0:0:0:
249,336,151699,6,0,P|205:350|144:336,1,103.500001974106,6|0,1:2|0:0,0:0:0:0:
0,274,152161,2,0,P|44:260|105:274,1,103.500001974106,0|0,1:0|0:0,0:0:0:0:
251,346,152623,2,0,P|207:360|146:346,1,103.500001974106,8|0,3:0|0:0,0:0:0:0:
51,197,153084,1,2,1:2:0:0:
20,373,153315,1,0,0:0:0:0:
51,174,153546,6,0,B|101:158|101:158|157:173,1,103.500001974106,6|0,1:2|0:0,0:0:0:0:
284,231,154007,2,0,B|334:244|334:244|384:228,1,103.500001974106,0|0,1:0|0:0,0:0:0:0:
51,155,154469,2,0,B|101:139|101:139|157:154,1,103.500001974106,8|0,3:0|0:0,0:0:0:0:
287,258,154930,1,2,1:2:0:0:
147,133,155161,1,0,0:0:0:0:
277,34,155392,6,0,P|296:82|275:143,1,103.500001974106,6|0,1:2|0:0,0:0:0:0:
215,312,155853,2,0,B|195:263|195:263|212:203,1,103.500001974106,0|0,1:0|0:0,0:0:0:0:
288,20,156315,2,0,P|322:104|285:211,1,207.000003948212,8|0,3:0|1:0,0:0:0:0:
121,307,157007,1,2,0:0:0:0:
227,122,157238,5,6,1:2:0:0:
255,364,157469,1,2,0:0:0:0:
134,79,157699,1,6,1:2:0:0:
65,379,157930,1,0,0:0:0:0:
65,379,158046,1,0,1:0:0:0:
65,379,158161,5,4,3:0:0:0:
164,283,158392,1,0,0:0:0:0:
164,283,158622,2,0,P|176:248|165:209,1,67.5000025749208
163,208,158968,1,0,0:0:0:0:
154,201,159084,5,6,0:0:0:0:
382,143,173853,6,0,P|339:127|254:162,1,135.000005149842,2|0,1:2|0:0,0:0:0:0:
206,208,174545,2,0,P|163:224|78:189,1,135.000005149842,4|0,3:0|0:0,0:0:0:0:
35,136,175238,2,0,P|30:104|39:69,1,67.5000025749208,8|0,3:0|0:0,0:0:0:0:
93,19,175699,6,0,P|125:14|160:23,1,67.5000025749208,8|0,0:0|0:0,0:0:0:0:
170,33,176045,1,8,3:0:0:0:
179,46,176161,2,0,L|223:42,1,33.7500012874604,4|0,3:0|0:0,0:0:0:0:
299,31,176391,2,0,P|304:63|295:98,1,67.5000025749208,0|0,1:0|0:0,0:0:0:0:
256,168,176853,1,8,3:0:0:0:
295,96,177084,1,4,3:0:0:0:
327,219,177315,1,8,3:0:0:0:
132,181,177545,6,0,P|175:197|260:162,1,135.000005149842,2|0,1:2|0:0,0:0:0:0:
308,116,178237,2,0,P|351:100|436:135,1,135.000005149842,4|0,3:0|0:0,0:0:0:0:
479,188,178930,2,0,P|484:220|475:255,1,67.5000025749208,8|0,3:0|0:0,0:0:0:0:
427,318,179391,5,2,0:0:0:0:
356,358,179622,2,0,P|324:363|289:354,1,67.5000025749208,0|2,0:0|0:0,0:0:0:0:
221,310,180084,2,0,L|227:264,2,33.7500012874604,0|8|4,0:0|3:0|3:0,0:0:0:0:
151,350,180545,1,8,3:0:0:0:
72,369,180776,1,4,3:0:0:0:
3,324,181007,1,0,1:0:0:0:
3,324,181122,1,8,3:0:0:0:
3,324,181238,6,0,P|-5:291|3:255,1,67.5000025749208,2|0,1:2|0:0,0:0:0:0:
49,193,181699,1,0,0:0:0:0:
126,169,181930,1,0,1:0:0:0:
200,201,182161,1,0,0:0:0:0:
279,184,182391,1,0,0:0:0:0:
324,117,182622,1,0,1:0:0:0:
324,117,183084,6,0,P|363:111|393:116,1,67.5000025749208,2|0,0:0|0:0,0:0:0:0:
441,177,183545,2,0,P|447:216|442:246,1,67.5000025749208,8|0,3:0|0:0,0:0:0:0:
397,310,184007,2,0,P|358:316|328:311,1,67.5000025749208,0|0,0:0|0:0,0:0:0:0:
280,250,184468,2,0,P|274:211|279:181,1,67.5000025749208,2|0,0:0|0:0,0:0:0:0:
285,172,184815,1,8,3:0:0:0:
294,162,184930,6,0,P|247:147|161:174,1,135.000005149842,2|0,1:2|0:0,0:0:0:0:
111,229,185622,2,0,P|76:234|37:227,1,67.5000025749208,0|0,1:0|0:0,0:0:0:0:
0,160,186084,2,0,P|-5:125|2:86,1,67.5000025749208,2|0,0:0|1:0,0:0:0:0:
59,38,186545,1,0,0:0:0:0:
78,57,186776,5,6,0:0:0:0:
106,68,187007,1,0,3:0:0:0:
146,61,187238,1,0,1:0:0:0:
216,32,187468,1,8,3:0:0:0:
292,64,187699,1,0,1:0:0:0:
339,148,187930,1,0,1:0:0:0:
321,249,188161,1,2,1:2:0:0:
242,324,188391,1,0,1:0:0:0:
134,296,188622,5,6,1:2:0:0:
134,296,189776,5,4,1:3:0:0:
141,228,190007,2,0,L|132:304,1,67.5000025749208,0|0,1:0|0:0,0:0:0:0:
68,115,190468,5,6,1:2:0:0:
68,115,191161,1,2,0:0:0:0:
192,34,191622,1,0,0:0:0:0:
192,34,191853,2,0,L|181:115,1,67.5000025749208,0|0,0:0|0:0,0:0:0:0:
160,283,192315,5,2,1:2:0:0:
160,283,193007,1,0,1:0:0:0:
257,189,193468,1,0,0:0:0:0:
257,189,193699,2,0,L|338:200,1,67.5000025749208,0|0,1:0|0:0,0:0:0:0:
505,216,194161,5,6,1:2:0:0:
505,216,194853,1,2,0:0:0:0:
413,315,195315,1,0,0:0:0:0:
413,315,195546,2,0,L|424:234,1,67.5000025749208,0|0,0:0|0:0,0:0:0:0:
444,108,196007,5,2,0:0:0:0:
444,108,196238,1,0,1:0:0:0:
342,163,196468,1,0,1:0:0:0:
318,159,196583,1,0,1:0:0:0:
295,155,196699,1,4,3:0:0:0:
271,152,196814,1,0,1:0:0:0:
248,148,196929,1,4,3:0:0:0:
94,229,197391,1,0,1:0:0:0:
94,229,197507,1,8,3:0:0:0:
94,229,197622,1,4,3:0:0:0:
162,319,197853,5,6,1:2:0:0:
162,319,198545,1,2,0:0:0:0:
63,226,199007,1,0,0:0:0:0:
63,226,199238,2,0,L|144:237,1,67.5000025749208,0|0,0:0|0:0,0:0:0:0:
364,274,199699,5,6,1:2:0:0:
364,274,200391,1,0,0:0:0:0:
291,159,200853,1,0,1:0:0:0:
288,182,200968,1,0,1:0:0:0:
284,205,201083,1,4,3:0:0:0:
281,229,201199,1,0,1:0:0:0:
277,252,201314,1,4,3:0:0:0:
306,74,201545,5,6,1:2:0:0:
313,81,202238,1,0,1:0:0:0:
313,81,202353,1,0,1:0:0:0:
313,81,202468,1,6,1:2:0:0:
209,163,203161,1,4,3:0:0:0:
209,163,203276,1,8,3:0:0:0:
209,163,203391,5,4,1:0:0:0:
151,66,203622,2,0,L|109:60,1,33.7500012874604,4|8,3:0|3:0,0:0:0:0:
34,50,203853,1,4,1:0:0:0:
68,138,204084,1,4,3:0:0:0:
68,138,204199,1,8,3:0:0:0:
68,138,204315,5,0,1:0:0:0:
216,27,204545,1,0,1:0:0:0:
364,138,204776,1,0,1:0:0:0:
512,27,205007,1,0,1:0:0:0:
512,27,205122,1,0,1:0:0:0:
512,27,205238,6,0,P|472:56|466:192,1,180,6|0,1:2|1:0,0:0:0:0:
396,304,205930,2,0,P|367:264|231:258,1,180,2|0,0:0|0:0,0:0:0:0:
150,317,206622,2,0,L|133:216,1,90,0|0,1:0|0:0,0:0:0:0:
184,62,207084,6,0,B|223:102|223:102|243:234,1,180,2|0,1:2|1:0,0:0:0:0:
317,326,207776,2,0,B|366:352|366:352|489:336,1,180,2|0,0:0|0:0,0:0:0:0:
395,174,208468,2,0,L|379:280,1,90,0|0,1:0|0:0,0:0:0:0:
311,111,208930,6,0,B|214:97|248:174|119:149,1,180,6|0,1:2|1:0,0:0:0:0:
0,239,209622,2,0,B|106:217|72:294|169:280,1,180,2|0,0:0|0:0,0:0:0:0:
341,216,210315,2,0,P|293:202|241:215,1,90,0|0,1:0|0:0,0:0:0:0:
166,280,210776,6,0,B|152:224|152:224|166:170|166:170|154:103,1,180,2|0,1:2|1:0,0:0:0:0:
267,12,211468,2,0,B|281:68|281:68|267:122|267:122|279:189,1,180,2|8,0:0|3:0,0:0:0:0:
315,339,212161,1,4,3:0:0:0:
315,339,212276,1,0,0:0:0:0:
315,339,212391,1,2,0:0:0:0:
512,357,212622,6,0,P|472:328|466:192,1,180,6|0,1:2|1:0,0:0:0:0:
396,80,213314,2,0,P|367:120|231:126,1,180,2|0,0:0|0:0,0:0:0:0:
150,67,214007,2,0,L|134:167,1,90,0|0,1:0|0:0,0:0:0:0:
184,322,214468,6,0,B|223:282|223:282|243:150,1,180,2|0,1:2|1:0,0:0:0:0:
317,58,215161,2,0,B|366:31|366:31|489:47,1,180,2|0,0:0|0:0,0:0:0:0:
395,210,215853,2,0,L|379:104,1,90,0|0,1:0|0:0,0:0:0:0:
311,273,216314,6,0,B|214:287|248:210|119:235,1,180,6|0,1:2|1:0,0:0:0:0:
0,145,217006,2,0,B|106:166|72:89|169:103,1,180,2|0,0:0|0:0,0:0:0:0:
341,168,217699,2,0,P|293:182|241:169,1,90,0|0,1:0|0:0,0:0:0:0:
166,104,218160,6,0,B|152:160|152:160|166:214|166:214|154:281,1,180,2|0,1:2|1:0,0:0:0:0:
275,380,218853,1,0,0:0:0:0:
275,380,218968,1,0,1:0:0:0:
275,380,219084,1,0,1:0:0:0:
307,233,219315,1,0,1:0:0:0:
162,287,219545,1,0,1:0:0:0:
162,287,219660,1,0,3:0:0:0:
162,287,219775,1,0,3:0:0:0:
251,301,220007,5,6,0:0:0:0:
