osu file format v14

[General]
AudioFilename: audio.mp3
AudioLeadIn: 0
PreviewTime: -1
Countdown: 0
SampleSet: Soft
StackLeniency: 1
Mode: 0
LetterboxInBreaks: 0
WidescreenStoryboard: 1

[Editor]
DistanceSpacing: 0.8
BeatDivisor: 8
GridSize: 4
TimelineZoom: 1

[Metadata]
Title:Loser
TitleUnicode:Loser
Artist:BIGBANG
ArtistUnicode:BIGBANG
Creator:TLWHYT
Version:Loser
Source:
Tags:
BeatmapID:1441529
BeatmapSetID:681753

[Difficulty]
HPDrainRate:4.5
CircleSize:3.7
OverallDifficulty:5
ApproachRate:8
SliderMultiplier:1.00000000596046
SliderTickRate:1

[Events]
//Background and Video events
0,0,"Ajaja2.jpg",0,0
//Break Periods
2,87371,94672
//Storyboard Layer 0 (Background)
//Storyboard Layer 1 (Fail)
//Storyboard Layer 2 (Pass)
//Storyboard Layer 3 (Foreground)
//Storyboard Sound Samples

[TimingPoints]
1750,658.833864060613,4,2,0,100,1,0
23554,-57.1428571428571,4,2,0,100,0,0
25551,-133.333333333333,4,2,0,100,0,0
28381,-50,4,2,0,100,0,0
42363,-100,4,2,0,100,0,0
50035,-53.475935828877,4,2,0,100,0,0
59009,-50,4,2,0,100,0,0
66001,-100,4,2,0,100,0,1
95339,-100,4,2,0,100,0,0
98167.65801919,333.277787035494,4,2,0,100,1,0
127383,-50,4,2,0,100,0,0
128048,-66.6666666666667,4,2,0,100,0,0
128714,-100,4,2,0,100,0,0
130088,-100,4,2,0,100,0,1

[HitObjects]
148,188,2080,6,0,P|152:208|224:240,1,100.000000596046
352,180,3412,2,0,P|344:212|284:244,1,100.000000596046
168,180,4702,2,0,L|208:216,1,50.0000002980232
332,192,5368,2,0,L|280:216,1,50.0000002980232
224,128,6075,2,0,P|240:112|316:124,1,100.000000596046
188,152,7407,6,0,L|128:240,1,100.000000596046
352,160,8739,2,0,L|416:248,1,100.000000596046
220,184,10070,2,0,P|256:208|308:184,2,100.000000596046
168,192,12026,5,0,0:0:0:0:
256,112,12359,1,0,0:0:0:0:
148,188,12734,2,0,P|152:208|224:240,1,100.000000596046
352,180,14066,2,0,P|344:212|284:244,1,100.000000596046
168,180,15356,2,0,L|208:216,1,50.0000002980232
332,192,16022,2,0,L|280:216,1,50.0000002980232
224,128,16729,2,0,P|240:112|316:124,1,100.000000596046
188,152,18061,6,0,L|128:240,1,100.000000596046
352,160,19393,2,0,L|416:248,1,100.000000596046
220,184,20724,2,0,P|256:208|308:184,2,100.000000596046
167,165,22721,2,0,L|223:185,1,50.0000002980232
256,192,23554,6,0,L|216:148,1,54.6875006519258
256,192,23886,2,0,L|292:160,1,45.9375008292496
256,192,24219,2,0,L|228:232,1,45.9375008292496
256,192,24552,2,0,L|296:228,1,54.6875006519258
320,312,25052,5,0,0:0:0:0:
360,200,25218,1,0,0:0:0:0:
404,316,25385,1,0,0:0:0:0:
404,316,25717,2,0,P|396:296|348:300,1,75.0000028610231
349,298,26716,1,0,0:0:0:0:
332,284,27049,5,0,0:0:0:0:
256,156,27382,1,0,0:0:0:0:
168,272,27715,1,0,0:0:0:0:
352,276,28048,1,0,0:0:0:0:
256,192,28381,2,0,P|240:176|236:220,1,100
152,100,29047,5,0,0:0:0:0:
152,100,29213,2,0,L|196:136,4,50
400,96,30212,1,0,0:0:0:0:
400,96,30378,2,0,L|356:132,1,50
361,127,30711,5,0,0:0:0:0:
256,192,31044,1,0,0:0:0:0:
204,144,31377,2,0,L|160:112,1,50
320,144,31710,2,0,L|360:108,1,50
204,244,32043,2,0,L|168:284,1,50
300,248,32376,2,0,L|336:288,1,50
333,285,32709,5,0,0:0:0:0:
268,204,32875,1,0,0:0:0:0:
312,300,33042,1,0,0:0:0:0:
296,208,33208,1,0,0:0:0:0:
276,304,33375,1,0,0:0:0:0:
276,208,33749,5,0,0:0:0:0:
204,192,34207,5,0,0:0:0:0:
320,192,34373,1,0,0:0:0:0:
136,192,34540,1,0,0:0:0:0:
392,192,34706,1,0,0:0:0:0:
180,192,35039,6,0,L|180:136,2,50
372,192,35705,2,0,L|372:140,2,50
312,204,36371,2,0,P|264:224|224:212,1,87.5
180,140,37037,6,0,L|236:172,1,50
320,144,37370,2,0,L|264:180,1,50
180,256,37703,2,0,L|224:220,1,50
328,256,38035,2,0,L|284:220,1,50
289,224,38368,1,0,0:0:0:0:
256,192,38535,1,0,0:0:0:0:
256,192,38701,6,0,P|232:168|216:216,2,100
252,188,39700,2,0,P|240:160|168:176,1,100
252,188,40366,6,0,P|264:160|332:168,1,100
252,188,41032,2,0,P|240:220|168:216,1,100
252,188,41698,2,0,P|264:216|344:216,1,100
144,104,42363,6,0,P|128:100|96:120,1,50
168,232,43029,2,0,P|152:240|120:228,1,50
128,220,43695,1,0,0:0:0:0:
196,160,44028,1,0,0:0:0:0:
176,188,44694,6,0,P|192:168|312:176,1,156.25
352,192,46358,1,0,0:0:0:0:
192,192,46691,1,0,0:0:0:0:
312,196,47024,1,0,0:0:0:0:
256,192,47357,6,0,L|232:216,1,25
256,192,47690,2,0,L|272:216,1,25
256,192,48023,2,0,L|256:168,1,25
256,120,48689,5,0,0:0:0:0:
168,196,49022,1,0,0:0:0:0:
256,128,49355,1,0,0:0:0:0:
336,204,49688,1,0,0:0:0:0:
256,192,50021,6,0,P|224:196|152:196,1,100
152,196,51019,1,0,0:0:0:0:
144,200,51352,2,0,P|200:200|336:188,1,186.999996290588
360,152,52268,1,0,0:0:0:0:
256,192,52517,12,0,55014,0:0:0:0:
256,192,55347,6,0,P|248:168|184:152,1,93.4999981452942
256,192,56013,2,0,P|272:168|336:152,1,93.4999981452942
256,192,56679,2,0,P|248:216|184:268,1,93.4999981452942
256,192,57345,2,0,P|276:224|328:268,1,93.4999981452942
256,188,59009,6,0,P|272:216|248:216,1,50
268,224,59675,1,0,0:0:0:0:
192,156,60091,1,0,0:0:0:0:
312,156,60424,1,0,0:0:0:0:
96,128,60757,6,0,L|180:188,1,100
392,136,61423,2,0,L|304:188,1,100
104,164,62089,2,0,L|104:276,1,100
404,168,62755,2,0,L|404:276,1,100
256,192,63337,12,0,65418,0:0:0:0:
256,192,65709,5,0,0:0:0:0:
148,188,66001,6,0,P|152:208|224:240,1,100
352,180,67333,2,0,P|344:212|284:244,1,100
168,180,68664,2,0,L|208:216,1,50
332,192,69330,2,0,L|280:216,1,50
224,128,69996,2,0,P|240:112|316:124,1,100
188,152,71328,6,0,L|128:240,1,106.25
352,160,72660,2,0,L|416:244,1,106.25
220,184,73991,2,0,P|256:208|316:196,2,106.25
168,192,76030,5,0,0:0:0:0:
256,112,76321,1,0,0:0:0:0:
148,188,76655,2,0,P|152:208|232:236,1,112.5
352,180,77987,2,0,P|344:212|276:244,1,112.5
168,180,79317,2,0,L|208:216,1,50
332,192,79983,2,0,L|280:216,1,50
224,128,80650,2,0,P|240:112|320:128,1,112.5
188,152,81982,6,0,L|128:244,1,106.25
352,160,83314,2,0,L|416:252,1,112.5
220,184,84645,2,0,P|256:208|308:184,2,100
167,165,86642,2,0,L|223:185,1,56.25
140,120,95422,5,0,0:0:0:0:
340,128,95755,1,0,0:0:0:0:
344,276,96088,1,0,0:0:0:0:
160,272,96421,1,0,0:0:0:0:
164,268,96754,5,0,0:0:0:0:
332,272,97087,1,0,0:0:0:0:
332,136,97420,1,0,0:0:0:0:
176,136,97753,1,0,0:0:0:0:
184,144,98086,6,0,L|228:168,1,50
336,140,98752,2,0,L|292:164,1,50
200,240,99417,2,0,L|236:204,1,50
304,248,100083,2,0,L|272:208,1,50
184,232,100749,5,0,0:0:0:0:
256,152,101082,1,0,0:0:0:0:
316,248,101415,1,0,0:0:0:0:
184,244,101748,1,0,0:0:0:0:
184,244,102081,5,0,0:0:0:0:
320,248,102414,1,0,0:0:0:0:
256,144,102747,1,0,0:0:0:0:
184,244,103080,1,0,0:0:0:0:
180,80,103412,6,0,P|160:64|120:112,1,100
264,192,104411,1,0,0:0:0:0:
352,80,104744,2,0,P|368:64|400:112,1,100
256,192,105743,1,0,0:0:0:0:
256,192,106076,6,0,L|204:192,2,50
256,192,107075,1,0,0:0:0:0:
256,188,107408,2,0,L|308:188,2,50
256,192,108406,1,0,0:0:0:0:
256,192,108739,5,4,0:0:0:0:
252,192,109072,2,0,L|224:236,1,50
220,244,109738,1,0,0:0:0:0:
224,248,110071,6,0,L|276:248,1,50
288,248,110737,1,0,0:0:0:0:
288,240,111070,2,0,L|260:196,3,50
256,192,112401,1,0,0:0:0:0:
200,144,112734,5,0,0:0:0:0:
256,192,113067,1,0,0:0:0:0:
308,244,113400,1,0,0:0:0:0:
256,204,113733,1,0,0:0:0:0:
212,152,114066,5,0,0:0:0:0:
256,204,114399,1,0,0:0:0:0:
312,156,114732,1,0,0:0:0:0:
256,216,115065,1,0,0:0:0:0:
220,168,115398,5,0,0:0:0:0:
168,228,115730,1,0,0:0:0:0:
112,296,116063,1,0,0:0:0:0:
164,228,116396,1,0,0:0:0:0:
256,192,116646,12,0,118727,0:0:0:0:
216,192,119393,6,0,P|256:212|308:192,1,100
308,192,120391,1,0,0:0:0:0:
308,192,120724,2,0,P|324:156|300:104,1,100
299,103,121723,1,0,0:0:0:0:
296,104,122056,6,0,B|260:120|260:120|200:108,1,100
208,112,123055,1,6,0:0:0:0:
192,124,123388,6,0,L|224:164,1,50
312,128,124053,2,0,L|280:172,1,50
292,192,124719,1,0,0:0:0:0:
232,192,125052,1,0,0:0:0:0:
312,192,125385,5,0,0:0:0:0:
180,192,125718,1,0,0:0:0:0:
176,192,126051,1,0,0:0:0:0:
132,260,126384,1,0,0:0:0:0:
100,164,126717,1,0,0:0:0:0:
72,260,127050,5,0,0:0:0:0:
96,256,127383,2,0,L|184:208,1,100
156,164,128048,2,0,L|88:200,1,75.0000028610231
76,164,128714,2,0,L|120:136,1,50
120,136,129380,5,0,0:0:0:0:
204,148,129713,1,0,0:0:0:0:
148,188,130088,6,0,P|152:208|224:240,1,100
352,180,131420,2,0,P|344:212|284:244,1,100
168,180,132710,2,0,L|208:216,1,50
332,192,133376,2,0,L|280:216,1,50
224,128,134083,2,0,P|240:112|316:124,1,100
188,152,135415,6,0,L|128:240,1,100
352,160,136747,2,0,L|416:248,1,100
220,184,138078,2,0,P|256:208|308:184,2,100
168,192,140034,5,0,0:0:0:0:
256,112,140367,1,0,0:0:0:0:
148,188,140742,2,0,P|152:208|224:240,1,100
352,180,142074,2,0,P|344:212|284:244,1,100
168,180,143364,2,0,L|208:216,1,50
332,192,144030,2,0,L|280:216,1,50
224,128,144737,2,0,P|240:112|316:124,1,100
188,152,146069,6,0,L|128:240,1,100
352,160,147401,2,0,L|416:248,1,100
220,184,148732,2,0,P|256:208|308:184,2,100
167,165,150729,2,0,L|223:185,1,56.25
264,196,151436,1,6,0:0:0:0:
