osu file format v14

[General]
AudioFilename: audio.mp3
AudioLeadIn: 0
PreviewTime: -1
Countdown: 1
SampleSet: None
StackLeniency: 0.7
Mode: 0
LetterboxInBreaks: 0
WidescreenStoryboard: 0

[Editor]
Bookmarks: 2027,7356,14467,14578,28689,35800,42911,57133,71356,85578,87356,101578,115800,130022,144244,158467,160244,167356,174467,188689,202911,217133
DistanceSpacing: 1.4
BeatDivisor: 4
GridSize: 8
TimelineZoom: 1.5

[Metadata]
Title:BANG BANG BANG
TitleUnicode:BANG BANG BANG
Artist:BIGBANG
ArtistUnicode:BIGBANG
Creator:Lizbeth
Version:Dancing
Source:
Tags:
BeatmapID:1943860
BeatmapSetID:930891

[Difficulty]
HPDrainRate:8
CircleSize:5
OverallDifficulty:8
ApproachRate:8
SliderMultiplier:1.6
SliderTickRate:1

[Events]
//Background and Video events
0,0,"BigBang-Bang-Bang-Bang-video.jpg",0,0
//Break Periods
2,84914,86631
2,115581,122186
2,157803,159519
//Storyboard Layer 0 (Background)
//Storyboard Layer 1 (Fail)
//Storyboard Layer 2 (Pass)
//Storyboard Layer 3 (Foreground)
//Storyboard Sound Samples

[TimingPoints]
270,444.444444444444,4,3,0,100,1,0
160269,-200,4,3,0,100,0,0
167381,-100,4,3,0,100,0,0

[Colours]
Combo1 : 255,255,149
Combo2 : 255,168,211
Combo3 : 128,128,192
Combo4 : 255,102,102

[HitObjects]
103,78,270,5,0,0:0:0:0:
195,53,714,1,0,0:0:0:0:
287,77,1158,1,0,0:0:0:0:
378,49,1603,1,0,0:0:0:0:
470,76,2047,5,0,0:3:0:0:
329,45,2492,1,0,0:3:0:0:
192,92,2936,1,0,0:3:0:0:
58,37,3381,1,0,0:3:0:0:
15,161,3825,5,0,0:0:0:0:
170,78,4269,1,0,0:0:0:0:
325,160,4714,1,0,0:0:0:0:
479,76,5158,1,0,0:0:0:0:
256,192,5269,12,0,6936,0:0:0:0:
379,27,7381,5,0,0:0:0:0:
434,124,7825,1,0,0:0:0:0:
400,230,8269,1,0,0:0:0:0:
455,327,8714,1,0,0:0:0:0:
455,327,9158,5,0,0:0:0:0:
355,223,9603,1,0,0:0:0:0:
454,119,10047,1,0,0:0:0:0:
335,37,10492,1,0,0:0:0:0:
160,36,10936,5,0,0:0:0:0:
58,138,11381,1,0,0:0:0:0:
124,266,11825,1,0,0:0:0:0:
12,357,12269,1,0,0:0:0:0:
12,357,12714,5,0,0:0:0:0:
84,200,13158,1,0,0:0:0:0:
49,39,13603,1,0,0:0:0:0:
105,183,13825,5,0,0:0:0:0:
198,200,14047,1,0,0:0:0:0:
294,184,14269,1,0,0:0:0:0:
381,148,14492,2,0,L|357:330,1,160
360,306,15158,1,0,0:0:0:0:
455,312,15381,1,0,0:0:0:0:
490,223,15603,1,0,0:0:0:0:
490,223,15714,1,0,0:0:0:0:
490,223,15825,1,0,0:0:0:0:
413,164,16047,1,0,0:0:0:0:
331,214,16269,5,0,0:0:0:0:
259,123,16714,1,0,0:0:0:0:
185,29,17158,1,0,0:0:0:0:
356,75,17381,5,0,0:0:0:0:
275,127,17603,1,0,0:0:0:0:
194,178,17825,1,0,0:0:0:0:
109,223,18047,2,0,P|65:153|65:73,1,160
63,77,18714,1,0,0:0:0:0:
148,4,18936,1,0,0:0:0:0:
252,43,19158,1,0,0:0:0:0:
252,43,19269,1,0,0:0:0:0:
252,43,19381,1,0,0:0:0:0:
242,154,19603,1,0,0:0:0:0:
124,191,19825,5,0,0:0:0:0:
261,273,20269,1,0,0:0:0:0:
406,340,20714,1,0,0:0:0:0:
450,195,20936,5,0,0:0:0:0:
366,242,21158,1,0,0:0:0:0:
192,187,21381,1,0,0:0:0:0:
287,198,21603,2,0,P|255:276|195:322,1,160
283,362,22269,1,0,0:0:0:0:
183,238,22492,2,0,P|83:256|26:210,1,160
82,141,23158,1,0,0:0:0:0:
185,80,23381,1,0,0:0:0:0:
289,138,23603,1,0,0:0:0:0:
392,77,23825,1,0,0:0:0:0:
392,77,24269,1,0,0:0:0:0:
392,77,24492,6,0,L|423:163,1,80
422,331,24936,2,0,L|387:249,1,80
390,257,25603,1,0,0:0:0:0:
299,307,25825,1,0,0:0:0:0:
117,316,26047,2,0,L|214:276,1,80
233,190,26492,1,0,0:0:0:0:
268,92,26714,2,0,P|351:94|433:40,2,160
298,191,27825,2,0,P|212:207|154:252,1,160
66,70,28492,5,0,0:0:0:0:
66,70,28603,1,0,0:0:0:0:
66,70,28714,1,0,0:0:0:0:
64,173,28936,1,0,0:0:0:0:
161,208,29158,1,0,0:0:0:0:
252,157,29381,1,0,0:0:0:0:
252,157,29492,1,0,0:0:0:0:
252,157,29603,2,0,B|317:137|340:192|414:153,1,160
442,298,30269,5,0,0:0:0:0:
339,344,30492,1,0,0:0:0:0:
339,344,30603,1,0,0:0:0:0:
339,344,30714,1,0,0:0:0:0:
260,264,30936,1,0,0:0:0:0:
299,159,31158,1,0,0:0:0:0:
299,159,31269,1,0,0:0:0:0:
299,159,31381,2,0,B|254:92|205:150|161:68,1,160
63,247,32047,5,0,0:0:0:0:
91,260,32158,1,0,0:0:0:0:
120,272,32269,2,0,L|202:303,1,80
389,293,32714,2,0,L|295:253,1,80
205,114,33158,2,0,L|284:149,1,80
429,86,33603,2,0,L|339:44,1,80
324,51,33936,5,0,0:0:0:0:
293,61,34047,1,0,0:0:0:0:
261,68,34158,1,0,0:0:0:0:
230,75,34269,1,0,0:0:0:0:
122,141,34492,1,0,0:0:0:0:
239,202,34714,1,0,0:0:0:0:
222,224,34825,1,0,0:0:0:0:
205,246,34936,1,0,0:0:0:0:
188,268,35047,1,0,0:0:0:0:
171,290,35158,1,0,0:0:0:0:
400,334,35825,5,0,0:0:0:0:
400,334,35936,1,0,0:0:0:0:
400,334,36047,1,0,0:0:0:0:
464,182,36269,1,0,0:0:0:0:
464,182,36381,1,0,0:0:0:0:
464,182,36492,1,0,0:0:0:0:
273,194,36714,5,0,0:0:0:0:
401,354,36936,1,0,0:0:0:0:
471,152,37158,1,0,0:0:0:0:
343,42,37381,5,0,0:0:0:0:
183,32,37603,1,0,0:0:0:0:
75,150,37825,1,0,0:0:0:0:
75,150,37936,1,0,0:0:0:0:
75,150,38047,1,0,0:0:0:0:
158,286,38269,1,0,0:0:0:0:
158,286,38381,1,0,0:0:0:0:
158,286,38492,5,0,0:0:0:0:
384,341,38714,1,0,0:0:0:0:
332,124,38936,1,0,0:0:0:0:
96,44,39269,5,0,0:0:0:0:
96,44,39381,2,0,L|176:24,1,80
379,70,39825,2,0,L|282:95,1,80
312,118,40158,1,0,0:0:0:0:
320,148,40269,1,0,0:0:0:0:
328,179,40381,1,0,0:0:0:0:
336,206,40492,2,0,L|366:287,1,80,0|0,0:3|0:3,0:3:0:0:
181,329,41158,6,0,L|123:339,1,40
140,188,41603,2,0,L|86:195,1,40
306,219,42047,2,0,L|436:199,2,120
300,330,42936,5,0,0:0:0:0:
210,262,43381,1,0,0:0:0:0:
168,157,43825,1,0,0:0:0:0:
201,50,44269,1,0,0:0:0:0:
201,50,44714,5,0,0:0:0:0:
154,169,45158,1,0,0:0:0:0:
45,237,45603,1,0,0:0:0:0:
7,359,46047,1,0,0:0:0:0:
7,359,46492,5,0,0:0:0:0:
139,301,46936,1,0,0:0:0:0:
278,336,47381,1,0,0:0:0:0:
412,284,47825,1,0,0:0:0:0:
412,284,48269,5,0,0:0:0:0:
259,235,48714,1,0,0:0:0:0:
264,75,49158,1,0,0:0:0:0:
109,33,49603,1,0,0:0:0:0:
55,251,50047,5,0,0:0:0:0:
55,251,50158,1,0,0:0:0:0:
181,333,50381,1,0,0:0:0:0:
181,333,50492,1,0,0:0:0:0:
301,261,50714,1,0,0:0:0:0:
292,120,50936,1,0,0:0:0:0:
292,120,51047,1,0,0:0:0:0:
145,96,51269,1,0,0:0:0:0:
145,96,51381,1,0,0:0:0:0:
177,205,51603,2,0,L|153:187,4,20
261,66,52047,5,0,0:0:0:0:
261,66,52158,1,0,0:0:0:0:
261,66,52269,1,0,0:0:0:0:
406,150,52492,1,0,0:0:0:0:
389,321,52714,1,0,0:0:0:0:
389,321,52825,1,0,0:0:0:0:
231,357,53047,1,0,0:0:0:0:
231,357,53158,1,0,0:0:0:0:
93,251,53381,2,0,L|74:268,4,20
116,80,53825,5,0,0:0:0:0:
354,61,54047,1,0,0:0:0:0:
269,284,54269,1,0,0:0:0:0:
162,63,54492,1,0,0:0:0:0:
386,88,54714,6,0,L|346:115,1,40
305,119,54936,2,0,L|272:167,1,40
235,163,55158,2,0,L|218:209,1,40
63,292,56714,5,0,0:0:0:0:
167,171,56936,1,0,0:0:0:0:
265,45,57158,2,0,P|346:67|417:136,1,160
472,259,57825,2,0,L|392:291,1,80
240,260,58269,2,0,L|321:228,1,80
314,230,58936,1,0,0:0:0:0:
314,230,59381,1,0,0:0:0:0:
327,110,59603,1,0,0:0:0:0:
207,108,59825,1,0,0:0:0:0:
201,227,60047,1,0,0:0:0:0:
151,336,60269,5,0,0:0:0:0:
88,188,60492,1,0,0:0:0:0:
26,40,60714,2,0,P|103:21|218:39,1,160
251,126,61381,1,0,0:0:0:0:
299,244,61603,1,0,0:0:0:0:
420,203,61825,1,0,0:0:0:0:
372,84,62047,1,0,0:0:0:0:
47,51,62492,5,0,0:0:0:0:
445,191,62936,1,0,0:0:0:0:
41,292,63381,1,0,0:0:0:0:
41,292,63825,5,0,0:0:0:0:
204,198,64047,1,0,0:0:0:0:
320,344,64269,2,0,P|367:288|384:205,1,160
283,158,64936,1,0,0:0:0:0:
340,52,65158,1,0,0:0:0:0:
220,34,65381,1,0,0:0:0:0:
160,138,65603,1,0,0:0:0:0:
160,138,66047,2,0,P|113:198|101:292,1,160
199,345,66714,1,0,0:0:0:0:
311,302,66936,1,0,0:0:0:0:
424,341,67158,1,0,0:0:0:0:
388,225,67381,5,0,0:0:0:0:
176,193,67603,1,0,0:0:0:0:
303,31,67825,2,0,P|377:24|476:72,1,160
381,159,68492,1,0,0:0:0:0:
454,273,68714,1,0,0:0:0:0:
349,359,68936,1,0,0:0:0:0:
272,246,69158,1,0,0:0:0:0:
78,326,69603,5,0,0:0:0:0:
445,236,70047,1,0,0:0:0:0:
189,26,70492,1,0,0:0:0:0:
189,26,71381,5,0,0:0:0:0:
189,26,71825,1,0,0:0:0:0:
178,137,72047,1,0,0:0:0:0:
198,247,72269,1,0,0:0:0:0:
367,310,72492,6,0,L|260:312,1,80
287,311,73158,5,0,0:0:0:0:
287,311,73603,1,0,0:0:0:0:
316,202,73825,1,0,0:0:0:0:
414,149,74047,1,0,0:0:0:0:
258,92,74269,5,0,0:0:0:0:
258,92,74381,1,0,0:0:0:0:
258,92,74492,1,0,0:0:0:0:
258,92,74714,1,0,0:0:0:0:
383,104,74936,5,0,0:0:0:0:
383,104,75381,1,0,0:0:0:0:
421,208,75603,1,0,0:0:0:0:
351,295,75825,1,0,0:0:0:0:
189,355,76047,6,0,P|207:327|262:310,1,80
248,309,76714,5,0,0:0:0:0:
248,309,77158,1,0,0:0:0:0:
159,240,77381,1,0,0:0:0:0:
149,128,77603,1,0,0:0:0:0:
301,176,77825,5,0,0:0:0:0:
338,162,77936,1,0,0:0:0:0:
375,149,78047,2,0,L|391:57,1,80
388,70,78492,5,0,0:0:0:0:
388,70,78936,1,0,0:0:0:0:
253,18,79158,1,0,0:0:0:0:
158,126,79381,1,0,0:0:0:0:
228,252,79603,1,0,0:0:0:0:
368,223,79825,1,0,0:0:0:0:
368,223,80269,5,0,0:0:0:0:
368,223,80714,1,0,0:0:0:0:
218,167,80936,1,0,0:0:0:0:
339,61,81158,1,0,0:0:0:0:
339,61,81603,1,0,0:0:0:0:
420,205,81825,6,0,L|417:122,1,80
417,125,82492,1,0,0:0:0:0:
264,75,82714,1,0,0:0:0:0:
173,207,82936,1,0,0:0:0:0:
260,340,83158,1,0,0:0:0:0:
412,292,83381,1,0,0:0:0:0:
412,292,83825,5,0,0:3:0:0:
58,189,84269,1,0,0:3:0:0:
414,57,84714,1,0,0:3:0:0:
83,61,87381,5,0,0:0:0:0:
175,36,87825,1,0,0:0:0:0:
267,60,88269,2,0,L|388:28,2,120
245,146,89158,5,0,0:0:0:0:
251,243,89603,1,0,0:0:0:0:
204,331,90047,2,0,L|59:350,2,120
292,338,90936,5,0,0:0:0:0:
358,268,91381,1,0,0:0:0:0:
378,178,91825,2,0,P|396:119|447:84,2,120
302,223,92714,5,0,0:0:0:0:
215,238,93158,1,0,0:0:0:0:
123,223,93603,2,0,P|98:279|31:315,2,120
53,168,94492,5,0,0:0:0:0:
421,162,94936,1,0,0:0:0:0:
421,162,95158,2,0,L|410:82,1,80
312,185,95603,2,0,L|305:266,1,80
193,160,96047,2,0,L|192:58,1,80
71,184,96492,1,0,0:0:0:0:
71,184,96714,2,0,L|92:345,1,160
308,354,97381,5,0,0:0:0:0:
410,334,97603,1,0,0:0:0:0:
464,245,97825,1,0,0:0:0:0:
428,147,98047,1,0,0:0:0:0:
324,139,98269,1,0,0:0:0:0:
249,211,98492,2,0,L|273:301,1,80
235,116,98936,2,0,L|213:40,1,80
181,194,99381,1,0,0:0:0:0:
80,219,99603,1,0,0:0:0:0:
23,131,99825,1,0,0:0:0:0:
256,192,99936,12,0,101158,0:0:0:0:
94,126,101603,5,0,0:0:0:0:
94,126,101714,1,0,0:0:0:0:
94,126,101825,1,0,0:0:0:0:
142,34,102047,1,0,0:0:0:0:
244,52,102269,1,0,0:0:0:0:
244,52,102381,1,0,0:0:0:0:
244,52,102492,1,0,0:0:0:0:
267,153,102714,1,0,0:0:0:0:
267,153,102825,1,0,0:0:0:0:
178,206,103047,1,0,0:0:0:0:
178,206,103158,1,0,0:0:0:0:
91,309,103381,5,0,0:0:0:0:
224,324,103603,1,0,0:0:0:0:
352,315,103825,1,0,0:0:0:0:
474,332,104047,1,0,0:0:0:0:
420,232,104269,1,0,0:0:0:0:
420,232,104381,1,0,0:0:0:0:
481,134,104603,1,0,0:0:0:0:
481,134,104714,1,0,0:0:0:0:
390,82,104936,5,0,0:0:0:0:
349,177,105158,1,0,0:0:0:0:
245,193,105381,1,0,0:0:0:0:
172,118,105603,1,0,0:0:0:0:
230,32,105825,1,0,0:0:0:0:
230,32,105936,1,0,0:0:0:0:
230,32,106047,1,0,0:0:0:0:
333,32,106269,1,0,0:0:0:0:
333,32,106381,1,0,0:0:0:0:
333,32,106492,1,0,0:0:0:0:
379,125,106714,5,0,0:0:0:0:
379,125,106825,1,0,0:0:0:0:
379,125,106936,2,0,L|377:214,1,80
258,335,107381,2,0,L|232:248,1,80
107,121,107825,2,0,L|97:242,1,120
97,240,108269,6,0,B|142:188|174:257|231:181,1,120
207,206,108714,5,0,0:0:0:0:
204,94,108936,1,0,0:0:0:0:
301,28,109158,1,0,0:0:0:0:
401,79,109381,1,0,0:0:0:0:
401,79,109492,1,0,0:0:0:0:
401,79,109603,6,0,B|445:131|369:149|438:211,1,120
444,212,110047,5,0,0:0:0:0:
398,322,110269,1,0,0:0:0:0:
398,322,110381,1,0,0:0:0:0:
398,322,110492,1,0,0:0:0:0:
278,318,110714,1,0,0:0:0:0:
278,318,110825,1,0,0:0:0:0:
278,318,110936,1,0,0:0:0:0:
243,203,111158,1,0,0:0:0:0:
243,203,111269,1,0,0:0:0:0:
243,203,111381,6,0,B|196:148|161:231|120:139,1,120
125,137,111825,5,0,0:0:0:0:
149,289,112047,1,0,0:0:0:0:
262,200,112269,2,0,B|301:169|320:222|384:166,1,120
397,145,112714,5,0,0:0:0:0:
380,317,112936,1,0,0:0:0:0:
227,195,113158,2,0,B|169:195|133:247,1,80
117,233,113492,1,0,0:0:0:0:
89,219,113603,1,0,0:0:0:0:
76,185,113714,1,0,0:0:0:0:
83,149,113825,1,0,0:0:0:0:
99,116,113936,1,0,0:0:0:0:
127,94,114047,6,0,L|205:91,1,40
388,135,114492,2,0,L|337:138,1,40
104,247,114936,2,0,L|177:250,1,40
376,311,115381,1,0,0:0:0:0:
67,55,122936,5,0,0:0:0:0:
38,146,123158,1,0,0:0:0:0:
38,146,123269,1,0,0:0:0:0:
38,146,123381,1,0,0:0:0:0:
88,227,123603,1,0,0:0:0:0:
183,239,123825,1,0,0:0:0:0:
183,239,123936,1,0,0:0:0:0:
241,162,124158,1,0,0:0:0:0:
241,162,124269,1,0,0:0:0:0:
298,84,124492,2,0,L|301:57,4,20
409,89,124936,5,0,0:0:0:0:
409,89,125047,1,0,0:0:0:0:
409,89,125158,1,0,0:0:0:0:
472,181,125381,1,0,0:0:0:0:
426,283,125603,1,0,0:0:0:0:
426,283,125714,1,0,0:0:0:0:
316,305,125936,1,0,0:0:0:0:
316,305,126047,1,0,0:0:0:0:
230,233,126269,2,0,L|204:255,4,20
232,128,126714,1,0,0:0:0:0:
319,72,126936,1,0,0:0:0:0:
415,110,127158,5,0,0:0:0:0:
432,237,127381,1,0,0:0:0:0:
267,277,127603,1,0,0:0:0:0:
270,149,127825,1,0,0:0:0:0:
114,130,128047,1,0,0:0:0:0:
91,255,128269,1,0,0:0:0:0:
91,255,129603,5,0,0:0:0:0:
278,295,129825,1,0,0:0:0:0:
454,331,130047,2,0,P|472:243|463:161,1,160
251,182,130714,2,0,L|336:194,1,80
483,65,131158,2,0,L|392:52,1,80
403,53,131825,5,0,0:0:0:0:
403,53,132269,1,0,0:0:0:0:
402,175,132492,1,0,0:0:0:0:
255,163,132714,1,0,0:0:0:0:
252,37,132936,1,0,0:0:0:0:
252,37,133047,1,0,0:0:0:0:
252,37,133158,5,0,0:0:0:0:
143,200,133381,1,0,0:0:0:0:
40,352,133603,2,0,P|101:371|195:354,1,160
351,198,134269,2,0,P|309:191|260:207,1,80
402,346,134714,2,0,P|442:354|485:336,1,80
478,341,135381,5,0,0:0:0:0:
257,56,135825,1,0,0:0:0:0:
48,339,136269,1,0,0:0:0:0:
48,339,136714,5,0,0:0:0:0:
257,338,136936,1,0,0:0:0:0:
465,337,137158,2,0,L|403:184,1,160
404,188,137825,1,0,0:0:0:0:
279,274,138047,1,0,0:0:0:0:
200,144,138269,1,0,0:0:0:0:
333,70,138492,1,0,0:0:0:0:
332,69,138936,6,0,P|245:49|161:81,1,160
71,137,139603,1,0,0:0:0:0:
174,211,139825,1,0,0:0:0:0:
287,270,140047,1,0,0:0:0:0:
400,329,140269,5,0,0:0:0:0:
475,183,140492,1,0,0:0:0:0:
374,28,140714,2,0,P|272:29|193:73,1,160
232,286,141381,2,0,L|229:202,1,80
97,39,141825,2,0,L|87:126,1,80
56,341,142492,5,0,0:0:0:0:
436,191,142936,1,0,0:0:0:0:
66,35,143381,1,0,0:0:0:0:
66,35,144269,5,0,0:0:0:0:
66,35,144714,1,0,0:0:0:0:
185,80,144936,1,0,0:0:0:0:
307,43,145158,1,0,0:0:0:0:
425,186,145381,6,0,L|431:97,1,80
430,106,146047,5,0,0:0:0:0:
430,106,146492,1,0,0:0:0:0:
309,43,146714,1,0,0:0:0:0:
183,95,146936,1,0,0:0:0:0:
53,54,147158,1,0,0:0:0:0:
53,54,147269,1,0,0:0:0:0:
53,54,147381,1,0,0:0:0:0:
53,54,147603,1,0,0:0:0:0:
85,282,147825,5,0,0:0:0:0:
85,282,148269,1,0,0:0:0:0:
22,151,148492,1,0,0:0:0:0:
127,52,148714,1,0,0:0:0:0:
330,89,148936,6,0,L|242:109,1,80
251,106,149603,5,0,0:0:0:0:
251,106,150047,2,0,P|190:147|152:238,1,160
328,189,150714,2,0,P|317:254|357:345,1,160
351,339,151381,5,0,0:0:0:0:
351,339,151825,1,0,0:0:0:0:
462,235,152047,1,0,0:0:0:0:
330,158,152269,1,0,0:0:0:0:
441,54,152492,1,0,0:0:0:0:
441,54,152603,1,0,0:0:0:0:
441,54,152714,1,0,0:0:0:0:
441,54,153158,5,0,0:0:0:0:
441,54,153603,2,0,L|355:64,1,80
255,195,154047,2,0,L|351:183,2,80
221,333,154714,5,0,0:0:0:0:
221,333,154936,1,0,0:0:0:0:
221,333,155381,6,0,L|323:329,1,80
418,160,155825,2,0,L|305:175,2,80
259,33,156714,5,0,0:0:0:0:
69,328,157158,1,0,0:0:0:0:
446,334,157603,1,0,0:0:0:0:
113,58,160269,6,0,P|94:95|89:148,1,80
183,205,161158,2,0,L|195:267,2,60
227,93,162269,2,0,L|215:36,2,40
271,134,162936,1,0,0:0:0:0:
324,107,163158,1,0,0:0:0:0:
383,115,163381,2,0,L|400:164,1,40
404,212,163825,6,0,L|312:227,1,80
243,312,164714,2,0,P|217:328|180:325,2,60
214,195,165825,2,0,P|219:177|212:155,2,40
163,227,166492,1,0,0:0:0:0:
106,207,166714,1,0,0:0:0:0:
47,220,166937,2,0,P|37:249|45:275,1,40
61,340,167381,5,0,0:0:0:0:
164,297,167825,1,0,0:0:0:0:
269,333,168269,1,0,0:0:0:0:
373,292,168714,1,0,0:0:0:0:
476,333,169158,5,0,0:0:0:0:
360,277,169602,1,0,0:0:0:0:
238,316,170047,1,0,0:0:0:0:
116,276,170492,1,0,0:0:0:0:
0,326,170936,5,0,0:0:0:0:
129,262,171380,1,0,0:0:0:0:
264,309,171824,1,0,0:0:0:0:
404,275,172269,1,0,0:0:0:0:
450,172,172492,5,0,0:0:0:0:
352,116,172714,1,0,0:0:0:0:
263,184,172936,1,0,0:0:0:0:
263,184,173047,1,0,0:0:0:0:
263,184,173158,1,0,0:0:0:0:
170,120,173381,1,0,0:0:0:0:
170,120,173492,1,0,0:0:0:0:
64,157,173714,1,0,0:0:0:0:
64,157,173825,2,0,L|76:251,2,80
53,45,174492,6,0,P|110:27|192:26,1,120
169,23,174936,2,0,L|186:108,1,80
395,200,175381,6,0,L|293:262,1,120
292,262,175825,2,0,P|254:221|249:192,1,80
48,83,176269,6,0,P|34:135|42:214,1,120
38,200,176714,2,0,L|120:203,1,80
291,48,177158,6,0,B|347:181|334:161,1,120
335,159,177603,2,0,P|374:144|412:148,1,80
261,324,178047,6,0,P|203:280|173:213,1,120
180,239,178492,5,0,0:0:0:0:
78,258,178714,1,0,0:0:0:0:
33,164,178936,1,0,0:0:0:0:
91,78,179158,1,0,0:0:0:0:
187,116,179381,5,0,0:0:0:0:
330,113,179603,1,0,0:0:0:0:
473,113,179825,2,0,P|489:177|474:262,1,120
484,230,180269,2,0,L|391:236,1,80
205,321,180714,6,0,L|182:197,1,120
183,203,181158,2,0,P|228:182|268:184,1,80
461,254,181603,6,0,P|483:187|475:120,1,120
480,138,182047,1,0,0:0:0:0:
354,56,182269,2,0,L|341:139,1,80
225,167,182714,2,0,L|215:86,1,80
92,52,183158,1,0,0:0:0:0:
48,147,183381,6,0,P|39:191|60:270,1,120
55,263,183825,1,0,0:0:0:0:
179,286,184047,2,0,P|165:244|169:202,1,80
311,147,184492,2,0,P|321:190|307:235,1,80
206,109,184936,1,0,0:0:0:0:
260,26,185158,6,0,P|324:18|387:34,1,120
377,29,185603,2,0,L|403:113,1,80
425,229,186047,1,0,0:0:0:0:
329,314,186269,1,0,0:0:0:0:
202,294,186492,5,0,0:0:0:0:
263,154,186714,1,0,0:0:0:0:
326,25,186936,2,0,P|281:12|202:29,1,120
210,24,187381,2,0,L|168:101,1,80
167,129,187714,1,0,0:0:0:0:
148,152,187825,1,0,0:0:0:0:
109,264,188047,1,0,0:0:0:0:
121,293,188158,1,0,0:0:0:0:
146,309,188269,1,0,0:0:0:0:
280,334,188492,1,0,0:0:0:0:
421,313,188714,6,0,B|468:238|392:241|434:155,4,160
319,338,190714,5,0,0:0:0:0:
220,305,190936,1,0,0:0:0:0:
198,203,191158,1,0,0:0:0:0:
259,118,191381,1,0,0:0:0:0:
361,133,191603,1,0,0:0:0:0:
315,226,191825,1,0,0:0:0:0:
211,238,192047,1,0,0:0:0:0:
109,217,192269,6,0,B|36:175|129:114|31:64,4,160
293,341,194381,5,0,0:0:0:0:
293,341,194492,1,0,0:0:0:0:
366,267,194714,1,0,0:0:0:0:
346,164,194936,2,0,P|312:136|296:62,1,120
295,64,195381,1,0,0:0:0:0:
192,44,195603,1,0,0:0:0:0:
142,135,195825,6,0,B|108:58|64:120|41:20,4,160
128,238,197825,5,0,0:0:0:0:
211,299,198047,1,0,0:0:0:0:
311,271,198269,1,0,0:0:0:0:
356,177,198492,1,0,0:0:0:0:
288,98,198714,1,0,0:0:0:0:
213,169,198936,1,0,0:0:0:0:
282,246,199158,1,0,0:0:0:0:
376,291,199381,6,0,B|447:271|456:360|531:326,4,160
183,346,201492,5,0,0:0:0:0:
183,346,201603,1,0,0:0:0:0:
101,281,201825,1,0,0:0:0:0:
31,203,202047,2,0,P|37:142|69:92,1,120
67,93,202492,5,0,0:0:0:0:
292,32,202714,1,0,0:0:0:0:
293,257,202936,2,0,B|374:272|324:347|437:366,4,160
185,202,204936,5,0,0:0:0:0:
169,83,205158,1,0,0:0:0:0:
265,10,205381,1,0,0:0:0:0:
375,56,205603,1,0,0:0:0:0:
366,175,205825,1,0,0:0:0:0:
320,285,206047,5,0,0:0:0:0:
52,347,206269,1,0,0:0:0:0:
142,114,206492,2,0,B|100:34|53:100|0:35,4,160
267,325,208603,5,0,0:0:0:0:
267,325,208714,2,0,P|275:278|302:243,1,80
403,267,209158,2,0,P|434:207|441:151,1,120
441,155,209603,5,0,0:0:0:0:
218,294,209825,1,0,0:0:0:0:
135,66,210047,2,0,B|64:75|92:149|18:173,4,160
256,25,212047,5,0,0:0:0:0:
380,54,212269,1,0,0:0:0:0:
429,172,212492,1,0,0:0:0:0:
407,297,212714,1,0,0:0:0:0:
287,341,212936,1,0,0:0:0:0:
163,295,213158,5,0,0:0:0:0:
98,64,213381,1,0,0:0:0:0:
342,32,213603,2,0,B|424:4|405:74|502:28,4,160
90,85,215714,5,0,0:0:0:0:
90,85,215825,1,0,0:0:0:0:
50,206,216047,1,0,0:0:0:0:
224,282,216269,1,0,0:0:0:0:
217,146,216492,1,0,0:0:0:0:
213,110,216603,1,0,0:0:0:0:
210,73,216714,1,0,0:0:0:0:
386,137,216936,1,0,0:0:0:0:
391,170,217047,1,0,0:0:0:0:
395,204,217158,1,0,0:0:0:0:
