osu file format v14

[General]
AudioFilename: audio.mp3
AudioLeadIn: 0
PreviewTime: 55342
Countdown: 1
SampleSet: None
StackLeniency: 0.7
Mode: 0
LetterboxInBreaks: 0
WidescreenStoryboard: 0

[Editor]
DistanceSpacing: 1.4
BeatDivisor: 8
GridSize: 4
TimelineZoom: 1.5

[Metadata]
Title:BANG BANG BANG
TitleUnicode:뱅뱅뱅
Artist:BIGBANG
ArtistUnicode:BIGBANG
Creator:Blizs
Version:The Bangs
Source:
Tags:YG ENTERTAINMENT 지니뮤직 KT MUSIC A 지드래곤 G-DRAGON 최승현 T.O.P 태양 TAEYANG 대성 DAESUNG 승리 SEUNGRI Kpop K-pop Hiphop osu!Kpop Mapping Contest
BeatmapID:1456861
BeatmapSetID:688417

[Difficulty]
HPDrainRate:6
CircleSize:4.5
OverallDifficulty:8
ApproachRate:9.5
SliderMultiplier:2.8
SliderTickRate:1

[Events]
//Background and Video events
0,0,"bg.jpg",0,0
//Break Periods
2,85375,86206
2,160286,166509
//Storyboard Layer 0 (Background)
//Storyboard Layer 1 (Fail)
//Storyboard Layer 2 (Pass)
//Storyboard Layer 3 (Foreground)
//Storyboard Sound Samples

[TimingPoints]
287,444.444444444444,4,2,1,50,1,0
287,-200,4,2,1,50,0,0
7398,-181.818181818182,4,2,1,60,0,0
14509,-125,4,2,1,70,0,0
25175,-125,4,2,1,75,0,0
28731,-100,4,2,1,80,0,0
34953,-200,4,2,1,65,0,0
35009,-200,4,2,1,5,0,0
35620,-76.9230769230769,4,2,1,65,0,0
35675,-76.9230769230769,4,2,1,5,0,0
35842,-100,4,2,1,80,0,0
42064,-200,4,2,1,65,0,0
42953,-166.666666666667,4,2,3,55,0,0
50064,-142.857142857143,4,2,1,65,0,0
51842,-117.647058823529,4,2,1,70,0,0
53620,-100,4,2,1,75,0,0
55398,-200,4,2,1,35,0,0
56731,-133.333333333333,4,2,1,35,0,0
57175,-166.666666666667,4,2,3,55,0,1
57231,-166.666666666667,4,2,3,55,0,0
57786,-166.666666666667,4,2,3,5,0,0
57842,-142.857142857143,4,2,3,60,0,0
58064,-142.857142857143,4,1,1,60,0,0
58286,-117.647058823529,4,2,3,65,0,0
58453,-117.647058823529,4,2,3,5,0,0
58509,-100,4,2,3,85,0,0
58898,-100,4,2,3,5,0,0
58953,-166.666666666667,4,2,3,55,0,0
59564,-166.666666666667,4,2,3,5,0,0
59620,-133.333333333333,4,2,3,68,0,0
59842,-133.333333333333,4,1,1,68,0,0
60064,-133.333333333333,4,2,3,68,0,0
60286,-100,4,2,3,80,0,0
60731,-166.666666666667,4,2,3,55,0,0
61342,-166.666666666667,4,2,3,5,0,0
61398,-142.857142857143,4,2,3,60,0,0
61620,-142.857142857143,4,1,1,60,0,0
61842,-117.647058823529,4,2,3,65,0,0
62009,-117.647058823529,4,2,3,5,0,0
62064,-100,4,2,3,85,0,0
62453,-100,4,2,3,5,0,0
62509,-166.666666666667,4,2,3,70,0,0
62842,-166.666666666667,4,2,3,5,0,0
62953,-166.666666666667,4,2,3,70,0,0
63286,-166.666666666667,4,2,3,5,0,0
63398,-166.666666666667,4,1,1,70,0,0
63620,-125,4,2,3,68,0,0
63786,-125,4,2,3,5,0,0
63842,-100,4,2,3,80,0,0
64286,-166.666666666667,4,2,3,55,0,0
64898,-166.666666666667,4,2,3,5,0,0
64953,-142.857142857143,4,2,3,60,0,0
65175,-142.857142857143,4,1,1,60,0,0
65398,-117.647058823529,4,2,3,65,0,0
65564,-117.647058823529,4,2,3,5,0,0
65620,-100,4,2,3,85,0,0
66009,-100,4,2,3,5,0,0
66064,-166.666666666667,4,2,3,55,0,0
66675,-166.666666666667,4,2,3,5,0,0
66731,-133.333333333333,4,2,3,68,0,0
66953,-133.333333333333,4,1,1,68,0,0
67175,-125,4,2,3,70,0,0
67342,-125,4,2,3,5,0,0
67398,-100,4,2,3,80,0,0
67842,-166.666666666667,4,2,3,55,0,0
68453,-166.666666666667,4,2,3,5,0,0
68509,-142.857142857143,4,2,3,60,0,0
68731,-142.857142857143,4,1,1,60,0,0
68953,-117.647058823529,4,2,3,65,0,0
69120,-117.647058823529,4,2,3,5,0,0
69175,-100,4,2,3,85,0,0
69564,-100,4,2,3,5,0,0
69620,-125,4,2,3,70,0,0
69953,-125,4,2,3,5,0,0
70064,-125,4,2,3,70,0,0
70398,-125,4,2,3,5,0,0
70509,-142.857142857143,4,2,1,60,0,0
71398,-100,4,2,1,80,0,1
71453,-100,4,2,2,80,0,1
72286,-100,4,1,1,80,0,1
72342,-100,4,2,2,80,0,1
74064,-100,4,1,1,80,0,1
74120,-100,4,2,2,80,0,1
75842,-100,4,1,1,80,0,1
75898,-100,4,2,2,80,0,1
77620,-100,4,1,1,80,0,1
77675,-100,4,2,2,80,0,1
79398,-100,4,1,1,80,0,1
79453,-100,4,2,2,80,0,1
81175,-100,4,1,1,80,0,1
81231,-100,4,2,2,80,0,1
82953,-100,4,1,1,80,0,1
83009,-100,4,2,2,80,0,1
83842,-76.9230769230769,4,2,3,60,0,1
85175,-181.818181818182,4,2,1,5,0,0
86731,-181.818181818182,4,2,1,60,0,0
87398,-125,4,2,1,70,0,0
98064,-125,4,2,1,75,0,0
101620,-100,4,2,1,80,0,0
108286,-90.9090909090909,4,2,1,80,0,0
108731,-100,4,2,1,80,0,0
109620,-83.3333333333333,4,2,1,80,0,0
110064,-100,4,2,1,80,0,0
111398,-83.3333333333333,4,2,1,80,0,0
111842,-100,4,2,1,80,0,0
112286,-166.666666666667,4,2,1,50,0,0
112731,-100,4,2,1,80,0,0
113175,-166.666666666667,4,2,1,50,0,0
113398,-166.666666666667,4,2,1,30,0,0
113509,-166.666666666667,4,2,1,40,0,0
113620,-166.666666666667,4,2,1,50,0,0
113731,-166.666666666667,4,2,1,60,0,0
113842,-166.666666666667,4,2,1,70,0,0
113953,-166.666666666667,4,2,1,80,0,0
114064,-200,4,2,1,50,0,0
115398,-100,4,2,0,60,0,0
115842,-166.666666666667,4,2,3,55,0,0
122953,-142.857142857143,4,2,1,65,0,0
124731,-117.647058823529,4,2,1,70,0,0
126509,-100,4,2,1,75,0,0
128286,-200,4,2,1,35,0,0
129620,-133.333333333333,4,2,1,35,0,0
130064,-166.666666666667,4,2,3,55,0,1
130120,-166.666666666667,4,2,3,55,0,0
130675,-166.666666666667,4,2,3,5,0,0
130731,-142.857142857143,4,2,3,60,0,0
130953,-142.857142857143,4,1,1,60,0,0
131175,-117.647058823529,4,2,3,65,0,0
131342,-117.647058823529,4,2,3,5,0,0
131398,-100,4,2,3,85,0,0
131786,-100,4,2,3,5,0,0
131842,-166.666666666667,4,2,3,55,0,0
132453,-166.666666666667,4,2,3,5,0,0
132509,-133.333333333333,4,2,3,68,0,0
132731,-133.333333333333,4,1,1,68,0,0
132953,-133.333333333333,4,2,3,68,0,0
133175,-100,4,2,3,80,0,0
133620,-166.666666666667,4,2,3,55,0,0
134231,-166.666666666667,4,2,3,5,0,0
134286,-142.857142857143,4,2,3,60,0,0
134509,-142.857142857143,4,1,1,60,0,0
134731,-117.647058823529,4,2,3,65,0,0
134898,-117.647058823529,4,2,3,5,0,0
134953,-100,4,2,3,85,0,0
135342,-100,4,2,3,5,0,0
135398,-166.666666666667,4,2,3,70,0,0
135731,-166.666666666667,4,2,3,5,0,0
135842,-166.666666666667,4,2,3,70,0,0
136175,-166.666666666667,4,2,3,5,0,0
136286,-166.666666666667,4,1,1,70,0,0
136509,-125,4,2,3,68,0,0
136675,-125,4,2,3,5,0,0
136731,-100,4,2,3,80,0,0
137175,-166.666666666667,4,2,3,55,0,0
137786,-166.666666666667,4,2,3,5,0,0
137842,-142.857142857143,4,2,3,60,0,0
138064,-142.857142857143,4,1,1,60,0,0
138286,-117.647058823529,4,2,3,65,0,0
138453,-117.647058823529,4,2,3,5,0,0
138509,-100,4,2,3,85,0,0
138898,-100,4,2,3,5,0,0
138953,-166.666666666667,4,2,3,55,0,0
139564,-166.666666666667,4,2,3,5,0,0
139620,-133.333333333333,4,2,3,68,0,0
139842,-133.333333333333,4,1,1,68,0,0
140064,-125,4,2,3,70,0,0
140231,-125,4,2,3,5,0,0
140286,-100,4,2,3,80,0,0
140731,-166.666666666667,4,2,3,55,0,0
141342,-166.666666666667,4,2,3,5,0,0
141398,-142.857142857143,4,2,3,60,0,0
141620,-142.857142857143,4,1,1,60,0,0
141842,-117.647058823529,4,2,3,65,0,0
142009,-117.647058823529,4,2,3,5,0,0
142064,-100,4,2,3,85,0,0
142453,-100,4,2,3,5,0,0
142509,-125,4,2,3,85,0,0
142842,-125,4,2,3,5,0,0
142953,-125,4,2,3,85,0,0
143286,-125,4,2,3,5,0,0
143398,-142.857142857143,4,2,1,60,0,0
144286,-100,4,2,1,80,0,1
144342,-100,4,2,2,80,0,1
145175,-100,4,2,1,80,0,1
145231,-100,4,2,2,80,0,1
146953,-100,4,2,1,80,0,1
147009,-100,4,2,2,80,0,1
148731,-100,4,2,1,80,0,1
148786,-100,4,2,2,80,0,1
150509,-100,4,2,1,80,0,1
150564,-100,4,2,2,80,0,1
152286,-100,4,2,1,80,0,1
152342,-100,4,2,2,80,0,1
154064,-100,4,2,1,80,0,1
154120,-100,4,2,2,80,0,1
155842,-100,4,2,1,80,0,1
155898,-100,4,2,2,80,0,1
156731,-76.9230769230769,4,2,3,60,0,1
158064,-166.666666666667,4,2,1,5,0,0
167398,-166.666666666667,4,2,1,40,0,0
172731,-142.857142857143,4,2,1,60,0,0
172842,-142.857142857143,4,1,3,60,0,0
174064,-125,4,2,3,60,0,0
174398,-125,4,2,3,5,0,0
174509,-100,4,2,1,80,0,0
177342,-100,4,2,1,5,0,0
177398,-100,4,2,1,80,0,0
184453,-100,4,2,1,5,0,0
184509,-100,4,2,1,80,0,0
187675,-100,4,2,3,80,0,0
187842,-100,4,2,1,80,0,0
188064,-100,4,2,3,80,0,0
188175,-100,4,2,1,80,0,0
188731,-90.9090909090909,4,2,1,80,0,0
191564,-90.9090909090909,4,2,1,5,0,0
191620,-90.9090909090909,4,2,1,80,0,0
198675,-90.9090909090909,4,2,1,5,0,0
198731,-90.9090909090909,4,2,1,80,0,0
201898,-90.9090909090909,4,2,3,80,0,0
202064,-90.9090909090909,4,2,1,80,0,0
202286,-90.9090909090909,4,2,3,80,0,0
202398,-90.9090909090909,4,2,1,80,0,0
202953,-83.3333333333333,4,2,1,80,0,0
205786,-83.3333333333333,4,2,1,5,0,0
205842,-83.3333333333333,4,2,1,80,0,0
212898,-83.3333333333333,4,2,1,5,0,0
212953,-83.3333333333333,4,2,1,80,0,0
216120,-83.3333333333333,4,2,3,80,0,0
216286,-83.3333333333333,4,2,1,80,0,0
216509,-83.3333333333333,4,2,3,80,0,0
216620,-83.3333333333333,4,2,1,80,0,0
217175,-83.3333333333333,4,2,3,40,0,0

[Colours]
Combo1 : 128,255,255
Combo2 : 128,128,192
Combo3 : 255,128,128
Combo4 : 64,0,128

[HitObjects]
127,108,287,5,10,0:0:0:0:
127,108,509,2,2,P|119:141|124:176,1,70,0|8,0:0|0:0,0:0:0:0:
286,176,953,1,2,0:0:0:0:
286,176,1175,2,2,P|293:142|288:107,1,70,10|0,0:0|0:0,0:0:0:0:
52,70,1620,1,10,0:0:0:0:
52,70,2064,6,2,P|36:137|46:206,1,140,10|8,0:0|0:0,0:0:0:0:
202,146,2731,1,2,0:0:0:0:
112,260,2953,2,2,L|108:337,1,70,10|0,0:0|0:0,0:0:0:0:
272,268,3398,2,2,L|268:199,1,70,10|0,0:0|0:0,0:0:0:0:
241,347,3842,6,2,B|287:353|287:353|329:332|329:332|375:338,1,140,10|8,0:0|0:0,0:0:0:0:
457,355,4509,1,2,0:0:0:0:
272,268,4731,2,2,L|268:199,1,70,10|0,0:0|0:0,0:0:0:0:
108,329,5175,2,2,L|112:260,1,70,10|0,0:0|0:0,0:0:0:0:
172,115,5620,6,2,B|209:107|237:131|237:131|271:115|312:136,3,140,10|8|8|8,0:0|0:0|0:0|0:0,0:0:0:0:
457,355,7398,5,10,0:0:0:0:
457,355,7620,2,2,P|467:320|464:273,1,77.0000023498536,2|8,0:0|0:0,0:0:0:0:
150,242,8064,1,2,0:0:0:0:
150,242,8286,2,2,P|139:279|142:318,1,77.0000023498536,10|0,0:0|0:0,0:0:0:0:
378,309,8731,1,10,0:0:0:0:
378,309,9175,6,2,B|341:320|304:299|304:299|267:278|230:289,1,154.000004699707,10|8,0:0|0:0,0:0:0:0:
256,377,9842,1,2,0:0:0:0:
352,221,10064,2,2,P|342:186|345:139,1,77.0000023498536,10|0,0:0|0:0,0:0:0:0:
457,355,10509,2,2,P|467:320|464:273,1,77.0000023498536,10|0,0:0|0:0,0:0:0:0:
406,77,10953,6,2,P|354:108|254:89,1,154.000004699707,10|8,0:0|0:0,0:0:0:0:
171,208,11620,1,2,0:0:0:0:
81,33,11842,2,2,L|89:110,1,77.0000023498536,10|0,0:0|0:0,0:0:0:0:
171,208,12286,2,2,L|179:132,1,77.0000023498536,10|0,0:0|0:0,0:0:0:0:
222,285,12731,6,2,B|194:308|149:298|149:298|104:288|76:311,2,154.000004699707,10|8|8,0:0|0:0|0:0,0:0:0:0:
256,81,13842,1,0,0:0:0:0:
179,132,14064,2,0,L|171:208,1,77.0000023498536,10|0,0:0|0:0,0:0:0:0:
288,352,14509,6,0,B|330:307|392:308|392:308|365:327|359:350,1,168,4|0,3:1|0:0,0:0:0:0:
431,377,14953,1,4,3:1:0:0:
222,285,15175,1,0,0:0:0:0:
477,244,15398,2,0,P|500:193|479:138,1,112,4|0,3:1|0:0,0:0:0:0:
416,100,15731,2,0,L|360:95,1,56,4|0,0:1|3:0,0:0:0:0:
53,30,16064,2,0,L|109:26,1,56,4|0,0:1|0:0,0:0:0:0:
188,20,16286,6,0,L|179:132,1,112,4|0,3:1|0:0,0:0:0:0:
55,349,16731,2,0,P|111:299|203:319,1,168,4|0,3:1|0:0,0:0:0:0:
260,360,17175,2,0,L|372:351,1,112,4|0,3:1|0:0,0:0:0:0:
422,290,17509,2,0,L|426:234,1,56,4|0,0:1|3:0,0:0:0:0:
324,20,17842,2,0,L|328:75,1,56,4|0,0:1|0:0,0:0:0:0:
276,134,18064,6,0,B|210:120|153:140|153:140|175:127|180:107,1,168,4|0,3:1|0:0,0:0:0:0:
108,75,18509,1,4,3:1:0:0:
350,184,18731,1,0,0:0:0:0:
72,360,18953,2,0,P|51:301|77:251,1,112,4|0,3:1|0:0,0:0:0:0:
144,233,19286,2,0,L|199:237,1,56,4|0,0:1|3:0,0:0:0:0:
484,174,19620,2,0,L|429:178,1,56,4|0,0:1|0:0,0:0:0:0:
350,184,19842,6,0,L|359:58,1,112,4|0,3:1|0:0,0:0:0:0:
115,29,20286,2,0,B|76:69|76:69|84:181,1,168,4|0,3:1|0:0,0:0:0:0:
41,247,20731,2,0,P|95:258|144:233,1,112,4|0,3:1|0:0,0:0:0:0:
162,156,21064,2,0,L|158:101,1,56,4|0,0:1|3:0,0:0:0:0:
362,17,21398,2,0,L|358:72,1,56,4|0,0:1|0:0,0:0:0:0:
401,138,21620,6,0,B|455:145|493:103|493:103|479:133|477:172,1,168,4|0,3:1|0:0,0:0:0:0:
502,240,22064,1,4,3:1:0:0:
256,192,22286,1,0,0:0:0:0:
371,337,22509,2,0,P|426:342|472:312,1,112,4|0,3:1|0:0,0:0:0:0:
502,240,22842,2,0,L|498:185,1,56,4|0,0:1|3:0,0:0:0:0:
266,58,23175,2,0,L|262:113,1,56,4|0,0:1|0:0,0:0:0:0:
256,192,23398,6,0,L|144:200,1,112,4|0,3:1|0:0,0:0:0:0:
328,308,23842,2,0,L|161:296,1,168,4|0,3:1|0:0,0:0:0:0:
91,259,24286,2,0,P|66:210|77:157,1,112,4|0,3:1|0:0,0:0:0:0:
149,122,24620,2,0,L|205:118,1,56,4|0,0:1|3:0,0:0:0:0:
506,74,24953,2,0,L|450:70,1,56,4|0,0:1|0:0,0:0:0:0:
383,26,25175,6,0,B|360:66|380:105|380:105|400:146|377:186,1,168,4|0,3:1|0:0,0:0:0:0:
310,142,25620,1,4,3:1:0:0:
502,240,25842,1,0,0:0:0:0:
272,304,26064,2,0,L|161:296,1,112,4|0,3:1|0:0,0:0:0:0:
82,290,26398,2,0,L|77:234,1,56,4|0,0:1|3:0,0:0:0:0:
209,16,26731,2,0,L|205:72,1,56,4|0,0:1|0:0,0:0:0:0:
198,150,26953,6,0,L|310:142,1,112,4|0,3:1|0:0,0:0:0:0:
502,240,27398,2,0,L|390:232,1,112,4|0,3:1|0:0,0:0:0:0:
198,330,27842,2,0,L|310:322,1,112,4|0,3:1|0:0,0:0:0:0:
388,316,28175,2,0,L|383:372,1,56,4|0,0:1|3:0,0:0:0:0:
100,336,28509,5,4,0:1:0:0:
100,336,28620,1,0,0:0:0:0:
141,249,28731,2,0,P|133:178|78:135,1,140,4|0,3:1|0:0,0:0:0:0:
179,17,29064,1,0,0:0:0:0:
179,17,29175,2,0,P|187:88|242:131,1,140,8|0,3:1|0:0,0:0:0:0:
335,50,29509,1,0,0:0:0:0:
335,50,29620,6,0,L|266:42,1,70,0|0,3:0|0:0,0:0:0:0:
393,129,29842,2,0,L|462:120,1,70
335,207,30064,2,0,L|300:202,2,35,8|0|0,3:1|0:0|0:0,0:0:0:0:
392,285,30286,6,0,P|387:342|307:354,1,140,0|0,0:0|3:0,0:0:0:0:
107,307,30620,1,0,0:0:0:0:
107,307,30731,2,0,L|245:288,1,140,0|8,0:0|3:1,0:0:0:0:
29,245,31064,1,0,0:0:0:0:
29,245,31175,2,0,P|16:212|13:177,1,70
108,10,31398,5,0,3:0:0:0:
108,10,31509,1,0,0:0:0:0:
205,23,31620,2,0,P|217:56|221:90,1,70
135,137,31842,2,0,L|100:132,2,35,8|0|0,3:1|0:0|0:0,0:0:0:0:
385,197,32064,5,0,0:0:0:0:
385,197,32175,1,0,0:0:0:0:
303,141,32286,2,0,P|291:174|287:208,1,70,4|0,3:1|0:0,0:0:0:0:
485,314,32509,2,0,P|497:264|475:218,1,105
454,206,32731,2,0,L|385:197,1,70,8|0,3:1|0:0,0:0:0:0:
123,315,32953,5,0,0:0:0:0:
123,315,33064,1,0,0:0:0:0:
205,259,33175,2,0,P|217:292|221:326,1,70,0|0,3:0|0:0,0:0:0:0:
34,272,33398,2,0,L|49:161,1,105,0|0,0:1|0:0,0:0:0:0:
68,155,33620,2,0,P|49:126|42:92,1,70,8|0,0:1|0:0,0:0:0:0:
279,28,33842,5,0,0:0:0:0:
279,28,33953,1,0,0:0:0:0:
209,94,34064,2,0,L|140:85,1,70,0|0,3:0|0:0,0:0:0:0:
275,163,34286,2,0,L|379:155,1,105
411,137,34509,2,0,L|404:228,1,70,8|0,3:1|0:0,0:0:0:0:
359,369,34731,5,0,0:0:0:0:
359,369,34842,1,0,0:0:0:0:
404,296,34953,2,0,B|379:278|334:278|306:301|306:301|276:281|239:289,1,175,2|0,0:0|0:0,0:0:0:0:
175,355,35620,6,0,P|114:363|83:299,1,136.499993751526,2|0,0:0|0:0,0:0:0:0:
100,216,35842,6,0,P|103:251|97:286,1,70,4|0,3:1|0:0,0:0:0:0:
33,146,36064,1,0,0:0:0:0:
33,146,36175,1,0,0:0:0:0:
104,77,36286,2,0,L|173:82,1,70,8|0,3:1|0:0,0:0:0:0:
344,176,36509,1,0,0:0:0:0:
344,176,36620,1,0,0:0:0:0:
422,119,36731,6,0,P|429:84|426:50,1,70,0|0,3:0|0:0,0:0:0:0:
254,137,36953,2,0,P|247:171|250:205,1,70
429,321,37175,2,0,P|372:285|306:301,1,140,8|0,3:1|0:0,0:0:0:0:
49,61,37620,6,0,P|106:97|173:82,1,140,0|0,3:1|0:0,0:0:0:0:
342,93,37953,1,0,0:0:0:0:
342,93,38064,2,0,L|347:162,1,70,8|0,3:1|0:0,0:0:0:0:
342,379,38286,1,0,0:0:0:0:
342,379,38398,1,0,0:0:0:0:
277,305,38509,6,0,L|282:236,1,70,0|0,3:0|0:0,0:0:0:0:
106,134,38731,2,0,L|111:203,1,70
62,288,38953,2,0,P|129:299|188:264,1,140,8|0,3:1|0:0,0:0:0:0:
340,280,39286,5,0,0:0:0:0:
340,280,39398,2,0,P|306:286|276:305,1,70,4|0,3:1|0:0,0:0:0:0:
111,203,39620,2,0,L|103:98,1,105
102,73,39842,2,0,P|135:59|169:60,1,70,8|0,3:1|0:0,0:0:0:0:
319,145,40064,2,0,P|284:146|252:133,1,70
403,73,40286,5,0,3:0:0:0:
403,73,40398,1,0,0:0:0:0:
403,73,40509,2,0,P|435:59|469:60,1,70
505,238,40731,2,0,B|464:262|410:255|379:217|379:217|400:253|396:285,1,210,8|0,3:1|0:0,0:0:0:0:
223,324,41175,5,0,3:0:0:0:
223,324,41286,2,0,B|199:296|199:296|245:268|298:273,1,140
454,156,41620,1,8,3:1:0:0:
454,156,41731,2,0,B|478:184|478:184|432:212|379:207,1,140
281,166,42064,6,0,P|300:114|284:63,2,105
142,295,42953,6,0,L|58:288,1,83.9999974365235,12|0,0:0|0:0,0:0:0:0:
219,360,43398,2,0,L|302:353,1,83.9999974365235,8|0,0:0|0:0,0:0:0:0:
324,366,43731,1,0,0:0:0:0:
345,378,43842,2,0,P|371:323|349:266,1,125.999996154785,8|0,0:0|0:0,0:0:0:0:
328,253,44286,1,8,0:0:0:0:
362,114,44509,1,0,0:0:0:0:
385,106,44620,1,0,0:0:0:0:
408,97,44731,6,0,P|404:139|399:181,1,83.9999974365235,10|0,0:0|0:0,0:0:0:0:
229,227,45175,2,0,P|233:185|238:143,1,83.9999974365235,8|0,0:0|0:0,0:0:0:0:
355,352,45620,1,8,0:0:0:0:
157,300,45842,1,0,0:0:0:0:
157,300,45953,1,0,0:0:0:0:
157,300,46064,2,0,L|73:307,1,83.9999974365235,8|0,0:0|0:0,0:0:0:0:
220,143,46509,6,0,P|225:185|229:227,1,83.9999974365235,10|0,0:0|0:0,0:0:0:0:
355,352,46953,2,0,P|350:310|346:268,1,83.9999974365235,8|0,0:0|0:0,0:0:0:0:
356,245,47286,1,0,0:0:0:0:
366,222,47398,2,0,L|450:229,1,83.9999974365235,8|0,0:0|0:0,0:0:0:0:
460,206,47731,1,0,0:0:0:0:
470,183,47842,2,0,P|466:141|461:99,1,83.9999974365235,8|0,0:0|0:0,0:0:0:0:
281,47,48286,5,10,0:0:0:0:
382,36,48509,1,0,0:0:0:0:
218,127,48731,1,8,0:0:0:0:
281,47,48953,1,0,0:0:0:0:
117,140,49175,1,8,0:0:0:0:
267,214,49398,1,0,0:0:0:0:
267,214,49509,1,0,0:0:0:0:
267,214,49620,2,0,L|260:298,1,83.9999974365235,8|0,0:0|0:0,0:0:0:0:
444,348,50064,6,0,P|468:306|458:260,1,97.9999970092774,12|0,3:1|0:0,0:0:0:0:
395,211,50398,1,8,0:1:0:0:
395,211,50509,2,0,L|386:113,1,97.9999970092774,8|8,0:0|0:1,0:0:0:0:
226,29,50953,5,8,0:1:0:0:
226,29,51064,2,0,L|217:126,1,97.9999970092774,8|8,0:1|0:1,0:0:0:0:
157,177,51398,2,0,P|122:178|71:139,1,97.9999970092774,2|8,0:0|0:1,0:0:0:0:
157,339,51842,6,0,P|201:301|260:298,1,119.000002269745,12|0,3:1|0:0,0:0:0:0:
344,342,52175,1,8,0:1:0:0:
344,342,52286,2,0,L|406:335,1,59.5000011348725
496,251,52509,2,0,L|437:245,1,59.5000011348725,8|0,0:1|0:0,0:0:0:0:
369,177,52731,5,8,0:1:0:0:
369,177,52842,2,0,P|342:124|350:66,1,119.000002269745,8|8,0:1|0:1,0:0:0:0:
495,102,53175,2,0,L|435:109,1,59.5000011348725
206,31,53398,2,0,L|266:25,1,59.5000011348725,8|0,0:1|0:0,0:0:0:0:
127,179,53620,6,0,P|123:145|129:111,1,70,12|0,3:1|0:0,0:0:0:0:
281,145,53842,2,0,P|287:180|282:215,1,70,8|0,0:1|0:0,0:0:0:0:
187,343,54064,2,0,P|181:309|188:275,1,70,12|0,3:1|0:0,0:0:0:0:
340,310,54286,2,0,P|346:344|342:379,1,70,8|0,3:1|0:0,0:0:0:0:
73,279,54509,6,0,L|4:285,1,70,12|0,3:1|3:0,0:0:0:0:
127,179,54731,2,0,L|63:150,1,70,12|0,3:1|0:0,0:0:0:0:
223,119,54953,2,0,L|182:62,1,70,12|0,3:1|0:0,0:0:0:0:
336,115,55175,2,0,L|329:46,1,70,12|0,3:1|0:0,0:0:0:0:
436,169,55398,6,0,B|465:106|465:106|463:164|485:209|485:209|495:258|478:314,1,280,4|0,0:0|0:0,0:0:0:0:
464,325,56731,6,0,L|402:314,1,52.5000020027161
332,342,56953,2,0,L|270:331,1,52.5000020027161
200,359,57175,6,2,B|186:324|204:294|204:294|176:323|145:346|116:333|116:333|106:301|75:286,1,230.99999295044,2|0,0:0|0:0,0:1:0:0:
63,289,57842,2,2,P|32:262|39:195,1,97.9999970092774,2|8,0:1|0:0,0:1:0:0:
228,25,58286,6,2,P|234:66|223:114,1,89.2500017023087,2|0,0:0|0:0,0:1:0:0:
212,131,58509,2,2,P|309:117|255:198,1,245,2|0,0:0|0:0,0:1:0:0:
175,203,58953,6,2,B|154:192|138:167|138:167|125:228|155:282|155:282|155:309|137:346,1,230.99999295044,0|0,0:0|0:0,0:1:0:0:
144,357,59620,2,2,P|206:367|253:339,1,105.000004005432,2|8,0:1|0:0,0:1:0:0:
384,70,60064,2,2,L|379:127,1,52.5000020027161,2|2,0:0|0:0,0:1:0:0:
403,289,60286,6,2,L|480:283,1,70,2|0,0:0|0:0,0:1:0:0:
291,162,60509,2,2,L|214:156,1,70,2|0,0:0|0:0,0:1:0:0:
379,122,60731,6,2,B|372:206|372:206|323:246|323:246|316:330,1,230.99999295044,2|0,0:0|0:0,0:1:0:0:
321,347,61398,2,2,P|271:367|224:359,1,97.9999970092774,2|8,0:1|0:0,0:1:0:0:
18,217,61842,6,2,P|62:215|102:233,1,89.2500017023087,2|0,0:0|0:0,0:1:0:0:
113,248,62064,2,2,B|98:217|102:184|102:184|149:174|179:136|175:78|175:78|163:98|150:105,1,245,2|0,0:0|0:0,0:1:0:0:
104,52,62509,6,2,P|148:10|209:12,1,125.999996154785,0|0,0:0|0:0,0:1:0:0:
280,84,62953,2,2,L|270:209,1,125.999996154785,2|0,0:0|0:0,0:1:0:0:
340,281,63398,1,8,0:0:0:0:
505,146,63620,6,2,P|470:124|429:128,1,84,2|0,0:0|0:0,0:1:0:0:
417,142,63842,6,2,L|412:212,1,70,2|0,0:1|0:0,0:1:0:0:
345,351,64064,2,2,L|339:281,1,70,2|0,0:1|0:0,0:1:0:0:
270,210,64286,6,2,B|237:204|212:228|212:228|201:188|161:164|161:164|121:188|110:228,1,230.99999295044,2|0,0:0|0:0,0:1:0:0:
107,250,64953,2,2,L|116:349,1,97.9999970092774,2|8,0:1|0:0,0:1:0:0:
21,146,65398,6,2,L|29:57,1,89.2500017023087,2|0,0:1|0:0,0:1:0:0:
39,45,65620,2,2,B|43:90|104:120|153:83|153:35|153:35|161:77|192:91,1,245,2|0,0:0|0:0,0:1:0:0:
271,81,66064,6,2,B|263:39|232:25|232:25|284:28|321:58|321:58|350:39|397:44,1,230.99999295044,0|0,0:0|0:0,0:1:0:0:
403,54,66731,2,2,P|431:96|426:147,1,105.000004005432,2|8,0:1|0:0,0:1:0:0:
294,340,67175,6,2,L|285:241,1,84,2|0,0:1|0:0,0:1:0:0:
274,241,67398,6,2,P|237:237|205:221,1,70,2|0,0:1|0:0,0:1:0:0:
11,287,67620,2,2,P|46:292|78:307,1,70,2|0,0:0|0:0,0:1:0:0:
125,368,67842,6,2,B|157:347|167:298|143:264|143:264|120:231|130:182|162:161,1,230.99999295044,2|0,0:0|0:0,0:1:0:0:
179,152,68509,2,2,L|276:143,1,97.9999970092774,2|8,0:1|0:0,0:1:0:0:
471,331,68953,6,2,L|382:322,1,89.2500017023087,2|0,0:0|0:0,0:1:0:0:
364,337,69175,2,2,B|377:280|336:221|336:221|281:268|279:326,1,245,2|0,0:0|0:0,0:1:0:0:
216,369,69620,6,2,B|176:353|176:353|130:360|130:360|83:350|61:296,1,168,2|0,0:0|0:0,0:1:0:0:
89,161,70064,2,2,B|125:149|125:149|162:197|148:274,1,168,2|0,0:0|0:0,0:1:0:0:
0,172,70509,6,0,L|6:115,1,48.9999985046387,8|0,0:1|0:0,0:0:0:0:
81,74,70731,2,0,L|75:17,1,48.9999985046387
76,25,71398,6,0,B|121:39|121:39|165:23|165:23|208:37,1,140,4|0,3:2|0:0,0:0:0:0:
383,90,71731,1,0,0:0:0:0:
383,90,71842,2,0,P|390:55|396:21,1,70,2|0,0:1|0:0,0:0:0:0:
286,102,72064,2,0,P|293:136|299:170,1,70
356,277,72286,6,0,L|287:268,1,70,8|0,0:1|0:0,0:0:0:0:
408,361,72509,2,0,L|477:351,1,70,0|0,3:0|0:0,0:0:0:0:
223,341,72731,2,0,B|166:319|123:349|123:349|80:379|23:357,1,210,2|0,3:1|0:0,0:0:0:0:
69,281,73175,6,0,B|68:248|83:213|83:213|75:178|55:149,1,140,8|0,0:3|0:0,0:0:0:0:
99,16,73509,1,0,0:0:0:0:
99,16,73620,2,0,P|110:49|127:81,1,70,2|0,0:1|0:0,0:0:0:0:
279,123,73842,2,0,P|250:105|224:82,1,70
365,76,74064,6,0,P|399:82|435:84,1,70,10|0,0:1|0:0,0:0:0:0:
363,253,74286,1,0,3:0:0:0:
363,253,74398,1,0,3:0:0:0:
286,192,74509,2,0,L|279:123,1,70,2|0,3:1|0:0,0:0:0:0:
440,314,74731,2,0,L|447:383,1,70,0|0,3:0|0:0,0:0:0:0:
302,330,74953,6,0,B|264:300|264:300|162:309,1,140,0|0,3:0|0:0,0:0:0:0:
42,237,75286,1,0,0:0:0:0:
42,237,75398,2,0,P|32:204|35:161,1,70,2|0,0:1|0:0,0:0:0:0:
139,379,75620,2,0,P|149:345|148:311,1,70
111,109,75842,6,0,L|179:122,1,70,8|0,0:0|0:0,0:0:0:0:
312,198,76064,2,0,L|244:212,1,70,0|0,3:0|0:0,0:0:0:0:
42,237,76286,2,0,B|-15:188|8:108|8:108|10:153|33:169,1,210,2|0,3:1|0:0,0:0:0:0:
111,109,76731,6,0,B|180:122|180:122|249:109,1,140,8|0,0:3|0:0,0:0:0:0:
451,118,77064,1,0,0:0:0:0:
451,118,77175,2,0,P|456:152|458:187,1,70,2|0,3:1|0:0,0:0:0:0:
332,318,77398,2,0,P|326:283|325:249,1,70
509,299,77620,6,0,P|476:360|411:381,1,140,8|0,0:0|3:0,0:0:0:0:
323,333,77953,1,0,0:0:0:0:
323,333,78064,2,0,P|316:298|314:264,1,70,2|0,0:1|0:0,0:0:0:0:
459,103,78286,2,0,P|466:142|467:182,1,70
463,343,78509,6,0,L|324:333,1,140,0|0,3:0|0:0,0:0:0:0:
65,301,78842,1,0,0:0:0:0:
65,301,78953,2,0,P|67:335|73:370,1,70,2|0,0:1|0:0,0:0:0:0:
244,272,79175,2,0,P|242:237|236:202,1,70
54,133,79398,6,0,P|56:168|62:203,1,70,8|0,0:0|0:0,0:0:0:0:
233,104,79620,2,0,P|231:70|225:35,1,70,0|0,0:0|0:0,0:0:0:0:
31,66,79842,2,0,P|-17:148|61:202,1,210,2|0,3:1|0:0,0:0:0:0:
236,202,80286,6,0,L|375:177,1,140,8|0,0:3|0:0,0:0:0:0:
478,119,80620,1,0,0:0:0:0:
478,119,80731,2,0,P|475:79|467:45,1,70,2|0,0:1|0:0,0:0:0:0:
374,177,80953,2,0,P|377:217|385:251,1,70
471,339,81175,6,0,B|498:342|515:327|494:307|466:308|439:326|439:326|399:348|369:348|335:331,1,210,8|0,0:0|0:0,0:0:0:0:
238,311,81620,2,0,P|240:345|247:380,1,70,2|0,0:1|0:0,0:0:0:0:
383,246,81842,2,0,P|381:211|374:177,1,70,0|0,3:0|0:0,0:0:0:0:
166,92,82064,6,0,P|221:134|289:127,1,140,0|0,3:0|0:0,0:0:0:0:
449,59,82398,1,0,0:0:0:0:
449,59,82509,2,0,P|451:94|459:129,1,70,2|0,0:1|0:0,0:0:0:0:
383,246,82731,2,0,P|381:211|374:177,1,70
456,41,82953,6,0,P|459:83|467:124,1,70,8|0,0:0|0:0,0:0:0:0:
373,265,83175,2,0,P|370:223|362:182,1,70,0|0,3:0|0:0,0:0:0:0:
261,123,83398,2,0,B|220:108|176:124|176:124|155:153|155:153|111:169|70:155,1,210,2|0,3:1|0:0,0:0:0:0:
5,83,83842,6,0,B|35:146|35:146|6:208|6:208|54:254|78:320,1,272.999987503052,8|0,0:1|0:0,0:0:0:0:
249,361,84286,2,0,B|219:298|219:298|248:236|248:236|200:190|176:124,1,272.999987503052,8|0,0:1|0:0,0:0:0:0:
405,44,84731,2,0,B|442:102|442:102|390:185|390:185|294:153|269:35,1,363.999983337403,8|0,0:1|0:0,0:0:0:0:
256,81,86731,5,0,0:0:0:0:
333,132,86953,2,0,L|341:208,1,77.0000023498536,2|0,0:0|0:0,0:0:0:0:
224,352,87398,6,0,B|182:307|120:308|120:308|147:327|153:350,1,168,4|0,3:1|0:0,0:0:0:0:
81,377,87842,1,4,3:1:0:0:
290,285,88064,1,0,0:0:0:0:
35,244,88287,2,0,P|12:193|33:138,1,112,4|0,3:1|0:0,0:0:0:0:
96,100,88620,2,0,L|152:95,1,56,4|0,0:1|3:0,0:0:0:0:
459,30,88953,2,0,L|403:26,1,56,4|0,0:1|0:0,0:0:0:0:
324,20,89175,6,0,L|333:132,1,112,4|0,3:1|0:0,0:0:0:0:
457,349,89620,2,0,P|401:299|309:319,1,168,4|0,3:1|0:0,0:0:0:0:
252,360,90064,2,0,L|140:351,1,112,4|0,3:1|0:0,0:0:0:0:
90,290,90398,2,0,L|86:234,1,56,4|0,0:1|3:0,0:0:0:0:
188,20,90731,2,0,L|184:75,1,56,4|0,0:1|0:0,0:0:0:0:
236,134,90953,6,0,B|302:120|359:140|359:140|337:127|332:107,1,168,4|0,3:1|0:0,0:0:0:0:
404,75,91398,1,4,3:1:0:0:
162,184,91620,1,0,0:0:0:0:
440,360,91842,2,0,P|461:301|435:251,1,112,4|0,3:1|0:0,0:0:0:0:
368,233,92175,2,0,L|313:237,1,56,4|0,0:1|3:0,0:0:0:0:
28,174,92509,2,0,L|83:178,1,56,4|0,0:1|0:0,0:0:0:0:
162,184,92731,6,0,L|153:58,1,112,4|0,3:1|0:0,0:0:0:0:
397,29,93175,2,0,B|436:69|436:69|428:181,1,168,4|0,3:1|0:0,0:0:0:0:
471,247,93620,2,0,P|417:258|368:233,1,112,4|0,3:1|0:0,0:0:0:0:
350,156,93953,2,0,L|354:101,1,56,4|0,0:1|3:0,0:0:0:0:
150,17,94287,2,0,L|154:72,1,56,4|0,0:1|0:0,0:0:0:0:
111,138,94509,6,0,B|57:145|19:103|19:103|33:133|35:172,1,168,4|0,3:1|0:0,0:0:0:0:
10,240,94953,1,4,3:1:0:0:
256,192,95175,1,0,0:0:0:0:
141,337,95398,2,0,P|86:342|40:312,1,112,4|0,3:1|0:0,0:0:0:0:
10,240,95731,2,0,L|14:185,1,56,4|0,0:1|3:0,0:0:0:0:
246,58,96064,2,0,L|250:113,1,56,4|0,0:1|0:0,0:0:0:0:
256,192,96287,6,0,L|368:200,1,112,4|0,3:1|0:0,0:0:0:0:
184,308,96731,2,0,L|351:296,1,168,4|0,3:1|0:0,0:0:0:0:
421,259,97175,2,0,P|446:210|435:157,1,112,4|0,3:1|0:0,0:0:0:0:
363,122,97509,2,0,L|307:118,1,56,4|0,0:1|3:0,0:0:0:0:
6,74,97842,2,0,L|62:70,1,56,4|0,0:1|0:0,0:0:0:0:
129,26,98064,6,0,B|152:66|132:105|132:105|112:146|135:186,1,168,4|0,3:1|0:0,0:0:0:0:
202,142,98509,1,4,3:1:0:0:
10,240,98731,1,0,0:0:0:0:
240,304,98953,2,0,L|351:296,1,112,4|0,3:1|0:0,0:0:0:0:
430,290,99287,2,0,L|435:234,1,56,4|0,0:1|3:0,0:0:0:0:
303,16,99620,2,0,L|307:72,1,56,4|0,0:1|0:0,0:0:0:0:
314,150,99842,6,0,L|202:142,1,112,4|0,3:1|0:0,0:0:0:0:
10,240,100287,2,0,L|122:232,1,112,4|0,3:1|0:0,0:0:0:0:
314,330,100731,2,0,L|202:322,1,112,4|0,3:1|0:0,0:0:0:0:
124,316,101064,2,0,L|129:372,1,56,4|0,0:1|3:0,0:0:0:0:
392,336,101398,2,0,L|387:280,1,56,4|0,0:1|0:0,0:0:0:0:
461,217,101620,6,0,P|423:162|445:98,1,140,4|0,3:1|0:0,0:0:0:0:
297,30,101953,1,0,0:0:0:0:
297,30,102064,6,0,P|336:86|314:150,1,140,8|0,3:1|0:0,0:0:0:0:
223,188,102398,1,0,0:0:0:0:
223,188,102509,2,0,B|176:184|176:184|133:202|133:202|86:198,1,140,0|0,3:0|0:0,0:0:0:0:
118,105,102842,1,0,0:0:0:0:
118,105,102953,2,0,B|115:70,2,35,8|0|0,3:1|0:0|0:0,0:0:0:0:
191,281,103175,2,0,B|186:351,1,70
427,283,103398,6,0,P|358:269|288:262,1,140,0|0,3:0|0:0,0:0:0:0:
223,188,103731,1,0,0:0:0:0:
223,188,103842,2,0,B|218:118,1,70,8|0,3:1|0:0,0:0:0:0:
505,16,104064,2,0,B|510:86,1,70
425,134,104286,6,0,B|389:129|364:101|364:101|339:74|303:70,1,140,0|0,3:0|0:0,0:0:0:0:
134,68,104620,1,0,0:0:0:0:
134,68,104731,2,0,B|99:70,2,35,8|0|0,3:1|0:0|0:0,0:0:0:0:
218,118,104953,2,0,B|223:188,1,70
162,331,105175,6,0,P|128:341|93:340,1,70,4|0,3:1|0:0,0:0:0:0:
297,251,105398,2,0,P|330:241|365:241,1,70
461,343,105620,2,0,B|447:310|457:275|457:275|469:239|456:206,1,140,8|0,3:1|0:0,0:0:0:0:
360,104,105953,1,0,0:0:0:0:
360,104,106064,6,0,B|374:137|364:172|364:172|352:208|365:241,1,140,0|0,3:0|0:0,0:0:0:0:
269,139,106398,1,0,0:0:0:0:
269,139,106509,2,0,P|232:131|197:133,1,70,8|0,3:1|0:0,0:0:0:0:
33,168,106731,1,0,0:0:0:0:
33,168,106842,1,0,0:0:0:0:
106,102,106953,6,0,L|113:31,1,70,0|0,3:0|0:0,0:0:0:0:
18,188,107175,2,0,L|25:259,1,70
208,234,107398,1,8,3:1:0:0:
208,234,107509,2,0,B|177:190|115:193|115:193|119:227,1,140
260,315,107842,6,0,P|324:339|392:328,1,140,0|0,3:0|0:0,0:0:0:0:
381,180,108175,1,0,0:0:0:0:
381,180,108286,2,0,P|329:258|297:170,1,231.000007049561,8|0,3:1|0:0,0:0:0:0:
347,103,108731,6,0,P|382:96|416:103,1,70,4|0,3:1|0:0,0:0:0:0:
241,12,108953,2,0,P|275:19|310:12,1,70
135,103,109175,2,0,P|169:96|204:104,1,70,8|0,3:1|0:0,0:0:0:0:
28,12,109398,2,0,P|62:19|97:12,1,70
169,192,109620,6,0,B|179:237|155:274|155:274|132:321|150:372|150:372|146:332|159:307,1,251.999992309571,0|0,3:0|0:0,0:0:0:0:
74,216,110064,2,0,L|4:222,1,70,8|0,3:1|0:0,0:0:0:0:
245,354,110286,2,0,L|314:360,1,70
400,314,110509,6,0,P|409:280|409:245,1,70,0|0,3:0|0:0,0:0:0:0:
382,11,110731,2,0,P|373:44|373:79,1,70
417,310,110953,2,0,P|425:276|425:241,1,70,8|0,3:1|0:0,0:0:0:0:
366,15,111175,2,0,P|357:48|357:83,1,70
482,161,111398,6,0,B|489:141|489:141|442:124|391:162|391:162|340:200|293:183|293:183|300:164,1,251.999992309571,0|0,3:0|0:0,0:0:0:0:
291,66,111842,2,0,P|325:70|358:84,1,70,8|0,3:1|0:0,0:0:0:0:
425,241,112064,2,0,P|424:276|417:310,1,70
314,360,112286,6,0,L|188:349,1,125.999996154785,8|0,0:0|0:0,0:0:0:0:
91,368,112731,6,0,L|84:298,1,70,8|0,3:1|0:0,0:0:0:0:
202,181,112953,2,0,L|196:251,1,70
90,134,113175,6,0,L|86:92,1,41.9999987182618,8|0,0:0|0:0,0:0:0:0:
195,38,113398,5,0,3:0:0:0:
221,46,113509,1,0,3:0:0:0:
254,53,113620,1,0,3:0:0:0:
295,57,113731,1,0,3:0:0:0:
343,58,113842,1,0,3:0:0:0:
398,54,113953,1,0,3:0:0:0:
459,44,114064,5,0,3:0:0:0:
459,44,114175,2,0,L|443:164,1,105,8|0,0:2|3:0,0:0:0:0:
346,145,114620,2,0,L|330:265,1,105,8|0,0:2|3:0,0:0:0:0:
233,246,115064,2,0,L|223:315,1,70,8|0,0:2|0:0,0:0:0:0:
131,352,115398,6,0,P|41:320|130:263,1,245,4|0,0:0|0:0,0:0:0:0:
137,267,115842,6,0,L|147:183,1,83.9999974365235,6|0,0:0|0:0,0:0:0:0:
224,49,116286,2,0,L|234:133,1,83.9999974365235,8|0,0:0|0:0,0:0:0:0:
253,149,116620,1,0,0:0:0:0:
272,165,116731,2,0,P|328:166|385:108,1,125.999996154785,8|0,0:0|0:0,0:0:0:0:
380,97,117175,1,8,0:0:0:0:
479,113,117398,1,0,0:0:0:0:
487,137,117509,1,0,0:0:0:0:
494,160,117620,6,0,P|486:201|479:242,1,83.9999974365235,10|0,0:0|0:0,0:0:0:0:
289,310,118064,2,0,P|297:269|304:228,1,83.9999974365235,8|0,0:0|0:0,0:0:0:0:
396,185,118509,1,8,0:0:0:0:
206,252,118731,1,0,0:0:0:0:
182,244,118842,1,0,0:0:0:0:
157,237,118953,2,0,L|73:244,1,83.9999974365235,8|0,0:0|0:0,0:0:0:0:
269,69,119398,6,0,L|353:62,1,83.9999974365235,10|0,0:0|0:0,0:0:0:0:
483,158,119842,2,0,L|399:151,1,83.9999974365235,8|0,0:0|0:0,0:0:0:0:
379,167,120175,1,0,0:0:0:0:
359,182,120286,2,0,L|366:266,1,83.9999974365235,8|0,0:0|0:0,0:0:0:0:
346,281,120620,1,0,0:0:0:0:
326,297,120731,2,0,L|242:290,1,83.9999974365235,8|0,0:0|0:0,0:0:0:0:
84,364,121175,5,10,0:0:0:0:
98,191,121398,1,0,0:0:0:0:
141,281,121620,1,8,0:0:0:0:
155,108,121842,1,0,0:0:0:0:
98,191,122064,1,8,0:0:0:0:
256,116,122286,1,0,0:0:0:0:
256,116,122398,1,0,0:0:0:0:
256,116,122509,2,0,L|340:123,1,83.9999974365235,8|0,0:0|0:0,0:0:0:0:
412,331,122953,6,0,P|374:301|326:296,1,97.9999970092774,12|0,3:1|0:0,0:0:0:0:
266,348,123286,1,8,0:1:0:0:
266,348,123398,2,0,L|154:357,1,97.9999970092774,0|8,0:0|0:1,0:0:0:0:
0,182,123842,5,8,0:1:0:0:
0,182,123953,2,0,L|98:191,1,97.9999970092774,8|8,0:1|0:1,0:0:0:0:
158,142,124286,2,0,P|159:107|120:56,1,97.9999970092774,2|8,0:0|0:1,0:0:0:0:
340,123,124731,6,0,P|302:167|299:226,1,119.000002269745,12|0,3:1|0:0,0:0:0:0:
364,294,125064,1,8,0:1:0:0:
364,294,125175,2,0,L|423:288,1,59.5000011348725,0|0,0:1|0:1,0:0:0:0:
450,198,125398,2,0,L|391:204,1,59.5000011348725,8|0,0:1|0:0,0:0:0:0:
272,316,125620,5,8,0:1:0:0:
272,316,125731,2,0,B|233:312|233:312|194:322|194:322|155:318,1,119.000002269745,8|8,0:1|0:1,0:0:0:0:
60,308,126064,2,0,L|66:367,1,59.5000011348725,0|0,0:1|0:0,0:0:0:0:
185,227,126286,2,0,L|179:168,1,59.5000011348725,8|0,0:1|0:0,0:0:0:0:
236,70,126509,6,0,P|270:74|305:74,1,70,12|0,3:1|0:0,0:0:0:0:
455,156,126731,2,0,P|420:151|386:152,1,70,8|0,0:1|0:0,0:0:0:0:
275,251,126953,2,0,P|310:256|345:256,1,70,12|0,3:1|0:0,0:0:0:0:
495,338,127175,2,0,P|460:333|425:333,1,70,8|0,3:1|0:0,0:0:0:0:
181,311,127398,6,0,L|186:380,1,70,12|0,3:1|3:0,0:0:0:0:
123,215,127620,2,0,L|77:268,1,70,12|0,3:1|0:0,0:0:0:0:
150,106,127842,2,0,L|80:111,1,70,12|0,3:1|0:0,0:0:0:0:
246,48,128064,2,0,L|192:2,1,70,12|0,3:1|0:0,0:0:0:0:
354,74,128286,6,0,B|348:4|348:4|414:1|452:64|425:128|371:142,1,280,4|0,0:0|0:0,0:0:0:0:
371,142,129620,6,0,L|366:211,1,52.5000020027161
428,251,129842,2,0,L|423:320,1,52.5000020027161
364,360,130064,6,2,B|330:363|309:335|309:335|252:354|196:327|196:327|224:326|250:318,1,230.99999295044,2|0,0:0|0:0,0:1:0:0:
266,306,130731,2,2,P|288:263|276:217,1,97.9999970092774,2|8,0:1|0:0,0:1:0:0:
57,75,131175,6,2,L|74:165,1,89.2500017023087,2|0,0:0|0:0,0:1:0:0:
93,180,131398,2,2,B|150:209|205:159|205:159|260:109|317:138,1,245,2|0,0:0|0:0,0:1:0:0:
379,180,131842,6,2,P|366:86|451:128,1,230.99999295044,0|0,0:0|0:0,0:1:0:0:
453,152,132509,2,2,L|439:265,1,105.000004005432,2|8,0:1|0:0,0:1:0:0:
186,381,132953,2,2,L|179:324,1,52.5000020027161,2|2,0:0|0:0,0:1:0:0:
208,164,133175,6,2,L|278:173,1,70,2|0,0:0|0:0,0:1:0:0:
113,287,133398,2,2,L|43:278,1,70,2|0,0:0|0:0,0:1:0:0:
180,329,133620,6,2,B|202:298|195:248|161:225|161:225|128:201|121:152|143:121,1,230.99999295044,2|0,0:0|0:0,0:1:0:0:
154,105,134286,2,2,P|198:83|245:93,1,97.9999970092774,2|8,0:1|0:0,0:1:0:0:
467,293,134731,6,2,P|419:297|386:273,1,89.2500017023087,2|0,0:0|0:0,0:1:0:0:
377,259,134953,2,2,B|403:226|386:184|386:184|366:144|393:100|393:100|423:144|393:190,1,245,2|0,0:0|0:0,0:1:0:0:
316,215,135398,6,2,P|256:201|210:241,1,125.999996154785,0|0,0:0|0:0,0:1:0:0:
226,352,135842,2,2,L|84:337,1,125.999996154785,2|0,0:0|0:0,0:1:0:0:
16,262,136286,1,8,0:0:0:0:
127,44,136509,6,2,P|146:84|138:132,1,84,2|0,0:0|0:0,0:1:0:0:
131,148,136731,6,2,L|226:137,1,70,2|0,0:1|0:0,0:1:0:0:
466,43,136953,2,2,L|397:36,1,70,2|0,0:1|0:0,0:1:0:0:
319,95,137175,6,2,B|301:75|298:37|298:37|290:110|290:110|305:164|274:198,1,230.99999295044,2|0,0:0|0:0,0:1:0:0:
262,213,137842,2,2,L|154:201,1,97.9999970092774,2|8,0:1|0:0,0:1:0:0:
344,337,138286,6,2,L|432:327,1,89.2500017023087,2|0,0:1|0:0,0:1:0:0:
458,338,138509,2,2,B|407:317|408:261|451:218|503:247|503:247|510:216|498:177,1,245,2|0,0:0|0:0,0:1:0:0:
452,112,138953,6,2,B|440:73|447:42|447:42|415:86|365:89|365:89|347:65|311:56,1,230.99999295044,0|0,0:0|0:0,0:1:0:0:
294,71,139620,2,0,P|249:94|198:85,1,105.000004005432,2|8,0:1|0:0,0:1:0:0:
15,259,140064,6,0,P|55:248|95:260,1,84,2|0,0:1|0:0,0:1:0:0:
111,274,140286,2,0,L|107:347,1,70,2|0,0:1|0:0,0:0:0:0:
209,245,140509,2,0,L|205:318,1,70,2|0,0:0|0:0,0:0:0:0:
307,216,140731,6,2,B|303:286|303:286|349:272|366:191|349:145,1,230.99999295044,2|0,0:0|0:0,0:1:0:0:
338,128,141398,2,2,B|386:138|386:138|433:127,1,97.9999970092774,2|8,0:1|0:0,0:1:0:0:
198,38,141842,6,2,B|154:28|154:28|111:38,1,89.2500017023087,2|0,0:0|0:0,0:1:0:0:
92,53,142064,2,2,B|94:91|77:120|77:120|122:155|130:213|130:213|108:246|108:277,1,245,2|0,0:0|0:0,0:1:0:0:
46,323,142509,6,2,B|102:318|102:318|153:339|153:339|209:334,1,168,2|0,0:0|0:0,0:1:0:0:
340,259,142953,2,2,P|308:194|256:245,1,168,2|0,0:0|0:0,0:1:0:0:
394,344,143398,6,0,L|442:338,1,48.9999985046387,8|0,0:1|0:0,0:0:0:0:
450,251,143620,2,0,L|498:245,1,48.9999985046387
498,245,144286,6,0,P|456:196|492:116,1,140,4|0,3:2|0:0,0:0:0:0:
367,36,144620,1,0,0:0:0:0:
367,36,144731,2,0,L|376:106,1,70,2|0,0:1|0:0,0:0:0:0:
273,204,144953,2,0,L|282:134,1,70
189,12,145175,6,0,L|198:82,1,70,8|0,0:1|0:0,0:0:0:0:
95,180,145398,2,0,L|104:110,1,70,0|0,3:0|0:0,0:0:0:0:
41,261,145620,2,0,B|84:287|140:282|170:241|170:241|153:271|156:306,1,210,2|0,3:1|0:0,0:0:0:0:
253,293,146064,6,0,L|391:275,1,140,8|0,0:3|0:0,0:0:0:0:
501,311,146398,1,0,0:0:0:0:
501,311,146509,2,0,P|497:345|487:379,1,70,2|0,0:1|0:0,0:0:0:0:
383,185,146731,2,0,P|387:220|397:254,1,70
500,59,146953,6,0,P|496:93|486:127,1,70,8|0,0:1|0:0,0:0:0:0:
256,262,147175,1,0,3:0:0:0:
256,262,147286,1,0,3:0:0:0:
313,181,147398,2,0,L|383:185,1,70,2|0,3:1|0:0,0:0:0:0:
198,342,147620,2,0,L|128:338,1,70,0|0,3:0|0:0,0:0:0:0:
1,293,147842,6,0,P|65:272|84:207,1,140,0|0,3:0|0:0,0:0:0:0:
4,74,148175,1,0,0:0:0:0:
4,74,148286,2,0,P|3:109|9:144,1,70,2|0,0:1|0:0,0:0:0:0:
177,174,148509,2,0,P|178:139|172:104,1,70
84,207,148731,6,0,P|83:242|89:277,1,70,8|0,0:1|0:0,0:0:0:0:
257,307,148954,2,0,P|258:272|252:237,1,70,0|0,3:0|0:0,0:0:0:0:
244,39,149175,2,0,B|296:49|296:49|344:28|344:28|413:41|413:41|362:55,1,210,2|0,3:1|0:0,0:0:0:0:
338,124,149620,6,0,B|368:140|368:140|470:112,1,140,8|0,0:1|0:0,0:0:0:0:
450,208,149953,1,0,0:0:0:0:
450,208,150064,2,0,L|382:226,1,70,2|0,3:1|0:0,0:0:0:0:
202,318,150286,2,0,L|270:337,1,70
389,310,150509,6,0,B|344:298|344:298|309:266|309:266|264:253,1,140,8|0,0:1|3:0,0:0:0:0:
122,294,150842,1,0,0:0:0:0:
122,294,150953,2,0,P|120:330|133:367,1,70,2|0,0:1|0:0,0:0:0:0:
265,253,151175,2,0,P|267:217|254:180,1,70
51,129,151398,6,0,B|84:143|119:133|119:133|155:121|188:134,1,140,0|0,3:0|0:0,0:0:0:0:
391,103,151731,1,0,0:0:0:0:
391,103,151842,2,0,P|380:69|382:35,1,70,2|0,0:1|0:0,0:0:0:0:
256,185,152064,2,0,P|267:218|265:253,1,70
403,89,152286,6,0,P|401:54|412:21,1,70,8|0,0:1|0:0,0:0:0:0:
245,199,152509,2,0,P|246:233|235:266,1,70
25,269,152731,2,0,B|-11:253|-11:253|36:216|91:230|91:230|114:218|150:217,1,210,2|0,3:1|0:0,0:0:0:0:
320,316,153175,6,0,P|388:324|447:281,1,140,8|0,0:3|0:0,0:0:0:0:
373,156,153509,1,0,0:0:0:0:
373,156,153620,2,0,L|364:226,1,70,2|0,0:1|0:0,0:0:0:0:
468,136,153842,2,0,L|477:66,1,70
308,85,154064,6,0,B|256:100|256:100|206:88|206:88|163:118|106:96,1,210,8|0,0:1|0:0,0:0:0:0:
10,71,154509,2,0,P|9:106|18:140,1,70,2|0,0:1|0:0,0:0:0:0:
225,247,154731,2,0,P|225:213|216:179,1,70,0|0,3:0|0:0,0:0:0:0:
11,338,154953,6,0,B|57:334|57:334|97:308|97:308|144:304,1,140,0|0,3:0|0:0,0:0:0:0:
314,289,155286,1,0,0:0:0:0:
314,289,155398,2,0,B|306:358,1,70,2|0,0:1|0:0,0:0:0:0:
498,225,155620,2,0,B|505:155,1,70
232,177,155842,6,0,B|225:247,1,70,8|0,0:1|0:0,0:0:0:0:
415,112,156064,2,0,B|423:43,1,70,0|0,3:0|0:0,0:0:0:0:
142,134,156286,2,0,B|105:127|73:146|73:146|44:135|25:98|25:98|33:138|25:173,1,210,2|0,3:1|0:0,0:0:0:0:
6,273,156731,6,0,B|-5:346|90:377|125:310|125:310|168:321|168:321|212:308,1,272.999987503052,8|0,0:1|0:0,0:0:0:0:
432,229,157175,2,0,B|443:156|348:125|313:192|313:192|270:181|270:181|226:194,1,272.999987503052,8|0,0:1|0:0,0:0:0:0:
35,178,157620,2,0,B|10:141|10:141|44:89|44:10|44:10|83:78|139:106|139:106|136:151,1,363.999983337403,8|0,0:1|0:0,0:0:0:0:
136,151,167398,5,0,3:0:0:0:
136,151,167509,2,0,P|190:180|252:175,1,125.999996154785,0|0,0:0|3:0,0:0:0:0:
458,91,168064,1,0,0:0:0:0:
360,70,168286,2,0,L|350:196,1,125.999996154785,0|0,3:0|0:0,0:0:0:0:
372,214,168731,2,0,L|375:255,2,41.9999987182618,0|0|0,3:0|0:0|0:0,0:0:0:0:
439,332,169175,5,0,3:0:0:0:
278,272,169397,1,0,0:0:0:0:
341,349,169620,1,0,3:0:0:0:
314,179,169842,1,0,0:0:0:0:
179,287,170064,1,0,3:0:0:0:
158,291,170175,1,0,0:0:0:0:
137,294,170286,1,0,0:0:0:0:
377,257,170509,1,0,3:0:0:0:
243,366,170731,1,0,0:0:0:0:
476,242,170953,5,0,3:0:0:0:
476,242,171064,2,0,P|460:180|450:118,1,125.999996154785,0|0,0:0|3:0,0:0:0:0:
314,179,171620,1,0,0:0:0:0:
351,380,171842,2,0,P|366:319|377:257,1,125.999996154785,0|0,3:0|0:0,0:0:0:0:
395,238,172286,2,0,L|441:243,2,41.9999987182618,0|0|0,3:0|0:0|0:0,0:0:0:0:
178,328,172731,6,0,L|185:397,1,48.9999985046387,4|0,0:0|0:0,0:0:0:0:
34,268,172953,5,8,0:2:0:0:
43,232,173064,1,8,0:2:0:0:
70,207,173175,2,0,L|117:193,1,48.9999985046387,0|0,1:0|1:0,0:0:0:0:
256,294,173398,5,8,0:2:0:0:
292,285,173509,1,8,0:2:0:0:
316,257,173620,2,0,L|336:189,1,48.9999985046387,0|0,1:0|0:0,0:0:0:0:
271,48,173842,5,8,0:2:0:0:
235,55,173953,1,8,0:2:0:0:
204,76,174064,2,0,L|187:244,1,168,4|0,1:2|0:0,0:0:0:0:
178,328,174509,6,0,B|247:342|247:342|321:313,1,140,4|0,3:2|0:0,0:0:0:0:
374,149,174842,1,8,0:1:0:0:
352,161,174953,2,0,P|350:195|357:229,1,70,0|0,3:0|0:0,0:0:0:0:
458,320,175175,2,0,P|460:285|453:252,1,70,8|0,0:1|0:0,0:0:0:0:
280,94,175398,6,0,P|219:75|152:108,1,140,0|0,3:0|0:0,0:0:0:0:
70,207,175731,1,8,0:1:0:0:
83,227,175842,2,0,L|74:311,1,70,0|0,3:0|0:0,0:0:0:0:
224,173,176064,2,0,L|232:257,1,70,8|0,0:1|0:0,0:0:0:0:
355,349,176286,6,0,P|422:348|468:298,1,140,0|0,3:0|0:0,0:0:0:0:
391,157,176620,1,8,0:1:0:0:
391,157,176731,2,0,L|399:227,1,70,0|0,3:0|0:0,0:0:0:0:
303,115,176953,2,0,L|310:45,1,70,8|0,0:1|0:0,0:0:0:0:
224,173,177175,6,0,L|89:186,1,105,0|0,3:0|0:0,0:0:0:0:
98,174,177398,2,0,P|82:142|79:108,1,70,8|0,0:1|0:0,0:0:0:0:
313,211,177620,2,0,P|293:240|265:260,1,70,8|0,3:0|0:0,0:0:0:0:
238,7,177842,2,0,P|273:9|305:23,1,70,0|0,1:0|0:0,0:0:0:0:
427,155,178064,6,0,L|410:323,1,140,0|0,3:0|0:0,0:0:0:0:
241,375,178398,1,8,0:1:0:0:
256,356,178509,2,0,L|248:286,1,70,0|0,3:0|0:0,0:0:0:0:
55,76,178731,2,0,L|47:146,1,70,8|0,0:1|0:0,0:0:0:0:
124,219,178953,6,0,B|170:213|170:213|209:187|209:187|255:181,1,140,0|0,3:0|0:0,0:0:0:0:
435,283,179286,1,8,0:1:0:0:
413,294,179398,2,0,P|379:291|345:282,1,70,0|0,3:0|0:0,0:0:0:0:
474,175,179620,2,0,P|442:189|409:199,1,70,8|0,0:1|0:0,0:0:0:0:
309,45,179842,6,0,P|376:43|422:94,1,140,0|0,3:0|0:0,0:0:0:0:
275,167,180175,1,8,0:1:0:0:
256,181,180287,2,0,L|186:173,1,70,0|0,3:0|0:0,0:0:0:0:
85,350,180509,2,0,L|155:342,1,70,8|0,0:1|0:0,0:0:0:0:
279,269,180731,6,0,L|121:250,1,140,0|0,3:0|0:0,0:0:0:0:
275,167,181064,1,8,0:1:0:0:
256,181,181175,2,0,L|116:165,1,140,0|8,3:0|0:1,0:0:0:0:
15,357,181508,5,0,0:1:0:0:
15,357,181620,2,0,L|155:342,1,140,0|0,3:0|0:0,0:0:0:0:
351,294,181953,1,8,0:1:0:0:
364,316,182064,2,0,P|360:350|351:384,1,70,0|0,3:0|0:0,0:0:0:0:
140,252,182286,2,0,P|144:218|153:184,1,70,8|0,0:1|0:0,0:0:0:0:
370,161,182509,6,0,P|303:175|243:143,1,140,0|0,3:0|0:0,0:0:0:0:
280,4,182842,1,8,0:1:0:0:
304,9,182953,2,0,P|313:43|318:78,1,70,0|0,3:0|0:0,0:0:0:0:
433,239,183175,2,0,L|503:231,1,70,8|0,0:1|0:0,0:0:0:0:
364,316,183398,6,0,L|216:299,1,140,0|0,3:0|0:0,0:0:0:0:
111,295,183731,1,8,0:1:0:0:
90,310,183842,2,0,P|83:344|80:378,1,70,0|0,3:0|0:0,0:0:0:0:
208,281,184064,2,0,P|205:246|197:212,1,70,8|0,0:1|0:0,0:0:0:0:
30,86,184286,6,0,P|82:82|134:71,1,105,0|0,3:0|0:0,0:0:0:0:
150,52,184509,2,0,P|153:86|160:121,1,70,8|0,0:1|0:0,0:0:0:0:
263,24,184731,2,0,P|256:59|255:94,1,70,8|0,3:0|0:0,0:0:0:0:
378,26,184953,2,0,P|362:57|352:90,1,70,0|0,1:0|0:0,0:0:0:0:
489,57,185175,6,0,B|463:82|447:113|447:113|458:146|457:182,1,140,0|0,3:0|0:0,0:0:0:0:
420,287,185509,1,8,0:1:0:0:
434,308,185620,2,0,L|364:316,1,70,0|0,3:0|0:0,0:0:0:0:
226,237,185842,2,0,L|296:245,1,70,8|0,0:1|0:0,0:0:0:0:
158,308,186064,6,0,P|105:270|28:273,1,140,0|0,3:0|0:0,0:0:0:0:
142,180,186398,1,8,0:1:0:0:
160,162,186509,2,0,P|164:127|164:92,1,70,0|0,3:0|0:0,0:0:0:0:
247,35,186731,2,0,P|256:69|261:104,1,70,8|0,0:1|0:0,0:0:0:0:
226,237,186953,6,0,P|279:199|356:202,1,140,0|0,3:0|0:0,0:0:0:0:
472,337,187286,1,8,0:1:0:0:
464,361,187398,2,0,P|430:370|396:375,1,70,0|0,3:0|0:0,0:0:0:0:
313,323,187620,2,0,L|310:289,2,35,8|8|8,0:1|0:0|0:0,0:0:0:0:
294,339,187842,6,0,P|260:330|225:325,1,70,0|0,3:0|0:0,0:0:0:0:
39,377,188064,1,8,0:0:0:0:
39,377,188175,1,8,0:1:0:0:
127,332,188286,2,0,L|135:192,1,140,0|8,0:0|0:1,0:0:0:0:
37,86,188620,5,0,0:0:0:0:
37,86,188731,2,0,B|73:115|73:115|123:85|177:102,1,154.000004699707,0|0,3:0|0:0,0:0:0:0:
320,240,189064,1,8,0:1:0:0:
335,217,189175,2,0,L|411:213,1,77.0000023498536,0|0,3:0|0:0,0:0:0:0:
274,56,189398,2,0,P|269:95|268:133,1,77.0000023498536,8|0,0:1|0:0,0:0:0:0:
254,291,189620,6,0,P|184:315|115:284,1,154.000004699707,0|0,3:0|0:0,0:0:0:0:
60,71,189953,1,8,0:1:0:0:
38,87,190064,2,0,P|37:125|32:163,1,77.0000023498536,0|0,3:0|0:0,0:0:0:0:
109,360,190286,2,0,P|110:322|115:284,1,77.0000023498536,8|0,0:1|0:0,0:0:0:0:
177,149,190509,6,0,P|245:180|316:156,1,154.000004699707,0|0,3:0|0:0,0:0:0:0:
405,6,190842,1,8,0:1:0:0:
383,20,190953,2,0,P|387:58|402:93,1,77.0000023498536,0|0,3:0|0:0,0:0:0:0:
337,229,191175,2,0,P|332:191|317:156,1,77.0000023498536,8|0,0:1|0:0,0:0:0:0:
193,34,191398,6,0,L|78:50,1,115.50000352478,0|0,3:0|0:0,0:0:0:0:
51,54,191620,2,0,L|40:130,1,77.0000023498536,8|0,0:1|0:0,0:0:0:0:
187,225,191842,2,0,L|177:149,1,77.0000023498536,8|0,3:0|0:0,0:0:0:0:
51,244,192064,2,0,L|40:320,1,77.0000023498536,0|0,1:0|0:0,0:0:0:0:
177,339,192286,6,0,B|209:322|253:327|253:327|297:332|326:316,1,154.000004699707,0|0,3:0|0:0,0:0:0:0:
469,194,192620,1,8,0:1:0:0:
445,183,192731,2,0,P|408:195|380:221,1,77.0000023498536,0|0,3:0|0:0,0:0:0:0:
456,365,192953,2,0,L|462:289,1,77.0000023498536,8|0,0:1|0:0,0:0:0:0:
265,65,193175,6,0,L|276:219,1,154.000004699707,0|0,3:0|0:0,0:0:0:0:
193,359,193509,1,8,0:1:0:0:
177,339,193620,2,0,L|182:262,1,77.0000023498536,0|0,3:0|0:0,0:0:0:0:
43,137,193842,2,0,L|48:213,1,77.0000023498536,8|0,0:1|0:0,0:0:0:0:
275,218,194064,6,0,P|221:167|146:165,1,154.000004699707,0|0,3:0|0:0,0:0:0:0:
304,102,194398,1,8,0:1:0:0:
324,121,194509,2,0,P|361:129|399:130,1,77.0000023498536,0|0,3:0|0:0,0:0:0:0:
196,53,194731,2,0,P|158:54|121:63,1,77.0000023498536,8|0,0:1|0:0,0:0:0:0:
43,137,194953,6,0,L|53:290,1,154.000004699707,0|0,3:0|0:0,0:0:0:0:
163,186,195286,1,8,0:1:0:0:
146,166,195398,2,0,L|156:319,1,154.000004699707,0|8,3:0|0:1,0:0:0:0:
354,287,195731,5,0,0:0:0:0:
354,287,195842,2,0,B|367:255|367:255|306:240|252:272,1,154.000004699707,0|0,3:0|0:0,0:0:0:0:
65,314,196175,1,8,0:1:0:0:
53,290,196286,2,0,L|48:213,1,77.0000023498536,0|0,3:0|0:0,0:0:0:0:
168,109,196509,2,0,L|163:186,1,77.0000023498536,8|0,0:1|0:0,0:0:0:0:
306,353,196731,6,0,P|379:365|430:311,1,154.000004699707,0|0,3:0|0:0,0:0:0:0:
376,190,197064,1,8,0:1:0:0:
359,211,197175,2,0,P|350:248|354:287,1,77.0000023498536,0|0,3:0|0:0,0:0:0:0:
449,150,197398,2,0,P|421:123|386:107,1,77.0000023498536,8|0,0:1|0:0,0:0:0:0:
212,253,197620,6,0,P|138:265|87:211,1,154.000004699707,0|0,3:0|0:0,0:0:0:0:
150,88,197953,1,8,0:1:0:0:
168,109,198064,2,0,L|163:186,1,77.0000023498536,0|0,3:0|0:0,0:0:0:0:
271,76,198286,2,0,L|266:153,1,77.0000023498536,8|0,0:1|0:0,0:0:0:0:
374,43,198509,6,0,L|366:162,1,115.50000352478,0|0,3:0|0:0,0:0:0:0:
364,185,198731,2,0,P|402:176|440:174,1,77.0000023498536,8|0,0:1|0:0,0:0:0:0:
375,346,198953,2,0,P|348:318|328:286,1,77.0000023498536,8|0,3:0|0:0,0:0:0:0:
509,256,199175,2,0,P|498:292|480:327,1,77.0000023498536,0|0,1:0|0:0,0:0:0:0:
239,346,199398,6,0,B|207:329|163:334|163:334|119:339|90:323,1,154.000004699707,0|0,3:0|0:0,0:0:0:0:
8,160,199731,1,8,0:1:0:0:
18,185,199842,2,0,P|12:223|0:260,1,77.0000023498536,0|0,3:0|0:0,0:0:0:0:
103,120,200064,2,0,P|90:83|84:45,1,77.0000023498536,8|0,0:1|0:0,0:0:0:0:
322,30,200286,6,0,P|263:75|190:57,1,154.000004699707,0|0,3:0|0:0,0:0:0:0:
343,137,200620,1,8,0:1:0:0:
359,157,200731,2,0,L|352:238,1,77.0000023498536,0|0,3:0|0:0,0:0:0:0:
460,344,200953,2,0,L|454:268,1,77.0000023498536,8|0,0:1|0:0,0:0:0:0:
272,304,201175,6,0,B|221:300|221:300|173:321|173:321|122:317,1,154.000004699707,0|0,3:0|0:0,0:0:0:0:
26,259,201509,1,8,0:1:0:0:
18,285,201620,2,0,L|24:361,1,77.0000023498536,0|0,3:0|0:0,0:0:0:0:
157,214,201842,2,0,L|160:175,2,38.5000011749268,8|8|8,0:1|0:0|0:0,0:0:0:0:
177,154,202064,6,0,L|253:147,1,77.0000023498536,0|0,3:0|0:0,0:0:0:0:
454,141,202286,1,8,0:0:0:0:
454,141,202398,1,8,0:1:0:0:
351,103,202509,2,0,P|346:141|352:179,1,77.0000023498536
508,310,202731,2,0,P|512:272|507:234,1,77.0000023498536,8|0,0:1|0:0,0:0:0:0:
276,249,202953,6,0,B|236:265|194:253|194:253|151:239|111:255,1,167.999994873047,0|0,3:0|0:0,0:0:0:0:
31,168,203286,1,8,0:1:0:0:
49,143,203398,2,0,L|41:60,1,83.9999974365235,0|0,3:0|0:0,0:0:0:0:
202,169,203620,2,0,L|194:252,1,83.9999974365235,8|0,0:1|0:0,0:0:0:0:
438,108,203842,6,0,P|366:68|287:87,1,167.999994873047,0|0,3:0|0:0,0:0:0:0:
284,327,204175,1,8,0:1:0:0:
306,346,204286,2,0,P|347:351|388:341,1,83.9999974365235,0|0,3:0|0:0,0:0:0:0:
103,178,204509,2,0,P|61:172|20:182,1,83.9999974365235,8|0,0:1|0:0,0:0:0:0:
186,336,204731,6,0,L|202:169,1,167.999994873047,0|0,3:0|0:0,0:0:0:0:
255,22,205064,1,8,0:1:0:0:
279,4,205175,2,0,L|287:88,1,83.9999974365235,0|0,3:0|0:0,0:0:0:0:
490,315,205398,2,0,L|498:231,1,83.9999974365235,8|0,0:1|0:0,0:0:0:0:
411,152,205620,6,0,P|349:152|299:190,1,125.999996154785,0|0,3:0|0:0,0:0:0:0:
276,206,205841,2,0,P|236:194|202:169,1,83.9999974365235,8|0,0:1|0:0,3:3:0:0:
79,62,206064,2,0,P|89:103|85:145,1,83.9999974365235,8|0,3:0|0:0,3:3:0:0:
53,303,206286,2,0,P|83:274|121:257,1,83.9999974365235,0|0,1:0|0:0,3:3:0:0:
325,323,206509,6,0,B|366:335|407:320|407:320|448:302|490:315,1,167.999994873047,0|0,3:0|0:0,0:0:0:0:
378,106,206842,1,8,0:1:0:0:
358,128,206953,2,0,P|357:170|363:211,1,83.9999974365235,0|0,3:0|0:0,0:0:0:0:
489,142,207175,2,0,P|490:100|483:58,1,83.9999974365235,8|0,0:1|0:0,0:0:0:0:
283,38,207398,6,0,P|213:79|132:62,1,167.999994873047,0|0,3:0|0:0,0:0:0:0:
0,13,207731,1,8,0:1:0:0:
17,37,207842,2,0,P|21:79|18:121,1,83.9999974365235,0|0,3:0|0:0,0:0:0:0:
109,260,208064,2,0,L|195:253,1,83.9999974365235,8|0,0:1|0:0,0:0:0:0:
64,191,208286,6,0,P|26:262|68:331,1,167.999994873047,0|0,3:0|0:0,0:0:0:0:
259,357,208620,1,8,0:1:0:0:
277,334,208731,2,0,L|360:327,1,83.9999974365235,0|0,3:0|0:0,0:0:0:0:
489,224,208953,2,0,L|406:218,1,83.9999974365235,8|0,0:1|0:0,0:0:0:0:
193,253,209175,6,0,B|188:197|188:197|218:150|218:150|213:94,1,167.999994873047,0|0,3:0|0:0,0:0:0:0:
14,15,209509,1,8,0:1:0:0:
24,43,209620,2,0,P|57:68|94:86,1,83.9999974365235,0|0,3:0|0:0,0:0:0:0:
213,94,209842,2,0,P|254:88|294:75,1,83.9999974365235,8|0,0:1|0:0,0:0:0:0:
446,16,210064,6,0,L|432:183,1,167.999994873047,0|0,3:0|0:0,0:0:0:0:
369,357,210398,1,8,0:1:0:0:
344,342,210509,2,0,P|339:301|342:259,1,83.9999974365235,0|0,3:0|0:0,0:0:0:0:
507,272,210731,2,0,P|504:313|492:354,1,83.9999974365235,8|0,0:1|0:0,0:0:0:0:
227,360,210953,6,0,B|194:340|149:334|149:334|107:351|67:350,1,167.999994873047,0|0,3:0|0:0,0:0:0:0:
154,119,211286,1,8,0:1:0:0:
179,136,211398,2,0,P|183:177|180:219,1,83.9999974365235,0|0,3:0|0:0,0:0:0:0:
45,164,211620,2,0,P|40:123|43:81,1,83.9999974365235,8|0,0:1|0:0,0:0:0:0:
242,42,211842,6,0,P|315:79|395:62,1,167.999994873047,0|0,3:0|0:0,0:0:0:0:
489,241,212175,1,8,0:1:0:0:
470,216,212286,2,0,P|469:175|485:136,1,83.9999974365235,0|0,3:0|0:0,0:0:0:0:
355,248,212509,2,0,P|325:220|309:181,1,83.9999974365235,8|0,0:1|0:0,0:0:0:0:
296,350,212731,6,0,P|233:347|181:312,1,125.999996154785,0|0,3:0|0:0,0:0:0:0:
164,288,212953,2,0,L|169:371,1,83.9999974365235,8|0,0:1|0:0,0:0:0:0:
98,190,213175,2,0,L|42:252,1,83.9999974365235,8|0,3:0|0:0,0:0:0:0:
120,74,213398,2,0,L|37:79,1,83.9999974365235,0|0,1:0|0:0,0:0:0:0:
209,150,213620,6,0,B|249:120|249:120|375:132,1,167.999994873047,0|0,3:0|0:0,0:0:0:0:
304,320,213953,1,8,0:1:0:0:
281,300,214064,2,0,P|281:258|286:217,1,83.9999974365235,0|0,3:0|0:0,0:0:0:0:
478,99,214286,2,0,P|478:140|473:182,1,83.9999974365235,8|0,0:1|0:0,0:0:0:0:
179,358,214509,6,0,P|138:321|13:339,1,167.999994873047,0|0,3:0|0:0,0:0:0:0:
258,280,214842,1,8,0:1:0:0:
281,300,214953,2,0,P|322:305|364:305,1,83.9999974365235,0|0,3:0|0:0,0:0:0:0:
399,100,215175,2,0,P|358:95|316:95,1,83.9999974365235,8|0,0:1|0:0,0:0:0:0:
462,350,215398,6,0,L|472:182,1,167.999994873047,0|0,3:0|0:0,0:0:0:0:
245,140,215731,1,8,0:1:0:0:
232,166,215842,2,0,P|190:172|148:171,1,83.9999974365235,0|0,3:0|0:0,0:0:0:0:
10,125,216064,2,0,L|12:83,2,41.9999987182618,8|8|8,0:1|0:0|0:0,0:0:0:0:
36,139,216286,6,0,L|42:223,1,83.9999974365235,0|0,3:0|0:0,0:0:0:0:
51,377,216509,1,8,0:0:0:0:
51,377,216620,1,8,0:1:0:0:
123,295,216731,2,0,P|164:289|206:290,1,83.9999974365235,0|0,3:0|0:0,0:0:0:0:
497,351,216953,2,0,P|456:357|414:356,1,83.9999974365235,8|0,0:1|0:0,0:0:0:0:
310,323,217175,5,4,0:0:0:0:
