osu file format v14

[General]
AudioFilename: audio.mp3
AudioLeadIn: 0
PreviewTime: 141487
Countdown: 0
SampleSet: Soft
StackLeniency: 0.7
Mode: 0
LetterboxInBreaks: 0
WidescreenStoryboard: 1

[Editor]
Bookmarks: 24075,48075,124875
DistanceSpacing: 0.3
BeatDivisor: 4
GridSize: 32
TimelineZoom: 2.2

[Metadata]
Title:BIBI Vengeance
TitleUnicode:나쁜년
Artist:BIBI
ArtistUnicode:비비
Creator:-GN Fan
Version:mask of zorro
Source:
Tags:lowlife princess: noir kpop korean pop k-pop the need 김형서 Gim Hyeong-seo Nakedbibi Feel Ghood Music
BeatmapID:4536864
BeatmapSetID:2153168

[Difficulty]
HPDrainRate:5.4
CircleSize:4.1
OverallDifficulty:8.8
ApproachRate:9.1
SliderMultiplier:1.4
SliderTickRate:1

[Events]
//Background and Video events
0,0,"bibi.png",0,0
//Break Periods
//Storyboard Layer 0 (Background)
//Storyboard Layer 1 (Fail)
//Storyboard Layer 2 (Pass)
//Storyboard Layer 3 (Foreground)
//Storyboard Layer 4 (Overlay)
//Storyboard Sound Samples

[TimingPoints]
75,300,4,2,1,80,1,0
9675,-100,4,2,1,60,0,0
10575,-125,4,2,1,60,0,0
12075,-100,4,2,1,60,0,0
12975,-125,4,2,1,60,0,0
14475,-100,4,2,1,60,0,0
15375,-125,4,2,1,60,0,0
16875,-100,4,2,1,60,0,0
17775,-125,4,2,1,60,0,0
18675,-100,4,2,1,60,0,0
21375,-125,4,2,1,60,0,0
21675,-100,4,2,1,60,0,0
26175,-125,4,2,1,60,0,0
26475,-100,4,2,1,60,0,0
28575,-83.3333333333333,4,2,1,60,0,0
28875,-66.6666666666667,4,2,1,60,0,0
29775,-100,4,2,1,60,0,0
31275,-125,4,2,1,60,0,0
33675,-66.6666666666667,4,2,1,60,0,0
34575,-100,4,2,1,60,0,0
36075,-125,4,2,1,60,0,0
37875,-83.3333333333333,4,2,1,60,0,0
38475,-66.6666666666667,4,2,1,60,0,0
39375,-100,4,2,1,60,0,0
40875,-125,4,2,1,60,0,0
43275,-66.6666666666667,4,2,1,60,0,0
44175,-100,4,2,1,60,0,0
45675,-125,4,2,1,60,0,0
47475,-83.3333333333333,4,2,1,60,0,0
47775,-100,4,2,1,60,0,0
48075,-66.6666666666667,4,2,1,60,0,0
57075,-66.6666666666667,4,2,2,80,0,0
57375,-66.6666666666667,4,2,1,80,0,0
64875,-1000,4,2,1,80,0,0
66675,-100,4,2,2,80,0,0
67275,-125,4,2,1,60,0,0
76275,-100,4,2,1,60,0,0
76875,-125,4,2,1,60,0,0
86175,-83.3333333333333,4,2,1,60,0,0
86475,-66.6666666666667,4,2,1,60,0,0
87375,-100,4,2,1,60,0,0
88875,-125,4,2,1,60,0,0
91275,-66.6666666666667,4,2,1,60,0,0
92175,-100,4,2,1,60,0,0
93675,-125,4,2,1,60,0,0
95475,-83.3333333333333,4,2,1,60,0,0
96075,-66.6666666666667,4,2,1,60,0,0
96975,-100,4,2,1,60,0,0
98475,-125,4,2,1,60,0,0
100875,-66.6666666666667,4,2,1,60,0,0
101775,-100,4,2,1,60,0,0
103275,-125,4,2,1,60,0,0
105075,-83.3333333333333,4,2,2,70,0,0
105675,-66.6666666666667,4,2,1,80,0,1
114675,-66.6666666666667,4,2,2,80,0,1
114975,-66.6666666666667,4,2,1,80,0,1
122475,-66.6666666666667,4,2,1,80,0,0
123975,-100,4,2,1,80,0,0
124275,-100,4,2,2,80,0,0
124875,-333.333333333333,4,2,1,80,0,0
139275,-200,4,2,1,80,0,0
141675,-125,4,2,1,80,0,0
142275,-100,4,2,1,80,0,0
142875,-83.3333333333333,4,2,1,80,0,0
143475,-33.3333333333333,4,2,1,80,0,1
143700,-33.3333333333333,4,2,1,80,0,0
143775,-66.6666666666667,4,2,2,70,0,0
144075,-66.6666666666667,4,2,1,80,0,1
148275,-100,4,2,1,70,0,0
148312,-66.6666666666667,4,2,1,5,0,0
148875,-66.6666666666667,4,2,1,80,0,1
153075,-66.6666666666667,4,2,2,80,0,1
153375,-66.6666666666667,4,2,1,80,0,1
160875,-71.4285714285714,4,2,1,80,0,0
161025,-71.4285714285714,4,2,1,80,0,0
161325,-71.4285714285714,4,2,1,80,0,0
161475,-71.4285714285714,4,2,1,80,0,0
161775,-71.4285714285714,4,2,1,80,0,0
161925,-71.4285714285714,4,2,1,80,0,0
162075,-83.3333333333333,4,2,1,80,0,0
162450,-83.3333333333333,4,2,1,80,0,0
162675,-66.6666666666667,4,2,2,80,0,0
162975,-100,4,2,1,80,0,0

[Colours]
Combo1 : 65,65,65
Combo2 : 255,43,43
Combo3 : 83,255,173
Combo4 : 0,94,170

[HitObjects]
70,15,9375,5,2,0:3:0:0:
64,18,9450,1,2,0:3:0:0:
60,23,9525,1,2,0:3:0:0:
57,29,9600,1,2,0:3:0:0:
55,35,9675,6,0,P|127:57|206:96,1,140,0|0,0:0|0:0,0:0:0:0:
220,227,10125,2,0,B|203:307|145:280|161:212|210:222,1,140,0|0,0:0|0:0,0:0:0:0:
239,274,10575,6,0,L|258:403,1,112,0|0,0:0|0:0,0:0:0:0:
509,19,11175,5,0,0:0:0:0:
435,37,11325,1,0,0:0:0:0:
435,37,11775,2,0,B|397:57|397:57|388:82,1,56,0|0,0:0|0:0,0:0:0:0:
512,138,12075,6,0,P|462:116|368:85,1,140,0|0,0:0|0:0,0:0:0:0:
265,224,12525,2,0,B|246:239|244:279|283:294|331:272|339:221,1,140,0|0,0:0|0:0,0:0:0:0:
231,190,12975,6,0,L|115:244,1,112,0|0,0:0|0:0,0:0:0:0:
509,369,13575,5,0,0:0:0:0:
444,324,13725,1,0,0:0:0:0:
133,260,14025,5,0,0:0:0:0:
68,305,14175,1,0,0:0:0:0:
289,378,14475,6,0,P|281:308|261:224,1,140,0|0,0:0|0:0,0:0:0:0:
132,151,14925,2,0,B|117:116|49:135|64:197|139:175,1,140,0|0,0:0|0:0,0:0:0:0:
140,111,15375,6,0,L|67:4,1,112,0|0,0:0|0:0,0:0:0:0:
0,302,15975,6,0,B|34:326|34:326|50:327,1,56,0|0,0:0|0:0,0:0:0:0:
263,239,16575,6,0,L|212:213,1,56,0|0,0:0|0:0,0:0:0:0:
23,200,16875,6,0,P|77:251|139:274,1,140,0|0,0:0|0:0,0:0:0:0:
240,136,17325,2,0,B|240:115|197:87|151:117|147:183,1,140,0|0,0:0|0:0,0:0:0:0:
284,149,17775,6,0,L|373:60,1,112,0|0,0:0|0:0,0:0:0:0:
510,295,18375,5,0,0:0:0:0:
435,316,18525,1,0,0:0:0:0:
261,248,18675,6,0,P|274:242|283:230,6,17.5,0|0|0|0|0|0|0,0:0|0:0|0:0|0:0|0:0|0:0|0:0,0:0:0:0:
338,279,18975,2,0,P|351:285|360:297,6,17.5,0|0|0|0|0|0|0,0:0|0:0|0:0|0:0|0:0|0:0|0:0,0:0:0:0:
282,340,19275,5,0,0:0:0:0:
282,340,19725,6,0,P|237:274|186:226,1,140,0|0,0:0|0:0,0:0:0:0:
66,366,20175,2,0,L|147:388,1,70,0|0,0:0|0:0,0:0:0:0:
268,237,20475,5,0,0:0:0:0:
273,229,20575,1,0,0:0:0:0:
273,219,20675,1,0,0:0:0:0:
233,163,20775,2,0,P|203:153|171:159,2,46.6666666666667,0|0|0,0:0|0:0|0:0,0:0:0:0:
308,246,21075,5,0,0:0:0:0:
308,246,21375,2,0,P|333:271|348:294,1,56,0|0,0:0|0:0,0:0:0:0:
510,143,21675,6,0,P|496:89|411:41,1,140,0|0,0:0|0:0,0:0:0:0:
498,222,22125,2,0,P|453:244|361:298,1,140,0|0,0:0|0:0,0:0:0:0:
423,161,22575,5,0,0:0:0:0:
423,161,23175,5,0,0:0:0:0:
352,126,23325,1,0,0:0:0:0:
150,246,23625,5,0,0:0:0:0:
79,281,23775,1,0,0:0:0:0:
274,236,24075,6,0,P|256:167|209:83,1,140,0|0,0:0|0:0,0:0:0:0:
102,193,24525,2,0,B|81:197|46:241|92:280|135:253|130:196,1,140,0|0,0:0|0:0,0:0:0:0:
204,87,24975,6,0,L|170:3,1,70,0|0,0:0|0:0,0:0:0:0:
378,159,25275,5,0,0:0:0:0:
370,164,25375,1,0,0:0:0:0:
360,164,25475,1,0,0:0:0:0:
310,112,25575,2,0,P|311:85|331:51,2,46.6666666666667,0|0|0,0:0|0:0|0:0,0:0:0:0:
376,194,25875,5,0,0:0:0:0:
376,194,26175,2,0,L|360:264,1,56,0|0,0:0|0:0,0:0:0:0:
209,383,26475,6,0,P|148:347|138:257,1,140,0|0,0:0|0:0,0:0:0:0:
314,369,26925,2,0,P|380:346|454:332,1,140,0|0,0:0|0:0,0:0:0:0:
246,317,27375,5,0,0:0:0:0:
246,317,27975,5,0,0:0:0:0:
267,231,28125,1,0,0:0:0:0:
196,384,28425,5,0,0:0:0:0:
69,239,28575,2,0,P|76:253|83:259,6,20.9999993591309,0|0|0|0|0|0|0,0:0|0:0|0:0|0:0|0:0|0:0|0:0,0:0:0:0:
0,304,28875,6,0,P|187:172|490:81,1,525.000020027161,0|0,0:0|0:0,0:0:0:0:
349,147,29775,6,0,P|316:130|284:109,1,70,0|0,0:0|0:0,0:0:0:0:
440,380,30375,6,0,B|455:370|455:370|506:359,1,70,0|0,0:0|0:0,0:0:0:0:
425,362,30975,1,0,0:0:0:0:
6,327,31275,6,0,P|50:298|63:219,1,112,0|0,0:0|0:0,0:0:0:0:
0,229,31725,2,0,L|23:289,1,56,0|0,0:0|0:0,0:0:0:0:
201,384,32175,5,0,0:0:0:0:
233,320,32325,2,0,B|207:276|207:276|207:270|207:270|180:222,1,112,0|0,0:0|0:0,0:0:0:0:
276,342,32775,5,0,0:0:0:0:
349,370,32925,1,0,0:0:0:0:
439,196,33225,5,0,0:0:0:0:
512,168,33375,1,0,0:0:0:0:
430,369,33675,6,0,B|430:295|388:196|320:124|203:113|101:149|111:262|216:292|257:259|217:232|252:198|291:210,1,525.000020027161,0|0,0:0|0:0,0:0:0:0:
363,172,34575,6,0,P|352:140|341:87,1,70,0|0,0:0|0:0,0:0:0:0:
20,293,35175,6,0,B|74:307|74:307|89:325,1,70,0|0,0:0|0:0,0:0:0:0:
1,309,35775,1,0,0:0:0:0:
251,15,36075,6,0,P|228:86|182:101,1,112,0|0,0:0|0:0,0:0:0:0:
161,34,36525,2,0,L|234:3,1,56,0|0,0:0|0:0,0:0:0:0:
496,189,36975,5,0,0:0:0:0:
429,227,37125,2,0,B|377:248|377:248|373:251|373:251|322:272,1,112,0|0,0:0|0:0,0:0:0:0:
8,384,37575,5,0,0:0:0:0:
78,351,37725,1,0,0:0:0:0:
175,192,37875,6,0,P|164:184|150:179,6,20.9999993591309,0|0|0|0|0|0|0,0:0|0:0|0:0|0:0|0:0|0:0|0:0,0:0:0:0:
128,247,38175,2,0,P|118:251|110:257,6,20.9999993591309,0|0|0|0|0|0|0,0:0|0:0|0:0|0:0|0:0|0:0|0:0,0:0:0:0:
7,228,38475,6,0,P|168:219|509:74,1,525.000020027161,0|0,0:0|0:0,0:0:0:0:
372,118,39375,6,0,P|357:156|347:196,1,70,0|0,0:0|0:0,0:0:0:0:
506,376,39975,6,0,B|493:361|493:361|438:336,1,70,0|0,0:0|0:0,0:0:0:0:
503,347,40575,1,0,0:0:0:0:
11,199,40875,6,0,P|41:247|97:254,1,112,0|0,0:0|0:0,0:0:0:0:
99,186,41325,2,0,L|32:227,1,56,0|0,0:0|0:0,0:0:0:0:
280,383,41775,5,0,0:0:0:0:
232,324,41925,2,0,B|248:275|248:275|251:272|251:272|271:217,1,112,0|0,0:0|0:0,0:0:0:0:
201,338,42375,5,0,0:0:0:0:
129,375,42525,1,0,0:0:0:0:
96,163,42825,5,0,0:0:0:0:
24,126,42975,1,0,0:0:0:0:
162,239,43275,6,0,B|137:259|162:291|97:331|28:279|31:236|54:137|173:102|291:206|333:245|380:331|249:437|189:345|223:297,1,525.000020027161,0|0,0:0|0:0,0:0:0:0:
251,196,44175,6,0,P|272:178|309:150,1,70,0|0,0:0|0:0,0:0:0:0:
496,365,44775,6,0,B|443:336|443:336|434:318,1,70,0|0,0:0|0:0,0:0:0:0:
510,350,45375,1,0,0:0:0:0:
339,19,45675,6,0,P|421:49|456:67,1,112,0|0,0:0|0:0,0:0:0:0:
358,74,46125,2,0,P|339:52|318:21,1,56,0|0,0:0|0:0,0:0:0:0:
499,196,46575,5,0,0:0:0:0:
426,175,46725,2,0,B|375:188|375:188|363:203|363:203|316:222,1,112,0|0,0:0|0:0,0:0:0:0:
49,171,47175,5,0,0:0:0:0:
108,100,47325,1,0,0:0:0:0:
20,199,47475,6,0,P|25:213|29:231,6,20.9999993591309,0|0|0|0|0|0|0,0:0|0:0|0:0|0:0|0:0|0:0|0:0,0:0:0:0:
74,280,47775,2,0,P|69:294|65:312,6,17.5,0|0|0|0|0|0|0,0:0|0:0|0:0|0:0|0:0|0:0|0:0,0:0:0:0:
2,379,48075,6,0,P|19:303|180:223,1,262.500010013581,0|0,3:0|0:0,0:0:0:0:
176,231,48525,1,8,0:0:0:0:
278,379,48675,2,0,P|225:358|173:348,1,105.000004005432,0|0,3:0|0:0,0:0:0:0:
261,204,48975,2,0,P|314:183|368:172,1,105.000004005432,8|0,0:0|0:0,0:0:0:0:
512,380,49275,6,0,B|419:236|387:372|267:271,1,262.500010013581,0|0,3:0|0:0,0:0:0:0:
281,275,49725,1,8,0:0:0:0:
508,127,49875,2,0,P|478:175|423:185,1,105.000004005432,0|0,3:0|0:0,0:0:0:0:
288,30,50175,2,0,P|343:60|399:77,1,105.000004005432,8|0,0:0|0:0,0:0:0:0:
512,18,50475,6,0,P|383:25|285:153,1,262.500010013581,0|0,3:0|0:0,0:0:0:0:
301,125,50925,1,8,0:0:0:0:
479,251,51075,2,0,P|467:195|456:145,1,105.000004005432,0|0,3:0|0:0,0:0:0:0:
332,267,51375,2,0,P|320:318|309:369,1,105.000004005432,8|0,0:0|0:0,0:0:0:0:
144,204,51675,6,0,B|294:88|284:230|398:147,1,262.500010013581,0|0,3:0|0:0,0:0:0:0:
387,143,52125,1,8,0:0:0:0:
152,19,52275,1,0,3:0:0:0:
349,70,52425,1,8,0:3:0:0:
152,217,52575,1,8,0:0:0:0:
152,217,52875,6,0,P|69:180|48:14,1,262.500010013581,0|0,3:0|0:0,0:0:0:0:
53,23,53325,1,8,0:0:0:0:
238,95,53475,2,0,P|188:110|134:128,1,105.000004005432,0|0,3:0|0:0,0:0:0:0:
313,2,53775,2,0,P|362:18|413:33,1,105.000004005432,8|0,0:0|0:0,0:0:0:0:
505,225,54075,6,0,B|342:160|395:277|237:289,1,262.500010013581,0|0,3:0|0:0,0:0:0:0:
262,276,54525,1,8,0:0:0:0:
447,384,54675,2,0,P|387:352|372:298,1,105.000004005432,0|0,3:0|0:0,0:0:0:0:
501,147,54975,2,0,P|490:202|474:261,1,105.000004005432,8|0,0:0|0:0,0:0:0:0:
259,374,55275,6,0,P|173:360|147:206,1,262.500010013581,0|0,3:0|0:0,0:0:0:0:
155,204,55725,1,8,0:0:0:0:
338,133,55875,2,0,P|283:108|228:71,1,105.000004005432,0|0,3:0|0:0,0:0:0:0:
254,282,56175,2,0,P|309:257|364:220,1,105.000004005432,8|0,0:0|0:0,0:0:0:0:
496,60,56475,6,0,B|328:-1|382:117|226:128,1,262.500010013581,0|0,3:0|0:0,0:0:0:0:
250,118,56925,1,8,0:0:0:0:
402,24,57075,1,2,3:3:0:0:
420,42,57150,1,2,0:3:0:0:
420,68,57225,2,0,L|397:142,1,52.5000020027161,10|2,0:3|0:3,0:0:0:0:
354,276,57375,2,0,L|366:239,6,26.2500010013581,8|2|2|2|2|2|2,0:0|0:0|0:0|0:0|0:0|0:0|0:0,0:0:0:0:
439,236,57675,6,0,P|307:243|221:362,1,262.500010013581,0|0,3:0|0:0,0:0:0:0:
233,344,58125,1,8,0:0:0:0:
352,205,58275,2,0,P|293:193|232:169,1,105.000004005432,0|0,3:0|0:0,0:0:0:0:
397,334,58575,2,0,P|446:316|498:306,1,105.000004005432,8|0,0:0|0:0,0:0:0:0:
480,107,58875,6,0,B|314:73|378:187|241:200,1,262.500010013581,0|0,3:0|0:0,0:0:0:0:
245,190,59325,1,8,0:0:0:0:
424,211,59475,2,0,P|412:159|400:108,1,105.000004005432,0|0,3:0|0:0,0:0:0:0:
253,281,59775,2,0,P|241:332|229:383,1,105.000004005432,8|0,0:0|0:0,0:0:0:0:
220,101,60075,6,0,P|138:17|-10:16,1,262.500010013581,0|0,3:0|0:0,0:0:0:0:
1,22,60525,1,8,0:0:0:0:
128,159,60675,2,0,P|139:114|150:54,1,105.000004005432,0|0,3:0|0:0,0:0:0:0:
0,226,60975,2,0,P|9:277|21:328,1,105.000004005432,8|0,0:0|0:0,0:0:0:0:
274,378,61275,6,0,B|408:354|320:239|495:226,1,262.500010013581,0|0,3:0|0:0,0:0:0:0:
477,237,61725,1,8,0:0:0:0:
220,303,61875,1,0,3:0:0:0:
396,208,62025,1,8,0:3:0:0:
231,97,62175,1,8,0:0:0:0:
231,97,62475,6,0,P|357:122|441:29,1,262.500010013581,0|0,3:0|0:0,0:0:0:0:
434,23,62925,1,8,0:0:0:0:
316,262,63075,2,0,P|307:210|298:158,1,105.000004005432,0|0,3:0|0:0,0:0:0:0:
508,92,63375,2,0,P|498:143|489:195,1,105.000004005432,8|0,0:0|0:0,0:0:0:0:
406,379,63675,6,0,B|247:350|365:252|149:267,1,262.500010013581,0|0,3:0|0:0,0:0:0:0:
177,273,64125,1,8,0:0:0:0:
333,323,64275,2,0,P|373:308|440:281,1,105.000004005432,0|0,3:0|0:0,0:0:0:0:
225,347,64575,2,0,P|184:361|118:389,1,105.000004005432,8|0,0:0|0:0,0:0:0:0:
507,180,64875,5,0,0:0:0:0:
1,61,66675,6,0,P|8:71|21:75,6,17.5,2|0|2|0|2|0|2,0:3|0:0|0:3|0:0|0:3|0:0|0:3,0:0:0:0:
75,13,66975,2,0,P|68:18|64:26,6,17.5,2|2|2|2|2|2|2,0:3|0:3|0:3|0:3|0:3|0:3|0:3,0:0:0:0:
88,104,67275,6,0,P|139:119|184:172,1,112,0|0,3:0|0:0,0:0:0:0:
130,268,67725,2,0,B|88:273|109:201|184:189,1,112,0|0,0:0|0:0,0:0:0:0:
233,228,68175,5,0,0:0:0:0:
282,288,68325,2,0,B|336:308|336:308|338:313|338:313|394:335,1,112,0|0,0:0|0:0,0:0:0:0:
496,373,68775,6,0,L|482:317,1,56,0|0,0:0|0:0,0:0:0:0:
412,98,69375,1,0,0:0:0:0:
510,172,69675,6,0,P|486:207|419:234,1,112,0|0,0:0|0:0,0:0:0:0:
334,176,70125,2,0,B|293:152|307:108|360:142|347:186,1,112,0|0,0:0|0:0,0:0:0:0:
341,258,70575,5,0,0:0:0:0:
279,305,70725,2,0,B|227:327|227:327|223:331|223:331|169:353,1,112,0|0,0:0|0:0,0:0:0:0:
139,283,71175,5,0,0:0:0:0:
210,321,71325,1,0,0:0:0:0:
71,183,71625,5,0,0:0:0:0:
0,221,71775,1,0,0:0:0:0:
211,240,72075,6,0,P|233:196|226:127,1,112,0|0,0:0|0:0,0:0:0:0:
111,110,72525,2,0,B|82:137|103:207|158:164,1,112,0|0,0:0|0:0,0:0:0:0:
182,82,72975,5,0,0:0:0:0:
249,38,73125,2,0,B|302:57|302:57|307:62|307:62|356:82,1,112,0|0,0:0|0:0,0:0:0:0:
489,9,73575,6,0,B|447:22|447:22|437:35,1,56,0|0,0:0|0:0,0:0:0:0:
396,269,74175,1,0,0:0:0:0:
512,173,74475,6,0,P|493:129|431:113,1,112,0|0,0:0|0:0,0:0:0:0:
344,193,74925,2,0,B|381:218|413:193|387:159|358:157|344:193,1,112,0|0,0:0|0:0,0:0:0:0:
362,93,75375,5,0,0:0:0:0:
284,94,75525,2,0,B|230:111|230:111|227:118|227:118|169:139,1,112,0|0,0:0|0:0,0:0:0:0:
274,200,75975,5,0,0:0:0:0:
233,134,76125,1,0,0:0:0:0:
63,78,76275,6,0,P|71:90|81:94,6,17.5,0|0|0|0|0|0|0,0:0|0:0|0:0|0:0|0:0|0:0|0:0,0:0:0:0:
144,69,76575,2,0,P|147:61|154:55,6,17.5,0|0|0|0|0|0|0,0:0|0:0|0:0|0:0|0:0|0:0|0:0,0:0:0:0:
137,142,76875,6,0,P|119:205|125:259,1,112,0|0,0:0|0:0,0:0:0:0:
234,341,77325,2,0,B|229:278|187:266|153:277,1,112,0|0,0:0|0:0,0:0:0:0:
107,364,77775,2,0,P|139:346|167:344,1,56,0|0,0:0|0:0,0:0:0:0:
341,379,78075,5,0,0:0:0:0:
333,370,78175,1,0,0:0:0:0:
329,359,78275,1,0,0:0:0:0:
347,318,78375,6,0,P|349:300|367:276,2,37.3333333333333,0|0|0,0:0|0:0|0:0,0:0:0:0:
301,379,78675,1,0,0:0:0:0:
301,379,78975,2,0,P|262:352|256:338,1,56,0|0,0:0|0:0,0:0:0:0:
137,149,79275,6,0,P|189:163|226:217,1,112,0|0,0:0|0:0,0:0:0:0:
65,92,79725,2,0,P|130:65|178:23,1,112,0|0,0:0|0:0,0:0:0:0:
243,103,80175,5,0,0:0:0:0:
243,103,80775,5,0,0:0:0:0:
311,136,80925,1,0,0:0:0:0:
483,258,81225,5,0,0:0:0:0:
415,291,81375,1,0,0:0:0:0:
315,208,81675,6,0,P|335:153|396:105,1,112,0|0,0:0|0:0,0:0:0:0:
456,188,82125,2,0,B|492:212|471:263|428:250|433:208,1,112,0|0,0:0|0:0,0:0:0:0:
438,73,82575,2,0,P|466:78|491:100,1,56,0|0,0:0|0:0,0:0:0:0:
358,119,82875,5,0,0:0:0:0:
351,122,82975,1,0,0:0:0:0:
343,121,83075,1,0,0:0:0:0:
308,92,83175,6,0,P|289:73|282:52,2,37.3333333333333,0|0|0,0:0|0:0|0:0,0:0:0:0:
351,153,83475,5,0,0:0:0:0:
351,153,83775,2,0,P|357:183|365:220,1,56,0|0,0:0|0:0,0:0:0:0:
195,342,84075,6,0,P|232:298|306:303,1,112,0|0,0:0|0:0,0:0:0:0:
125,385,84525,2,0,P|67:360|6:342,1,112,0|0,0:0|0:0,0:0:0:0:
131,285,84975,5,0,0:0:0:0:
131,285,85575,5,0,0:0:0:0:
160,214,85725,1,0,0:0:0:0:
95,348,86025,5,0,0:0:0:0:
54,206,86175,2,0,P|44:195|29:191,6,20.9999993591309,0|0|0|0|0|0|0,0:0|0:0|0:0|0:0|0:0|0:0|0:0,0:0:0:0:
3,263,86475,6,0,P|72:175|461:37,1,525.000020027161,0|0,0:0|0:0,0:0:0:0:
338,94,87375,6,0,P|300:49|285:13,1,70,0|0,0:0|0:0,0:0:0:0:
509,265,87975,6,0,B|487:270|487:270|447:303,1,70,0|0,0:0|0:0,0:0:0:0:
506,248,88575,1,0,0:0:0:0:
214,376,88875,6,0,P|159:346|154:285,1,112,0|0,0:0|0:0,0:0:0:0:
229,297,89325,2,0,L|214:356,1,56,0|0,0:0|0:0,0:0:0:0:
19,213,89775,5,0,0:0:0:0:
87,238,89925,2,0,B|136:220|136:220|140:221|140:221|214:198,1,112,0|0,0:0|0:0,0:0:0:0:
78,277,90375,5,0,0:0:0:0:
50,352,90525,1,0,0:0:0:0:
54,150,90825,5,0,0:0:0:0:
26,75,90975,1,0,0:0:0:0:
277,18,91275,6,0,B|390:32|532:129|426:358|306:334|253:213|302:135|396:224|368:89,1,525.000020027161,0|0,0:0|0:0,0:0:0:0:
405,24,92175,6,0,P|444:31|485:54,1,70,0|0,0:0|0:0,0:0:0:0:
217,218,92775,6,0,B|183:169|183:169|183:141,1,70,0|0,0:0|0:0,0:0:0:0:
211,240,93375,1,0,0:0:0:0:
176,0,93675,6,0,P|214:31|204:91,1,112,0|0,0:0|0:0,0:0:0:0:
134,63,94125,2,0,L|185:26,1,56,0|0,0:0|0:0,0:0:0:0:
386,221,94575,5,0,0:0:0:0:
359,292,94725,2,0,B|307:312|307:312|301:317|301:317|241:337,1,112,0|0,0:0|0:0,0:0:0:0:
396,308,95175,5,0,0:0:0:0:
462,352,95325,1,0,0:0:0:0:
456,121,95475,6,0,P|446:113|432:105,6,20.9999993591309,0|0|0|0|0|0|0,0:0|0:0|0:0|0:0|0:0|0:0|0:0,0:0:0:0:
385,58,95775,2,0,P|376:64|368:70,6,20.9999993591309,0|0|0|0|0|0|0,0:0|0:0|0:0|0:0|0:0|0:0|0:0,0:0:0:0:
512,38,96075,6,0,P|360:115|137:387,1,525.000020027161,0|0,0:0|0:0,0:0:0:0:
245,291,96975,6,0,P|208:247|180:223,1,70,0|0,0:0|0:0,0:0:0:0:
10,362,97575,6,0,B|28:357|28:357|73:321,1,70,0|0,0:0|0:0,0:0:0:0:
1,376,98175,1,0,0:0:0:0:
189,112,98475,6,0,P|189:154|120:194,1,112,0|0,0:0|0:0,0:0:0:0:
115,122,98925,2,0,L|177:95,1,56,0|0,0:0|0:0,0:0:0:0:
393,209,99375,5,0,0:0:0:0:
368,135,99525,2,0,B|316:113|316:113|311:113|311:113|256:87,1,112,0|0,0:0|0:0,0:0:0:0:
405,126,99975,5,0,0:0:0:0:
482,101,100125,1,0,0:0:0:0:
512,320,100425,5,0,0:0:0:0:
435,295,100575,1,0,0:0:0:0:
142,276,100875,6,0,B|126:248|82:235|-16:285|27:389|217:431|437:244|329:110|168:96|183:235,1,525.000020027161,0|0,0:0|0:0,0:0:0:0:
243,320,101775,6,0,P|278:335|316:333,1,70,0|0,0:0|0:0,0:0:0:0:
398,43,102375,6,0,B|346:66|346:66|328:99,1,70,0|0,0:0|0:0,0:0:0:0:
416,28,102975,1,0,0:0:0:0:
175,188,103275,6,0,P|115:177|66:123,1,112,0|0,0:0|0:0,0:0:0:0:
154,114,103725,2,0,L|197:167,1,56,0|0,0:0|0:0,0:0:0:0:
44,367,104175,5,0,0:0:0:0:
105,318,104325,2,0,B|149:298|149:298|171:297|171:297|228:271,1,112,0|0,0:0|0:0,0:0:0:0:
450,225,104775,5,0,0:0:0:0:
414,337,104925,1,0,0:0:0:0:
432,201,105075,6,0,P|426:189|416:178,6,20.9999993591309,2|0|2|0|2|0|2,0:3|0:0|0:3|0:0|0:3|0:0|0:3,0:0:0:0:
366,129,105375,2,0,P|372:117|382:106,6,20.9999993591309,2|2|2|2|2|2|2,0:3|0:3|0:3|0:3|0:3|0:3|0:3,0:0:0:0:
466,103,105675,6,0,P|418:127|371:165,1,105.000004005432,2|2,3:2|0:0,0:0:0:0:
456,362,105975,2,0,P|499:335|501:279,1,105.000004005432,2|8,0:0|0:0,0:0:0:0:
326,215,106275,2,0,B|215:194|268:261|158:289,1,157.500006008148,0|0,3:0|0:0,0:0:0:0:
184,271,106575,2,0,P|161:207|185:164,1,105.000004005432,8|0,0:0|0:0,0:0:0:0:
267,23,106875,5,0,3:0:0:0:
384,89,107025,1,2,0:0:0:0:
210,149,107175,1,2,0:0:0:0:
393,62,107325,1,8,0:0:0:0:
320,239,107475,6,0,P|267:263|209:292,1,105.000004005432,0|0,3:0|0:0,0:0:0:0:
10,368,107775,2,0,P|30:355|30:339,6,26.2500010013581,10|2|2|2|2|2|2,0:0|0:0|0:0|0:0|0:0|0:0|0:0,0:0:0:0:
8,287,108075,6,0,P|21:233|42:162,1,105.000004005432,0|2,3:0|0:0,0:0:0:0:
213,364,108375,2,0,P|198:313|186:262,1,105.000004005432,2|8,0:0|0:0,0:0:0:0:
296,131,108675,2,0,P|343:128|398:232,1,157.500006008148,0|0,3:0|0:0,0:0:0:0:
395,217,108975,2,0,P|344:197|342:146,1,105.000004005432,8|0,0:0|0:0,0:0:0:0:
500,21,109275,2,0,P|490:73|483:128,1,105.000004005432,0|0,3:0|0:0,0:0:0:0:
457,372,109575,5,10,0:3:0:0:
474,352,109650,1,2,0:0:0:0:
466,326,109725,1,8,0:0:0:0:
287,278,109875,1,0,3:0:0:0:
478,202,110025,1,8,0:3:0:0:
248,361,110175,2,0,P|231:355|209:341,6,26.2500010013581,8|2|2|2|2|2|2,0:0|0:0|0:0|0:0|0:0|0:0|0:0,0:0:0:0:
188,283,110475,6,0,P|202:233|207:164,1,105.000004005432,0|2,3:0|0:0,0:0:0:0:
2,57,110775,2,0,P|26:116|86:114,1,105.000004005432,2|8,0:0|0:0,0:0:0:0:
242,22,111075,2,0,B|343:6|304:75|391:87,1,157.500006008148,0|0,3:0|0:0,0:0:0:0:
383,75,111375,2,0,P|365:23|316:20,1,105.000004005432,8|0,0:0|0:0,0:0:0:0:
228,152,111675,5,0,3:0:0:0:
441,217,111825,1,2,0:0:0:0:
244,327,111975,1,2,0:0:0:0:
388,161,112125,1,8,0:0:0:0:
205,68,112275,6,0,P|163:93|140:148,1,105.000004005432,0|0,3:0|0:0,0:0:0:0:
262,342,112575,2,0,P|261:324|253:309,6,26.2500010013581,8|2|2|2|2|2|2,0:0|0:0|0:0|0:0|0:0|0:0|0:0,0:0:0:0:
203,262,112875,6,0,P|154:283|86:304,1,105.000004005432,0|2,3:0|0:0,0:0:0:0:
272,158,113175,2,0,P|321:174|369:195,1,105.000004005432,2|8,0:0|0:0,0:0:0:0:
113,165,113475,2,0,P|63:132|54:36,1,157.500006008148,0|0,3:0|0:0,0:0:0:0:
61,36,113775,2,0,P|100:80|84:136,1,105.000004005432,8|0,0:0|0:0,0:0:0:0:
0,328,114075,2,0,P|6:274|36:227,1,105.000004005432,0|0,3:0|0:0,0:0:0:0:
264,379,114375,5,10,0:3:0:0:
239,370,114450,1,2,0:0:0:0:
227,346,114525,1,8,0:0:0:0:
355,224,114675,1,2,3:3:0:0:
381,227,114750,1,2,0:3:0:0:
407,230,114825,2,0,L|490:242,1,52.5000020027161,10|2,0:3|0:3,0:0:0:0:
333,336,114975,2,0,P|331:320|329:309,6,26.2500010013581,8|2|2|2|2|2|2,0:0|0:0|0:0|0:0|0:0|0:0|0:0,0:0:0:0:
268,257,115275,6,0,P|285:203|297:124,1,105.000004005432,0|2,3:0|0:0,0:0:0:0:
434,12,115575,2,0,P|443:63|459:113,1,105.000004005432,2|8,0:0|0:0,0:0:0:0:
259,78,115875,2,0,B|155:51|194:115|102:139,1,157.500006008148,0|0,3:0|0:0,0:0:0:0:
112,129,116175,2,0,P|135:67|177:61,1,105.000004005432,8|0,0:0|0:0,0:0:0:0:
266,276,116475,5,0,3:0:0:0:
76,334,116625,1,2,0:0:0:0:
268,208,116775,1,2,0:0:0:0:
99,138,116925,1,8,0:0:0:0:
279,307,117075,6,0,P|333:316|399:327,1,105.000004005432,0|0,3:0|0:0,0:0:0:0:
507,163,117375,2,0,P|487:167|478:181,6,26.2500010013581,8|2|2|2|2|2|2,0:0|0:0|0:0|0:0|0:0|0:0|0:0,0:0:0:0:
421,137,117675,6,0,P|428:90|446:23,1,105.000004005432,0|2,3:0|0:0,0:0:0:0:
224,233,117975,2,0,P|231:284|245:335,1,105.000004005432,2|8,0:0|0:0,0:0:0:0:
455,253,118275,2,0,P|444:182|345:163,1,157.500006008148,0|0,3:0|0:0,0:0:0:0:
363,160,118575,2,0,P|391:216|434:219,1,105.000004005432,8|0,0:0|0:0,0:0:0:0:
450,17,118875,2,0,L|331:42,1,105.000004005432,0|0,3:0|0:0,0:0:0:0:
84,18,119175,5,10,0:3:0:0:
106,30,119250,1,2,0:0:0:0:
120,51,119325,1,8,0:0:0:0:
195,252,119475,1,0,3:0:0:0:
39,93,119625,1,8,0:3:0:0:
11,346,119775,2,0,P|26:331|29:314,6,26.2500010013581,8|2|2|2|2|2|2,0:0|0:0|0:0|0:0|0:0|0:0|0:0,0:0:0:0:
18,245,120075,6,0,B|108:208|90:281|199:278,1,157.500006008148,0|0,3:0|0:0,0:0:0:0:
174,272,120375,2,0,P|131:221|91:222,1,105.000004005432,2|8,0:0|0:0,0:0:0:0:
222,383,120675,2,0,P|272:369|336:354,1,105.000004005432,0|0,3:0|0:0,0:0:0:0:
474,119,120975,1,8,0:0:0:0:
328,238,121125,1,0,0:0:0:0:
491,363,121275,2,0,P|477:310|465:235,1,105.000004005432,0|2,3:0|0:0,0:0:0:0:
307,27,121575,5,2,0:0:0:0:
409,207,121725,1,8,0:0:0:0:
210,172,121875,2,0,P|258:145|314:120,1,105.000004005432,0|0,3:0|0:0,0:0:0:0:
496,23,122175,2,0,P|481:28|471:37,6,26.2500010013581,8|2|2|2|2|2|2,0:0|0:0|0:0|0:0|0:0|0:0|0:0,0:0:0:0:
488,105,122475,5,8,0:3:0:0:
274,238,122925,5,8,0:0:0:0:
44,342,123375,5,8,0:0:0:0:
274,238,123975,6,0,P|300:223|336:203,1,70,8|8,0:3|0:0,0:0:0:0:
153,373,124275,2,0,P|138:368|133:358,6,17.5,2|0|2|0|10|0|2,0:3|0:0|0:3|0:0|0:3|0:0|0:3,0:0:0:0:
189,313,124575,2,0,P|196:307|204:307,6,17.5,10|2|2|2|2|2|2,0:3|0:3|0:3|0:3|0:3|0:3|0:3,0:0:0:0:
273,367,124875,6,0,P|182:346|95:159,1,314.999990386963,0|0,0:0|0:0,0:0:0:0:
154,108,127275,2,0,B|336:61|269:205|434:212,1,314.999990386963,0|0,0:0|0:0,0:0:0:0:
497,57,129675,6,0,P|346:102|239:219,1,314.999990386963,0|0,0:0|0:0,0:0:0:0:
256,290,132075,2,0,B|309:308|309:308|315:314|315:314|362:329,1,104.999996795654,0|0,0:0|0:0,0:0:0:0:
429,264,132975,2,0,B|359:286|359:286|346:297|346:297|269:323,1,167.999994873047,0|0,0:0|0:0,0:0:0:0:
135,176,134475,6,0,B|95:145|149:85|110:48|24:69|8:215|134:189|161:243|141:286,1,314.999990386963,0|0,0:0|0:0,0:0:0:0:
30,304,136875,6,0,P|111:261|322:183,1,314.999990386963,0|0,0:0|0:0,0:0:0:0:
469,363,139275,6,0,B|280:123|230:353|32:213,1,490,0|0,0:0|0:0,0:0:0:0:
104,51,141675,6,0,P|191:43|290:22,1,168,0|0,0:0|0:0,0:0:0:0:
212,115,142275,6,0,P|109:93|5:84,1,210,0|0,0:0|0:0,0:0:0:0:
18,246,142875,6,0,P|117:161|261:137,1,251.999992309571,0|0,0:0|0:0,0:0:0:0:
304,213,143475,6,0,B|360:248|409:362|302:330|213:226|272:104,1,315.000012016297,0|0,0:0|0:0,0:0:0:0:
325,87,143775,5,2,0:3:0:0:
350,91,143850,1,2,0:3:0:0:
376,95,143925,1,2,0:3:0:0:
402,99,144000,1,2,0:3:0:0:
428,103,144075,6,0,P|466:144|455:217,1,105.000004005432,2|2,3:2|0:0,0:0:0:0:
259,278,144375,2,0,P|309:221|353:200,1,105.000004005432,2|8,0:0|0:0,0:0:0:0:
501,365,144675,2,0,B|411:362|451:300|328:313,1,157.500006008148,0|0,3:0|0:0,0:0:0:0:
351,319,144975,2,0,L|458:300,1,105.000004005432,8|0,0:0|0:0,0:0:0:0:
269,371,145275,5,0,3:0:0:0:
60,278,145425,1,2,0:0:0:0:
244,191,145575,1,2,0:0:0:0:
53,309,145725,1,8,0:0:0:0:
305,249,145875,6,0,P|332:197|307:139,1,105.000004005432,0|0,3:0|0:0,0:0:0:0:
158,31,146175,2,0,P|160:45|168:57,6,26.2500010013581,10|2|2|2|2|2|2,0:0|0:0|0:0|0:0|0:0|0:0|0:0,0:0:0:0:
234,88,146475,6,0,P|285:76|359:51,1,105.000004005432,0|2,3:0|0:0,0:0:0:0:
492,226,146775,2,0,P|441:210|390:198,1,105.000004005432,2|8,0:0|0:0,0:0:0:0:
223,377,147075,2,0,P|296:349|295:277,1,157.500006008148,0|0,3:0|0:0,0:0:0:0:
286,274,147375,2,0,P|243:311|257:351,1,105.000004005432,8|0,0:0|0:0,0:0:0:0:
496,358,147675,6,0,L|354:309,1,105.000004005432,0|0,3:0|0:0,0:0:0:0:
145,218,147975,1,10,0:3:0:0:
162,237,148050,1,2,0:0:0:0:
186,246,148125,2,0,P|226:236|241:194,1,52.5000020027161,8|0,0:0|0:0,0:0:0:0:
178,134,148275,6,0,P|132:145|88:155,1,70,0|0,0:0|0:0,0:0:0:0:
390,0,148875,6,0,P|441:10|509:24,1,105.000004005432,0|2,3:0|0:0,0:0:0:0:
327,196,149175,2,0,P|378:185|429:175,1,105.000004005432,2|8,0:0|0:0,0:0:0:0:
300,42,149475,2,0,B|197:35|251:83|145:114,1,157.500006008148,0|0,3:0|0:0,0:0:0:0:
159,98,149775,2,0,P|190:44|229:51,1,105.000004005432,8|0,0:0|0:0,0:0:0:0:
312,225,150075,2,0,P|298:282|293:333,1,105.000004005432,0|2,3:0|0:0,0:0:0:0:
11,185,150375,5,2,0:0:0:0:
229,253,150525,1,8,0:0:0:0:
14,364,150675,1,0,3:0:0:0:
193,189,150825,1,0,0:0:0:0:
0,82,150975,2,0,P|3:99|11:117,6,26.2500010013581,8|2|2|2|2|2|2,0:0|0:0|0:0|0:0|0:0|0:0|0:0,0:0:0:0:
55,14,151275,6,0,P|108:29|176:47,1,105.000004005432,0|2,3:0|0:0,0:0:0:0:
300,223,151575,2,0,P|249:236|198:251,1,105.000004005432,2|8,0:0|0:0,0:0:0:0:
272,17,151875,2,0,P|341:26|389:109,1,157.500006008148,0|0,3:0|0:0,0:0:0:0:
384,104,152175,2,0,P|329:93|320:40,1,105.000004005432,8|0,0:0|0:0,0:0:0:0:
496,0,152475,2,0,P|473:62|462:116,1,105.000004005432,0|0,3:0|0:0,0:0:0:0:
452,348,152775,5,10,0:3:0:0:
474,334,152850,1,2,0:0:0:0:
481,308,152925,1,8,0:0:0:0:
316,220,153075,1,2,3:3:0:0:
325,255,153150,1,2,0:3:0:0:
333,290,153225,2,0,L|346:350,1,52.5000020027161,10|2,0:3|0:3,0:0:0:0:
448,212,153375,2,0,P|441:198|424:187,6,26.2500010013581,8|2|2|2|2|2|2,0:0|0:0|0:0|0:0|0:0|0:0|0:0,0:0:0:0:
365,161,153675,6,0,P|314:181|237:198,1,105.000004005432,0|2,3:0|0:0,0:0:0:0:
92,313,153975,2,0,P|142:326|191:345,1,105.000004005432,2|8,0:0|0:0,0:0:0:0:
272,113,154275,2,0,B|169:103|200:159|87:162,1,157.500006008148,0|0,3:0|0:0,0:0:0:0:
117,150,154575,2,0,P|148:107|204:98,1,105.000004005432,8|0,0:0|0:0,0:0:0:0:
301,268,154875,2,0,P|289:323|282:383,1,105.000004005432,0|2,3:0|0:0,0:0:0:0:
503,182,155175,5,2,0:0:0:0:
297,111,155325,1,8,0:0:0:0:
503,55,155475,1,0,3:0:0:0:
288,180,155625,1,0,0:0:0:0:
484,281,155775,2,0,P|496:275|521:272,6,26.2500010013581,8|2|2|2|2|2|2,0:0|0:0|0:0|0:0|0:0|0:0|0:0,0:0:0:0:
445,348,156075,6,0,P|396:328|314:308,1,105.000004005432,0|2,3:0|0:0,0:0:0:0:
181,215,156375,2,0,P|229:195|280:180,1,105.000004005432,2|8,0:0|0:0,0:0:0:0:
197,378,156675,2,0,P|119:373|71:303,1,157.500006008148,0|0,3:0|0:0,0:0:0:0:
79,305,156975,2,0,P|136:308|156:357,1,105.000004005432,8|0,0:0|0:0,0:0:0:0:
0,228,157275,2,0,P|7:179|48:116,1,105.000004005432,0|0,3:0|0:0,0:0:0:0:
250,89,157575,5,10,0:3:0:0:
232,108,157650,1,2,0:0:0:0:
206,112,157725,1,8,0:0:0:0:
66,36,157875,1,0,3:0:0:0:
335,112,158025,1,8,0:3:0:0:
144,187,158175,6,0,P|144:170|155:140,6,26.2500010013581,8|2|2|2|2|2|2,0:0|0:0|0:0|0:0|0:0|0:0|0:0,0:0:0:0:
205,234,158475,2,0,P|259:247|309:270,1,105.000004005432,0|2,3:0|0:0,0:0:0:0:
133,90,158775,2,0,P|187:76|237:54,1,105.000004005432,2|8,0:0|0:0,0:0:0:0:
35,275,159075,2,0,B|128:285|92:328|191:362,1,157.500006008148,0|0,3:0|0:0,0:0:0:0:
173,344,159375,2,0,P|135:281|98:286,1,105.000004005432,8|0,0:0|0:0,0:0:0:0:
286,375,159675,6,0,P|336:355|406:343,1,105.000004005432,0|2,3:0|0:0,0:0:0:0:
509,219,159975,1,2,0:0:0:0:
275,115,160125,1,8,0:0:0:0:
482,302,160275,2,0,P|432:282|362:270,1,105.000004005432,0|0,3:0|0:0,0:0:0:0:
141,83,160575,6,0,L|151:39,6,26.2500010013581,8|2|2|2|2|2|2,0:0|0:0|0:0|0:0|0:0|0:0|0:0,0:0:0:0:
92,149,160875,6,0,P|102:201|116:268,1,97.9999970092774,8|2,0:3|0:0,0:0:0:0:
506,0,161325,6,0,P|496:52|482:119,1,97.9999970092774,8|2,0:3|0:0,0:0:0:0:
0,36,161775,6,0,P|10:88|24:155,1,97.9999970092774,8|0,0:3|0:0,0:0:0:0:
132,269,162075,2,0,B|212:247|188:299|279:303,1,125.999996154785,2|0,0:0|0:0,0:0:0:0:
253,292,162375,2,0,L|247:237,1,41.9999987182618,8|0,0:0|0:0,0:0:0:0:
9,323,162675,6,0,P|21:342|35:345,6,26.2500010013581,2|0|2|0|2|0|2,0:3|0:0|0:3|0:0|0:3|0:0|0:3,0:0:0:0:
93,362,162975,2,0,P|98:352|105:350,7,17.5,2|2|2|2|2|2|2|2,0:3|0:3|0:3|0:3|0:3|0:3|0:3|0:3,0:0:0:0:
