osu file format v14

[General]
AudioFilename: audio.mp3
AudioLeadIn: 0
PreviewTime: 141487
Countdown: 0
SampleSet: Soft
StackLeniency: 0
Mode: 0
LetterboxInBreaks: 0
WidescreenStoryboard: 1

[Editor]
Bookmarks: 24075,48075
DistanceSpacing: 0.1
BeatDivisor: 8
GridSize: 32
TimelineZoom: 2.2

[Metadata]
Title:BIBI Vengeance
TitleUnicode:나쁜년
Artist:BIBI
ArtistUnicode:비비
Creator:-GN Fan
Version:hs
Source:
Tags:lowlife princess: noir kpop korean pop k-pop the need 김형서 Gim Hyeong-seo Nakedbibi Feel Ghood Music
BeatmapID:4536863
BeatmapSetID:2153168

[Difficulty]
HPDrainRate:0
CircleSize:2
OverallDifficulty:0
ApproachRate:0
SliderMultiplier:1.4
SliderTickRate:1

[Events]
//Background and Video events
0,0,"bibi.png",0,0
//Break Periods
2,9800,46275
2,67475,103275
2,125037,141975
//Storyboard Layer 0 (Background)
//Storyboard Layer 1 (Fail)
//Storyboard Layer 2 (Pass)
//Storyboard Layer 3 (Foreground)
//Storyboard Layer 4 (Overlay)
//Storyboard Sound Samples

[TimingPoints]
75,300,4,2,1,80,1,0
9675,-100,4,2,1,60,0,0
57075,-66.6666666666667,4,2,2,80,0,0
57375,-66.6666666666667,4,2,1,80,0,0
66675,-100,4,2,2,80,0,0
67275,-66.6666666666667,4,2,1,60,0,0
105075,-100,4,2,2,70,0,0
105675,-66.6666666666667,4,2,1,80,0,0
114675,-100,4,2,2,80,0,0
114975,-100,4,2,1,80,0,0
124275,-100,4,2,2,80,0,0
124875,-100,4,2,1,80,0,0
143775,-100,4,2,2,70,0,0
144075,-66.6666666666667,4,2,1,80,0,0
153075,-66.6666666666667,4,2,2,80,0,0
153375,-66.6666666666667,4,2,1,80,0,0
162675,-66.6666666666667,4,2,2,80,0,0
162975,-66.6666666666667,4,2,1,80,0,0

[Colours]
Combo1 : 65,65,65
Combo2 : 83,255,173
Combo3 : 196,0,0
Combo4 : 0,0,130

[HitObjects]
19,365,9375,5,2,0:3:0:0:
88,342,9450,5,2,0:3:0:0:
25,359,9525,5,2,0:3:0:0:
74,367,9600,5,2,0:3:0:0:
256,192,48075,5,0,3:0:0:0:
33,73,48525,5,8,0:0:0:0:
279,220,48675,5,0,3:0:0:0:
28,82,48975,5,8,0:0:0:0:
248,232,49275,5,0,3:0:0:0:
61,39,49725,5,8,0:0:0:0:
266,240,49875,5,0,3:0:0:0:
41,56,50175,5,8,0:0:0:0:
276,207,50475,5,0,3:0:0:0:
24,84,50925,5,8,0:0:0:0:
281,232,51075,5,0,3:0:0:0:
46,54,51375,5,8,0:0:0:0:
278,265,51675,5,0,3:0:0:0:
81,39,51975,5,8,0:3:0:0:
41,101,52125,5,8,0:0:0:0:
303,242,52275,5,0,3:0:0:0:
81,39,52425,5,8,0:3:0:0:
66,123,52575,5,8,0:0:0:0:
285,246,52875,5,0,3:0:0:0:
62,78,53325,5,8,0:0:0:0:
286,260,53475,5,0,3:0:0:0:
72,39,53775,5,8,0:0:0:0:
277,282,54075,5,0,3:0:0:0:
54,93,54525,5,8,0:0:0:0:
295,248,54675,5,0,3:0:0:0:
86,62,54975,5,8,0:0:0:0:
302,196,55275,5,0,3:0:0:0:
21,104,55725,5,8,0:0:0:0:
308,163,55875,5,0,3:0:0:0:
60,92,56175,5,8,0:0:0:0:
288,223,56475,5,0,3:0:0:0:
55,35,56775,5,8,0:3:0:0:
41,101,56925,5,8,0:0:0:0:
303,242,57075,5,2,3:3:0:0:
4,380,57150,5,2,0:3:0:0:
81,39,57225,5,10,0:3:0:0:
68,364,57300,5,2,0:3:0:0:
21,126,57375,5,8,0:0:0:0:
9,358,57412,5,2,0:0:0:0:
65,380,57450,5,2,0:0:0:0:
71,335,57487,5,2,0:0:0:0:
15,368,57525,5,2,0:0:0:0:
6,323,57562,5,2,0:0:0:0:
34,360,57600,5,2,0:0:0:0:
45,318,57637,5,2,0:0:0:0:
313,202,57675,5,0,3:0:0:0:
116,78,58125,5,8,0:0:0:0:
299,249,58275,5,0,3:0:0:0:
51,88,58575,5,8,0:0:0:0:
312,187,58875,5,0,3:0:0:0:
16,133,59325,5,8,0:0:0:0:
288,264,59475,5,0,3:0:0:0:
72,33,59775,5,8,0:0:0:0:
306,262,60075,5,0,3:0:0:0:
43,83,60525,5,8,0:0:0:0:
317,198,60675,5,0,3:0:0:0:
11,134,60975,5,8,0:0:0:0:
319,187,61275,5,0,3:0:0:0:
90,33,61575,5,8,0:3:0:0:
6,79,61725,5,8,0:0:0:0:
303,242,61875,5,0,3:0:0:0:
68,53,62025,5,8,0:3:0:0:
58,143,62175,5,8,0:0:0:0:
337,211,62475,5,0,3:0:0:0:
67,87,62925,5,8,0:0:0:0:
344,213,63075,5,0,3:0:0:0:
16,104,63375,5,8,0:0:0:0:
298,232,63675,5,0,3:0:0:0:
43,42,64125,5,8,0:0:0:0:
276,254,64275,5,0,3:0:0:0:
21,85,64575,5,8,0:0:0:0:
16,351,66675,5,2,0:3:0:0:
112,304,66750,5,2,0:3:0:0:
26,269,66825,5,2,0:3:0:0:
76,333,66900,5,2,0:3:0:0:
188,354,66975,5,2,0:3:0:0:
168,332,67012,5,2,0:3:0:0:
117,316,67050,5,2,0:3:0:0:
64,350,67087,5,2,0:3:0:0:
116,324,67125,5,2,0:3:0:0:
85,304,67162,5,2,0:3:0:0:
54,263,67200,5,2,0:3:0:0:
69,216,67237,5,2,0:3:0:0:
249,179,67275,5,0,3:0:0:0:
6,339,105075,5,2,0:3:0:0:
118,375,105150,5,2,0:3:0:0:
29,328,105225,5,2,0:3:0:0:
63,383,105300,5,2,0:3:0:0:
94,292,105375,5,2,0:3:0:0:
26,288,105412,5,2,0:3:0:0:
6,365,105450,5,2,0:3:0:0:
130,379,105487,5,2,0:3:0:0:
130,314,105525,5,2,0:3:0:0:
62,284,105562,5,2,0:3:0:0:
39,376,105600,5,2,0:3:0:0:
136,340,105637,5,2,0:3:0:0:
256,192,105675,5,2,3:2:0:0:
11,373,105825,5,2,0:0:0:0:
101,368,105975,5,2,0:0:0:0:
33,73,106125,5,8,0:0:0:0:
279,220,106275,5,0,3:0:0:0:
28,82,106575,5,8,0:0:0:0:
248,232,106875,5,0,3:0:0:0:
7,340,107025,5,2,0:0:0:0:
101,375,107175,5,2,0:0:0:0:
61,39,107325,5,8,0:0:0:0:
266,240,107475,5,0,3:0:0:0:
41,56,107775,5,10,0:0:0:0:
6,349,107812,5,2,0:0:0:0:
111,357,107850,5,2,0:0:0:0:
76,281,107887,5,2,0:0:0:0:
0,247,107925,5,2,0:0:0:0:
6,321,107962,5,2,0:0:0:0:
72,311,108000,5,2,0:0:0:0:
101,375,108037,5,2,0:0:0:0:
276,207,108075,5,0,3:0:0:0:
61,358,108225,5,2,0:0:0:0:
10,277,108375,5,2,0:0:0:0:
24,84,108525,5,8,0:0:0:0:
281,232,108675,5,0,3:0:0:0:
46,54,108975,5,8,0:0:0:0:
278,265,109275,5,0,3:0:0:0:
81,39,109575,5,10,0:3:0:0:
14,353,109650,5,2,0:0:0:0:
41,101,109725,5,8,0:0:0:0:
303,242,109875,5,0,3:0:0:0:
81,39,110025,5,8,0:3:0:0:
66,123,110175,5,8,0:0:0:0:
29,346,110212,5,2,0:0:0:0:
47,326,110250,5,2,0:0:0:0:
34,294,110287,5,2,0:0:0:0:
54,323,110325,5,2,0:0:0:0:
8,343,110362,5,2,0:0:0:0:
62,360,110400,5,2,0:0:0:0:
140,371,110437,5,2,0:0:0:0:
285,246,110475,5,0,3:0:0:0:
11,296,110625,5,2,0:0:0:0:
81,375,110775,5,2,0:0:0:0:
62,78,110925,5,8,0:0:0:0:
286,260,111075,5,0,3:0:0:0:
72,39,111375,5,8,0:0:0:0:
277,282,111675,5,0,3:0:0:0:
27,373,111825,5,2,0:0:0:0:
138,380,111975,5,2,0:0:0:0:
54,93,112125,5,8,0:0:0:0:
295,248,112275,5,0,3:0:0:0:
86,62,112575,5,8,0:0:0:0:
6,293,112612,5,2,0:0:0:0:
63,379,112650,5,2,0:0:0:0:
88,321,112687,5,2,0:0:0:0:
1,322,112725,5,2,0:0:0:0:
175,300,112762,5,2,0:0:0:0:
122,369,112800,5,2,0:0:0:0:
57,339,112837,5,2,0:0:0:0:
302,196,112875,5,0,3:0:0:0:
10,374,113025,5,2,0:0:0:0:
72,277,113175,5,2,0:0:0:0:
21,104,113325,5,8,0:0:0:0:
308,163,113475,5,0,3:0:0:0:
60,92,113775,5,8,0:0:0:0:
288,223,114075,5,0,3:0:0:0:
55,35,114375,5,10,0:3:0:0:
52,351,114450,5,2,0:0:0:0:
41,101,114525,5,8,0:0:0:0:
303,242,114675,5,2,3:3:0:0:
81,356,114750,5,2,0:3:0:0:
81,39,114825,5,10,0:3:0:0:
31,322,114900,5,2,0:3:0:0:
21,126,114975,5,8,0:0:0:0:
30,362,115012,5,2,0:0:0:0:
113,325,115050,5,2,0:0:0:0:
36,307,115087,5,2,0:0:0:0:
116,358,115125,5,2,0:0:0:0:
58,293,115162,5,2,0:0:0:0:
123,278,115200,5,2,0:0:0:0:
2,325,115237,5,2,0:0:0:0:
313,202,115275,5,0,3:0:0:0:
136,366,115425,5,2,0:0:0:0:
35,257,115575,5,2,0:0:0:0:
116,78,115725,5,8,0:0:0:0:
299,249,115875,5,0,3:0:0:0:
51,88,116175,5,8,0:0:0:0:
312,187,116475,5,0,3:0:0:0:
17,362,116625,5,2,0:0:0:0:
84,358,116775,5,2,0:0:0:0:
16,133,116925,5,8,0:0:0:0:
288,264,117075,5,0,3:0:0:0:
72,33,117375,5,8,0:0:0:0:
4,366,117412,5,2,0:0:0:0:
89,343,117450,5,2,0:0:0:0:
21,281,117487,5,2,0:0:0:0:
66,366,117525,5,2,0:0:0:0:
104,297,117562,5,2,0:0:0:0:
29,334,117600,5,2,0:0:0:0:
2,276,117637,5,2,0:0:0:0:
306,262,117675,5,0,3:0:0:0:
42,338,117825,5,2,0:0:0:0:
26,346,117975,5,2,0:0:0:0:
43,83,118125,5,8,0:0:0:0:
317,198,118275,5,0,3:0:0:0:
11,134,118575,5,8,0:0:0:0:
319,187,118875,5,0,3:0:0:0:
90,33,119175,5,10,0:3:0:0:
44,361,119250,5,2,0:0:0:0:
6,79,119325,5,8,0:0:0:0:
303,242,119475,5,0,3:0:0:0:
68,53,119625,5,8,0:3:0:0:
58,143,119775,5,8,0:0:0:0:
0,324,119812,5,2,0:0:0:0:
98,365,119850,5,2,0:0:0:0:
162,315,119887,5,2,0:0:0:0:
63,299,119925,5,2,0:0:0:0:
5,361,119962,5,2,0:0:0:0:
77,287,120000,5,2,0:0:0:0:
5,258,120037,5,2,0:0:0:0:
337,211,120075,5,0,3:0:0:0:
128,355,120225,5,2,0:0:0:0:
15,286,120375,5,2,0:0:0:0:
67,87,120525,5,8,0:0:0:0:
344,213,120675,5,0,3:0:0:0:
16,104,120975,5,8,0:0:0:0:
298,232,121275,5,0,3:0:0:0:
22,315,121425,5,2,0:0:0:0:
170,373,121575,5,2,0:0:0:0:
43,42,121725,5,8,0:0:0:0:
276,254,121875,5,0,3:0:0:0:
21,85,122175,5,8,0:0:0:0:
38,381,122212,5,2,0:0:0:0:
121,339,122250,5,2,0:0:0:0:
27,370,122287,5,2,0:0:0:0:
107,315,122325,5,2,0:0:0:0:
11,332,122362,5,2,0:0:0:0:
96,367,122400,5,2,0:0:0:0:
36,307,122437,5,2,0:0:0:0:
54,53,122475,5,8,0:3:0:0:
30,107,122925,5,8,0:0:0:0:
18,41,123375,5,8,0:0:0:0:
64,110,123975,5,8,0:3:0:0:
16,32,124125,5,8,0:0:0:0:
10,359,124275,5,2,0:3:0:0:
108,365,124350,5,2,0:3:0:0:
39,301,124425,5,10,0:3:0:0:
59,382,124500,5,2,0:3:0:0:
19,364,124575,5,10,0:3:0:0:
109,327,124612,5,2,0:3:0:0:
68,368,124650,5,2,0:3:0:0:
11,321,124687,5,2,0:3:0:0:
102,303,124725,5,2,0:3:0:0:
3,270,124762,5,2,0:3:0:0:
99,348,124800,5,2,0:3:0:0:
49,276,124837,5,2,0:3:0:0:
22,357,143775,5,2,0:3:0:0:
165,284,143850,5,2,0:3:0:0:
24,378,143925,5,2,0:3:0:0:
82,243,144000,5,2,0:3:0:0:
256,192,144075,5,2,3:2:0:0:
11,373,144225,5,2,0:0:0:0:
101,368,144375,5,2,0:0:0:0:
33,73,144525,5,8,0:0:0:0:
279,220,144675,5,0,3:0:0:0:
28,82,144975,5,8,0:0:0:0:
248,232,145275,5,0,3:0:0:0:
7,340,145425,5,2,0:0:0:0:
101,375,145575,5,2,0:0:0:0:
61,39,145725,5,8,0:0:0:0:
266,240,145875,5,0,3:0:0:0:
41,56,146175,5,10,0:0:0:0:
6,349,146212,5,2,0:0:0:0:
111,357,146250,5,2,0:0:0:0:
76,281,146287,5,2,0:0:0:0:
0,247,146325,5,2,0:0:0:0:
6,321,146362,5,2,0:0:0:0:
72,311,146400,5,2,0:0:0:0:
101,375,146437,5,2,0:0:0:0:
276,207,146475,5,0,3:0:0:0:
61,358,146625,5,2,0:0:0:0:
10,277,146775,5,2,0:0:0:0:
24,84,146925,5,8,0:0:0:0:
281,232,147075,5,0,3:0:0:0:
46,54,147375,5,8,0:0:0:0:
278,265,147675,5,0,3:0:0:0:
81,39,147975,5,10,0:3:0:0:
14,353,148050,5,2,0:0:0:0:
41,101,148125,5,8,0:0:0:0:
285,246,148875,5,0,3:0:0:0:
11,296,149025,5,2,0:0:0:0:
81,375,149175,5,2,0:0:0:0:
62,78,149325,5,8,0:0:0:0:
286,260,149475,5,0,3:0:0:0:
72,39,149775,5,8,0:0:0:0:
277,282,150075,5,0,3:0:0:0:
27,373,150225,5,2,0:0:0:0:
138,380,150375,5,2,0:0:0:0:
54,93,150525,5,8,0:0:0:0:
295,248,150675,5,0,3:0:0:0:
86,62,150975,5,8,0:0:0:0:
6,293,151012,5,2,0:0:0:0:
63,379,151050,5,2,0:0:0:0:
88,321,151087,5,2,0:0:0:0:
1,322,151125,5,2,0:0:0:0:
175,300,151162,5,2,0:0:0:0:
122,369,151200,5,2,0:0:0:0:
57,339,151237,5,2,0:0:0:0:
302,196,151275,5,0,3:0:0:0:
10,374,151425,5,2,0:0:0:0:
72,277,151575,5,2,0:0:0:0:
21,104,151725,5,8,0:0:0:0:
308,163,151875,5,0,3:0:0:0:
60,92,152175,5,8,0:0:0:0:
288,223,152475,5,0,3:0:0:0:
55,35,152775,5,10,0:3:0:0:
52,351,152850,5,2,0:0:0:0:
41,101,152925,5,8,0:0:0:0:
303,242,153075,5,2,3:3:0:0:
81,356,153150,5,2,0:3:0:0:
81,39,153225,5,10,0:3:0:0:
31,322,153300,5,2,0:3:0:0:
21,126,153375,5,8,0:0:0:0:
30,362,153412,5,2,0:0:0:0:
113,325,153450,5,2,0:0:0:0:
36,307,153487,5,2,0:0:0:0:
116,358,153525,5,2,0:0:0:0:
58,293,153562,5,2,0:0:0:0:
123,278,153600,5,2,0:0:0:0:
2,325,153637,5,2,0:0:0:0:
313,202,153675,5,0,3:0:0:0:
136,366,153825,5,2,0:0:0:0:
35,257,153975,5,2,0:0:0:0:
116,78,154125,5,8,0:0:0:0:
299,249,154275,5,0,3:0:0:0:
51,88,154575,5,8,0:0:0:0:
312,187,154875,5,0,3:0:0:0:
17,362,155025,5,2,0:0:0:0:
84,358,155175,5,2,0:0:0:0:
16,133,155325,5,8,0:0:0:0:
288,264,155475,5,0,3:0:0:0:
72,33,155775,5,8,0:0:0:0:
4,366,155812,5,2,0:0:0:0:
89,343,155850,5,2,0:0:0:0:
21,281,155887,5,2,0:0:0:0:
66,366,155925,5,2,0:0:0:0:
104,297,155962,5,2,0:0:0:0:
29,334,156000,5,2,0:0:0:0:
2,276,156037,5,2,0:0:0:0:
306,262,156075,5,0,3:0:0:0:
42,338,156225,5,2,0:0:0:0:
26,346,156375,5,2,0:0:0:0:
43,83,156525,5,8,0:0:0:0:
317,198,156675,5,0,3:0:0:0:
11,134,156975,5,8,0:0:0:0:
319,187,157275,5,0,3:0:0:0:
90,33,157575,5,10,0:3:0:0:
44,361,157650,5,2,0:0:0:0:
6,79,157725,5,8,0:0:0:0:
303,242,157875,5,0,3:0:0:0:
68,53,158025,5,8,0:3:0:0:
58,143,158175,5,8,0:0:0:0:
0,324,158212,5,2,0:0:0:0:
98,365,158250,5,2,0:0:0:0:
162,315,158287,5,2,0:0:0:0:
63,299,158325,5,2,0:0:0:0:
5,361,158362,5,2,0:0:0:0:
77,287,158400,5,2,0:0:0:0:
5,258,158437,5,2,0:0:0:0:
337,211,158475,5,0,3:0:0:0:
128,355,158625,5,2,0:0:0:0:
15,286,158775,5,2,0:0:0:0:
67,87,158925,5,8,0:0:0:0:
344,213,159075,5,0,3:0:0:0:
16,104,159375,5,8,0:0:0:0:
298,232,159675,5,0,3:0:0:0:
22,315,159825,5,2,0:0:0:0:
170,373,159975,5,2,0:0:0:0:
43,42,160125,5,8,0:0:0:0:
276,254,160275,5,0,3:0:0:0:
21,85,160575,5,8,0:0:0:0:
38,381,160612,5,2,0:0:0:0:
121,339,160650,5,2,0:0:0:0:
27,370,160687,5,2,0:0:0:0:
107,315,160725,5,2,0:0:0:0:
11,332,160762,5,2,0:0:0:0:
96,367,160800,5,2,0:0:0:0:
36,307,160837,5,2,0:0:0:0:
54,53,160875,5,8,0:3:0:0:
86,357,161025,5,2,0:0:0:0:
34,92,161325,5,8,0:3:0:0:
42,357,161475,5,2,0:0:0:0:
7,15,161775,5,8,0:3:0:0:
127,320,162075,5,2,0:0:0:0:
88,44,162375,5,8,0:0:0:0:
21,343,162675,5,2,0:3:0:0:
202,323,162750,5,2,0:3:0:0:
33,349,162825,5,2,0:3:0:0:
195,303,162900,5,2,0:3:0:0:
35,317,162975,5,2,0:3:0:0:
98,361,163012,5,2,0:3:0:0:
182,346,163050,5,2,0:3:0:0:
174,298,163087,5,2,0:3:0:0:
86,293,163125,5,2,0:3:0:0:
95,353,163162,5,2,0:3:0:0:
157,343,163200,5,2,0:3:0:0:
110,270,163237,5,2,0:3:0:0:
