osu file format v14

[General]
AudioFilename: audio.mp3
AudioLeadIn: 0
PreviewTime: 280113
Countdown: 0
SampleSet: Soft
StackLeniency: 0.7
Mode: 0
LetterboxInBreaks: 0
WidescreenStoryboard: 0

[Editor]
Bookmarks: 9973,18109,27415,34688,41961,49233,53097,56506,56961,57529,58324,72870,81961,85597,92870,96506,103779,107415,108324,114688,116506,125597,132870,140143,147415,149233,160143,163779,171052,177643,178324,184688,185597,192870,200143,200824,201052,207415,220141,228323,236505,241961,243777,251050,252074,258323,265596,272868,274232,277870,279688,280141,287414,294687,296052,301959,309232,311733,329232
DistanceSpacing: 2.1
BeatDivisor: 4
GridSize: 8
TimelineZoom: 2.4

[Metadata]
Title:Best Of Impossible Remix 2020
TitleUnicode:Best Of Impossible Remix 2020
Artist:BGH Music
ArtistUnicode:BGH Music
Creator:Zerephiehell
Version:Melodic Heaven
Source:
Tags:BobGmbH various artists mix classic piano instrumental synthesia classical
BeatmapID:3213049
BeatmapSetID:1573638

[Difficulty]
HPDrainRate:5
CircleSize:5.5
OverallDifficulty:7.2
ApproachRate:8.4
SliderMultiplier:1.6
SliderTickRate:1

[Events]
//Background and Video events
0,0,"90432290_p0 (scaled).jpg",0,0
//Break Periods
//Storyboard Layer 0 (Background)
//Storyboard Layer 1 (Fail)
//Storyboard Layer 2 (Pass)
//Storyboard Layer 3 (Foreground)
//Storyboard Layer 4 (Overlay)
//Storyboard Sound Samples

[TimingPoints]
1841,508.474576271186,4,2,1,65,1,0
1841,-200,4,2,1,65,0,0
5907,-200,4,2,1,65,0,0
8450,-200,4,2,1,5,0,0
9975,-200,4,2,1,65,0,0
10738,-133.333333333333,4,2,1,65,0,0
12899,-133.333333333333,4,2,1,5,0,0
13026,-200,4,2,1,65,0,0
14424,-200,4,2,1,5,0,0
14551,-166.666666666667,4,2,1,65,0,0
15568,-166.666666666667,4,2,1,5,0,0
15823,-250,4,2,1,65,0,0
17602,-250,4,2,1,5,0,0
17856,-133.333333333333,4,2,1,65,0,0
18238,-133.333333333333,4,2,1,5,0,0
18365,-133.333333333333,4,2,1,65,0,0
18746,-133.333333333333,4,2,1,5,0,0
18873,-133.333333333333,4,2,1,65,0,0
19255,-133.333333333333,4,2,1,5,0,0
19382,-133.333333333333,4,2,1,65,0,0
19763,-133.333333333333,4,2,1,5,0,0
19890,-133.333333333333,4,2,1,65,0,0
20146,454.545454545455,4,2,1,65,1,0
20146,-200,4,2,1,65,0,0
21281,-200,4,2,1,5,0,0
21508,-200,4,2,1,65,0,0
21735,-250,4,2,1,65,0,0
23099,-250,4,2,1,5,0,0
23326,-250,4,2,1,65,0,0
25599,-250,4,2,1,5,0,0
27417,-166.666666666667,4,2,1,80,0,0
31963,-133.333333333333,4,2,1,80,0,0
33213,-133.333333333333,4,2,1,5,0,0
33326,-133.333333333333,4,2,1,80,0,0
34576,-133.333333333333,4,2,1,5,0,0
34690,-166.666666666667,4,2,1,80,0,0
36395,-166.666666666667,4,2,1,5,0,0
36508,-166.666666666667,4,2,1,80,0,0
37758,-166.666666666667,4,2,1,5,0,0
37872,-166.666666666667,4,2,1,80,0,0
39008,-133.333333333333,4,2,1,80,0,0
74690,-200,4,2,1,80,0,0
77076,-200,4,2,1,5,0,0
77417,-133.333333333333,4,2,1,80,0,0
78326,-200,4,2,1,80,0,0
79993,-200,4,2,1,5,0,0
80145,-200,4,2,1,80,0,0
81357,-200,4,2,1,5,0,0
81508,-200,4,2,1,40,0,0
81963,-133.333333333333,4,2,1,80,0,0
82266,-133.333333333333,4,2,1,5,0,0
82417,-133.333333333333,4,2,1,80,0,0
85032,-133.333333333333,4,2,1,5,0,0
85145,-133.333333333333,4,2,1,80,0,0
85258,-133.333333333333,4,2,1,5,0,0
85372,-133.333333333333,4,2,1,80,0,0
85485,-133.333333333333,4,2,1,5,0,0
85599,-133.333333333333,4,2,1,80,0,0
89122,-133.333333333333,4,2,1,5,0,0
89235,-133.333333333333,4,2,1,80,0,0
91395,-133.333333333333,4,2,1,5,0,0
91508,-133.333333333333,4,2,1,80,0,0
92304,-133.333333333333,4,2,1,5,0,0
92417,-133.333333333333,4,2,1,80,0,0
95031,-133.333333333333,4,2,1,5,0,0
95145,-133.333333333333,4,2,1,80,0,0
95940,-133.333333333333,4,2,1,5,0,0
96054,-133.333333333333,4,2,1,80,0,0
114122,-133.333333333333,4,2,1,5,0,0
114235,-133.333333333333,4,2,1,80,0,0
114576,-133.333333333333,4,2,1,5,0,0
114690,-133.333333333333,4,2,1,80,0,0
117417,-111.111111111111,4,2,1,80,0,0
125940,-111.111111111111,4,2,1,5,0,0
126054,-111.111111111111,4,2,1,80,0,0
126849,-111.111111111111,4,2,1,5,0,0
126963,-111.111111111111,4,2,1,80,0,0
127190,-111.111111111111,4,2,1,5,0,0
127304,-111.111111111111,4,2,1,80,0,0
128667,-111.111111111111,4,2,1,5,0,0
128781,-111.111111111111,4,2,1,80,0,0
140485,-111.111111111111,4,2,1,5,0,0
140599,-111.111111111111,4,2,1,80,0,0
149235,-133.333333333333,4,2,1,80,0,0
152305,-133.333333333333,4,2,1,5,0,0
152418,-133.333333333333,4,2,1,80,0,0
154123,-133.333333333333,4,2,1,5,0,0
154236,-133.333333333333,4,2,1,80,0,0
155941,-133.333333333333,4,2,1,5,0,0
156055,-133.333333333333,4,2,1,80,0,0
160486,-133.333333333333,4,2,1,5,0,0
160600,-133.333333333333,4,2,1,80,0,0
161850,-133.333333333333,4,2,1,5,0,0
161964,-133.333333333333,4,2,1,80,0,0
171054,-125,4,2,1,80,0,0
174122,-125,4,2,1,5,0,0
174235,-125,4,2,1,80,0,0
175031,-125,4,2,1,5,0,0
175145,-125,4,2,1,80,0,0
176849,-125,4,2,1,5,0,0
176961,-125,4,2,1,80,0,0
189462,-125,4,2,1,5,0,0
189690,-125,4,2,1,80,0,0
192190,-125,4,2,1,5,0,0
192417,-125,4,2,1,80,0,0
192901,-111.111111111111,4,2,1,80,0,0
195144,-111.111111111111,4,2,1,80,0,0
199690,-111.111111111111,4,2,1,65,0,0
200030,-111.111111111111,4,2,1,5,0,0
200144,-111.111111111111,4,2,1,65,0,0
201167,-111.111111111111,4,2,1,5,0,0
201280,-111.111111111111,4,2,1,65,0,0
208440,-111.111111111111,4,2,1,5,0,0
208553,-111.111111111111,4,2,1,65,0,0
209349,-111.111111111111,4,2,1,5,0,0
209462,-111.111111111111,4,2,1,65,0,0
210258,-111.111111111111,4,2,1,5,0,0
210371,-111.111111111111,4,2,1,65,0,0
212076,-111.111111111111,4,2,1,5,0,0
212190,-111.111111111111,4,2,1,65,0,0
212985,-111.111111111111,4,2,1,5,0,0
213099,-111.111111111111,4,2,1,65,0,0
213894,-111.111111111111,4,2,1,5,0,0
214008,-111.111111111111,4,2,1,65,0,0
223781,-111.111111111111,4,2,1,65,0,0
228212,-111.111111111111,4,2,1,5,0,0
228326,-111.111111111111,4,2,1,65,0,0
234917,-111.111111111111,4,2,1,65,0,0
242871,-222.222222222222,4,2,1,80,0,0
243326,-222.222222222222,4,2,1,5,0,0
243780,-100,4,2,1,80,0,0
245030,-100,4,2,1,5,0,0
245143,-100,4,2,1,80,0,0
248666,-100,4,2,1,5,0,0
248780,-100,4,2,1,80,0,0
258326,-111.111111111111,4,2,1,80,0,0
258667,-111.111111111111,4,2,1,5,0,0
258780,-111.111111111111,4,2,1,80,0,0
260485,-111.111111111111,4,2,1,5,0,0
260598,-111.111111111111,4,2,1,80,0,0
264122,-111.111111111111,4,2,1,5,0,0
264235,-111.111111111111,4,2,1,80,0,0
265939,-111.111111111111,4,2,1,5,0,0
266053,-111.111111111111,4,2,1,80,0,0
267758,-111.111111111111,4,2,1,5,0,0
267871,-111.111111111111,4,2,1,80,0,0
269576,-111.111111111111,4,2,1,5,0,0
269689,-111.111111111111,4,2,1,80,0,0
271394,-111.111111111111,4,2,1,5,0,0
271508,-111.111111111111,4,2,1,80,0,0
276508,-111.111111111111,4,2,1,80,0,0
281962,-111.111111111111,4,2,1,80,0,0
282984,-111.111111111111,4,2,1,5,0,0
283098,-111.111111111111,4,2,1,80,0,0
283666,-111.111111111111,4,2,1,5,0,0
283780,-111.111111111111,4,2,1,80,0,0
285070,-111.111111111111,4,2,1,5,0,0
285146,-111.111111111111,4,2,1,80,0,0
309234,-100,4,2,1,80,0,0
317872,-100,4,2,1,80,0,0
321961,-200,4,2,1,80,0,0
322415,-200,4,2,1,75,0,0
322870,-200,4,2,1,70,0,0
323324,-200,4,2,1,65,0,0
323779,-200,4,2,1,60,0,0
324233,-200,4,2,1,50,0,0
324688,-200,4,2,1,45,0,0
325143,-200,4,2,1,40,0,0
325597,-200,4,2,1,35,0,0
326052,-200,4,2,1,30,0,0
326506,-200,4,2,1,25,0,0
326961,-200,4,2,1,20,0,0
327415,-200,4,2,1,15,0,0
327870,-200,4,2,1,5,0,0

[Colours]
Combo1 : 191,218,188
Combo2 : 37,123,169
Combo3 : 139,160,248
Combo4 : 22,92,126

[HitObjects]
152,136,1841,5,2,2:0:0:0:
97,276,2095,1,2,2:0:0:0:
72,184,2349,1,0,2:0:0:0:
221,208,2603,5,0,2:0:0:0:
282,195,2857,1,0,3:0:0:0:
240,147,3112,1,0,2:0:0:0:
264,259,3366,1,2,2:0:0:0:
304,96,3620,6,0,P|360:72|392:80,1,80,2|0,2:3|2:0,0:0:0:0:
448,96,4383,1,0,3:0:0:0:
483,219,4637,2,0,P|427:243|395:235,1,80,2|0,2:0|2:0,0:0:0:0:
336,200,5400,5,0,3:0:0:0:
265,228,5654,1,2,2:0:0:0:
240,300,5908,2,0,P|98:261|240:159,1,400,6|0,2:0|2:0,0:0:0:0:
312,96,9976,5,6,2:0:0:0:
256,64,10230,1,0,2:0:0:0:
200,96,10485,1,0,2:0:0:0:
144,152,10739,2,0,P|96:120|40:152,1,120.000004577637,2|0,2:0|3:0,0:0:0:0:
0,208,11502,1,2,2:0:0:0:
16,272,11756,1,0,2:0:0:0:
64,360,12010,6,0,L|130:353,1,60.0000022888184,2|0,2:0|3:0,0:0:0:0:
222,299,12518,2,0,L|118:283,1,90.0000034332277,2|0,2:0|2:0,0:0:0:0:
80,240,13027,2,0,P|64:200|72:176,2,60,2|0|0,2:0|2:0|2:0,0:0:0:0:
152,120,14044,6,0,P|168:80|152:56,1,60,2|0,2:0|2:0,0:0:0:0:
152,48,14552,2,0,B|135:45|123:52|123:52|139:29|163:29|204:34|167:45|226:87|268:67,1,191.999994140625,2|0,2:0|2:0,0:0:0:0:
368,48,15824,2,0,P|371:62|372:77,1,16,2|0,2:0|3:0,0:0:0:0:
424,104,16078,6,0,B|443:155|410:205|387:193|369:244|393:290,1,192,2|0,2:0|2:0,0:0:0:0:
352,149,17857,5,0,3:0:0:0:
340,152,17985,2,0,P|307:137|268:131,1,60.0000022888184,2|0,2:0|2:0,0:0:0:0:
287,197,18366,5,0,3:0:0:0:
276,205,18494,2,0,P|239:208|203:222,1,60.0000022888184,2|0,2:0|2:0,0:0:0:0:
328,242,18874,5,0,3:0:0:0:
324,253,19002,2,0,P|294:274|270:304,1,60.0000022888184,2|0,2:0|2:0,0:0:0:0:
345,316,19383,5,0,3:0:0:0:
346,329,19511,2,0,P|330:362|324:400,1,60.0000022888184,2|0,2:0|2:0,0:0:0:0:
460,271,19891,1,2,2:0:0:0:
460,271,20018,1,0,3:0:0:0:
460,271,20146,6,0,P|440:299|458:255,1,200,2|0,2:0|2:0,0:0:0:0:
376,178,21509,1,0,3:0:0:0:
306,246,21736,2,0,P|291:241|278:239,1,16,2|0,2:0|3:0,0:0:0:0:
247,178,21964,6,0,B|206:178|177:222|177:222|131:199|95:219,1,160,2|0,2:0|2:0,0:0:0:0:
61,164,23327,1,0,3:0:0:0:
111,80,23554,2,0,P|106:65|104:52,1,16,2|0,2:0|3:0,0:0:0:0:
165,25,23782,6,0,B|215:8|249:35|268:66|268:66|284:93|312:121|357:121|389:103,1,256,2|0,2:0|2:0,0:0:0:0:
448,56,27418,5,4,2:0:0:0:
381,22,27646,1,0,3:0:0:0:
333,84,27873,1,0,2:0:0:0:
371,151,28100,1,0,3:0:0:0:
440,208,28327,2,0,L|496:216,1,47.9999985351563,2|0,0:0|2:0,0:0:0:0:
336,280,28782,2,0,L|384:274,1,47.9999985351563,2|0,2:3|2:0,0:0:0:0:
456,320,29236,6,0,P|448:343|448:376,2,47.9999985351563,2|0|0,2:0|2:0|2:0,0:0:0:0:
328,376,29918,1,0,3:0:0:0:
272,344,30146,2,0,P|264:304|240:240,1,95.9999970703126,2|0,2:0|2:0,0:0:0:0:
272,192,30827,1,0,2:0:0:0:
392,128,31055,5,2,2:0:0:0:
336,272,31282,1,0,2:0:0:0:
400,248,31509,1,2,2:0:0:0:
312,128,31736,1,0,2:0:0:0:
446,191,31964,2,0,P|464:159|448:118,1,60.0000022888184,2|0,2:0|2:0,0:0:0:0:
457,121,32305,1,0,3:0:0:0:
457,121,32418,2,0,B|485:105|485:105|535:123,1,60.0000022888184,2|0,2:0|2:0,0:0:0:0:
385,77,32873,6,0,P|345:69|345:13,1,90.0000034332277,2|0,2:0|2:0,0:0:0:0:
339,8,33327,1,0,2:0:0:0:
274,21,33555,1,2,2:0:0:0:
206,109,33782,1,0,2:0:0:0:
270,125,34009,1,0,2:0:0:0:
344,224,34236,2,0,L|248:256,1,90.0000034332277,2|0,2:0|2:0,0:0:0:0:
242,259,34691,6,0,L|234:323,1,47.9999985351563,2|0,2:0|2:0,0:0:0:0:
148,352,35146,2,0,L|143:304,1,47.9999985351563,0|0,2:0|2:0,3:0:0:0:
69,349,35600,1,2,2:0:0:0:
40,361,35827,1,0,2:0:0:0:
0,312,36055,2,0,P|7:273|8:224,1,71.9999978027344,2|0,2:0|2:0,0:0:0:0:
11,224,36509,6,0,L|59:216,1,47.9999985351563,2|0,2:0|0:0,0:0:0:0:
131,152,36964,2,0,L|84:146,1,47.9999985351563,0|2,2:0|2:0,0:0:0:0:
144,328,37418,2,0,P|184:312|224:312,1,71.9999978027344,2|0,2:0|2:0,0:0:0:0:
229,308,37873,1,2,2:0:0:0:
285,340,38100,1,0,2:0:0:0:
416,304,38327,6,0,L|424:240,1,47.9999985351563,2|0,2:3|2:0,0:0:0:0:
464,344,38782,1,0,2:0:0:0:
480,200,39009,5,2,2:0:0:0:
392,184,39236,1,2,2:0:0:0:
400,192,39464,1,0,2:0:0:0:
495,234,39691,1,2,2:0:0:0:
480,168,39918,1,0,2:0:0:0:
320,216,40146,2,0,P|304:183|320:136,2,60.0000022888184,2|0|0,2:3|2:0|2:0,3:0:0:0:
224,272,40827,5,2,2:0:0:0:
312,296,41054,1,2,2:0:0:0:
304,288,41282,1,0,2:0:0:0:
216,240,41509,1,2,2:0:0:0:
232,304,41736,1,0,2:0:0:0:
80,296,41964,5,2,2:3:0:0:
110,349,42191,1,0,2:0:0:0:
81,236,42418,1,0,2:0:0:0:
71,299,42646,1,0,2:0:0:0:
33,194,42873,5,2,2:0:0:0:
148,161,43100,1,0,2:0:0:0:
134,167,43327,1,2,2:0:0:0:
127,154,43554,1,0,2:0:0:0:
244,70,43782,5,2,2:3:0:0:
276,174,44009,1,0,2:0:0:0:
322,76,44236,1,0,2:0:0:0:
260,166,44464,1,0,2:0:0:0:
364,142,44691,5,2,2:0:0:0:
253,158,44918,1,0,2:0:0:0:
258,149,45145,1,2,2:0:0:0:
268,154,45373,1,0,2:0:0:0:
416,256,45600,5,2,2:3:0:0:
392,320,45827,1,0,2:0:0:0:
424,264,46054,1,0,2:0:0:0:
328,344,46282,1,0,2:0:0:0:
400,324,46509,5,2,2:0:0:0:
263,307,46736,1,0,2:0:0:0:
250,304,46963,1,2,2:0:0:0:
242,311,47191,1,0,2:0:0:0:
296,248,47418,6,0,L|304:176,1,60.0000022888184,2|0,2:3|2:0,0:0:0:0:
232,240,47873,2,0,L|240:168,1,60.0000022888184,2|0,2:0|2:0,0:0:0:0:
88,232,48327,6,0,L|94:291,1,60.0000022888184,2|0,2:0|2:0,0:0:0:0:
24,240,48782,2,0,L|30:299,1,60.0000022888184,2|0,0:0|2:0,0:0:0:0:
8,134,49236,5,2,2:0:0:0:
72,158,49464,1,0,2:0:0:0:
7,125,49691,1,0,2:0:0:0:
12,115,49918,1,0,2:0:0:0:
70,68,50146,1,2,2:3:0:0:
136,102,50373,1,0,2:0:0:0:
176,39,50600,2,0,P|211:34|245:52,1,60.0000022888184,2|0,2:0|2:0,0:0:0:0:
322,104,51055,5,2,2:0:0:0:
330,165,51282,1,0,0:0:0:0:
328,96,51509,1,0,2:0:0:0:
376,45,51736,1,0,2:0:0:0:
388,39,51964,1,2,2:3:0:0:
401,42,52191,1,0,2:0:0:0:
469,35,52418,2,0,P|485:75|477:99,1,60.0000022888184,2|0,2:0|2:0,0:0:0:0:
400,160,52873,5,2,2:0:0:0:
472,208,53100,1,0,2:0:0:0:
478,220,53328,1,0,2:0:0:0:
475,233,53555,1,0,2:0:0:0:
416,328,53782,6,0,P|449:311|480:320,1,60.0000022888184,2|0,2:3|2:0,0:0:0:0:
352,368,54236,2,0,P|319:385|288:376,1,60.0000022888184,0|0,2:0|2:0,0:0:0:0:
224,344,54691,2,0,P|264:288|240:240,1,120.000004577637,2|0,2:0|0:0,0:0:0:0:
192,200,55373,5,0,2:0:0:0:
56,232,55600,1,2,3:0:0:0:
112,176,55827,1,0,2:0:0:0:
48,224,56055,1,0,2:0:0:0:
37,224,56282,1,0,2:0:0:0:
57,327,56509,6,0,P|50:314|40:304,3,30.0000011444092,4|0|0|0,2:0|2:0|2:0|2:0,2:0:0:0:
128,360,56964,2,0,P|130:345|129:331,3,30.0000011444092,0|0|0|0,2:0|2:0|2:0|2:0,2:0:0:0:
104,272,57418,1,0,3:0:0:0:
127,254,57531,1,0,3:0:0:0:
156,247,57645,1,0,3:0:0:0:
185,254,57758,1,0,3:0:0:0:
208,274,57873,6,0,P|239:242|197:255,1,120.000004577637,2|4,2:0|2:3,0:0:0:0:
288,280,59918,1,2,2:0:0:0:
192,256,60146,1,2,2:0:0:0:
178,246,61964,5,2,2:0:0:0:
32,88,65600,6,0,L|48:200,1,90.0000034332277,4|0,2:3|2:0,0:0:0:0:
32,192,66055,2,0,L|107:180,1,60.0000022888184,8|0,2:0|2:0,0:0:0:0:
128,128,66396,1,0,3:0:0:0:
200,224,66623,1,0,3:0:0:0:
203,215,66736,2,0,L|264:224,2,60.0000022888184,2|10|0,2:0|2:0|3:0,0:0:0:0:
336,152,67418,6,0,L|320:48,1,90.0000034332277,4|0,2:3|2:0,0:0:0:0:
336,48,67873,2,0,P|376:32|400:48,1,60.0000022888184,10|0,2:0|2:0,0:0:0:0:
400,32,68214,1,0,3:0:0:0:
488,72,68441,1,0,3:0:0:0:
494,64,68555,2,0,L|508:135,2,60.0000022888184,2|8|0,2:3|2:0|3:0,0:0:0:0:
400,120,69236,5,4,2:3:0:0:
248,56,69464,1,2,2:0:0:0:
104,120,69691,1,8,2:0:0:0:
152,56,69918,5,0,3:0:0:0:
160,49,70032,1,2,2:0:0:0:
132,190,70259,1,0,3:0:0:0:
140,198,70373,1,2,2:0:0:0:
254,258,70600,1,8,0:0:0:0:
368,192,70827,1,0,3:0:0:0:
368,192,71055,6,0,B|338:232|338:232|360:288,1,90.0000034332277,4|0,2:3|2:0,0:0:0:0:
432,320,71509,2,0,B|450:295|450:295|436:261,1,60.0000022888184,8|0,2:0|2:0,0:0:0:0:
432,252,71850,1,0,3:0:0:0:
352,344,72077,1,0,3:0:0:0:
358,354,72191,2,0,L|280:376,2,60.0000022888184,2|2|0,2:0|2:0|2:0,0:0:0:0:
371,287,72873,5,4,2:0:0:0:
126,278,73782,5,2,2:0:0:0:
126,196,73933,5,2,2:0:0:0:
72,142,74085,5,2,2:0:0:0:
72,142,74236,2,0,P|52:106|62:61,1,80.0000030517579,0|0,2:0|2:0,0:0:0:0:
120,96,74691,6,0,B|168:128|206:95|280:0|303:170|299:200|187:249|132:154|208:96|130:99|64:128|45:154|37:217|85:251|112:256,1,453.333333333333,2|0,2:0|2:0,0:0:0:0:
161,302,77418,5,2,2:0:0:0:
239,300,77569,5,2,2:0:0:0:
297,248,77721,5,2,2:0:0:0:
297,248,77872,2,0,P|333:228|378:238,1,80.0000030517579,0|0,2:0|2:0,0:0:0:0:
441,198,78327,5,6,2:0:0:0:
441,198,78630,2,0,P|377:182|385:310,1,240,2|0,2:0|2:0,0:0:0:0:
378,308,80146,6,0,B|337:286|306:292|274:332|258:380|202:356|178:340,1,213.333333333333,2|0,2:0|2:0,0:0:0:0:
184,343,81509,1,8,2:3:0:0:
120,304,81964,6,0,P|104:248|88:216,1,80.0000030517579,2|0,1:3|2:0,0:0:0:0:
112,160,82418,1,2,1:2:0:0:
197,108,82759,1,2,2:0:0:0:
207,105,82873,1,0,1:3:0:0:
217,102,82986,1,2,2:0:0:0:
248,120,83100,2,0,L|264:40,1,60.0000022888184,0|0,3:0|1:2,0:0:0:0:
344,41,83441,1,2,2:0:0:0:
354,44,83555,1,0,3:0:0:0:
364,47,83668,1,2,2:0:0:0:
384,65,83782,6,0,P|415:54|456:49,1,60.0000022888184,2|0,1:3|0:0,0:0:0:0:
399,141,84236,2,0,P|427:130|457:125,1,60.0000022888184,2|0,1:2|0:0,0:0:0:0:
352,216,84577,1,2,2:0:0:0:
347,227,84691,1,0,1:0:0:0:
342,239,84805,1,2,2:0:0:0:
362,269,84918,2,0,L|369:303,1,30.0000011444092,0|0,3:0|2:0,0:0:0:0:
280,208,85146,6,0,L|250:213,1,30.0000011444092,2|0,1:2|2:0,0:0:0:0:
193,274,85373,2,0,L|223:279,1,30.0000011444092,2|0,2:0|2:0,0:0:0:0:
144,224,85600,5,2,1:2:0:0:
112,328,85827,1,2,2:3:0:0:
156,219,86055,1,2,1:2:0:0:
166,215,86282,1,2,2:0:0:0:
64,288,86509,5,2,1:2:0:0:
3,204,86736,1,0,3:0:0:0:
57,122,86964,1,2,1:2:0:0:
150,146,87191,1,0,3:0:0:0:
200,88,87418,6,0,P|208:56|192:16,1,60.0000022888184,2|0,1:2|2:0,0:0:0:0:
96,64,87873,1,2,1:2:0:0:
108,69,88100,1,0,3:0:0:0:
59,141,88327,1,2,1:2:0:0:
46,147,88555,1,0,3:0:0:0:
40,33,88782,2,0,P|69:5|135:19,1,90.0000034332277,2|0,1:2|2:0,0:0:0:0:
179,58,89236,5,2,3:2:0:0:
152,128,89464,1,0,3:0:0:0:
198,187,89691,1,2,3:2:0:0:
212,180,89918,1,0,3:0:0:0:
155,288,90145,5,2,1:2:0:0:
300,248,90372,1,0,3:0:0:0:
292,240,90600,1,2,1:2:0:0:
247,354,90827,1,0,2:0:0:0:
355,321,91055,6,0,P|387:305|459:313,1,90.0000034332277,2|0,1:2|2:0,0:0:0:0:
455,310,91509,1,2,1:2:0:0:
456,214,91736,1,0,3:0:0:0:
467,218,91964,2,0,P|462:168|446:131,1,90.0000034332277,2|0,1:2|2:0,0:0:0:0:
439,118,92418,1,2,1:2:0:0:
462,47,92646,1,2,2:0:0:0:
304,168,92873,5,2,1:2:0:0:
239,134,93100,2,0,P|224:136|209:140,1,30.0000011444092,2|0,3:0|2:0,0:0:0:0:
274,77,93327,2,0,P|247:70|205:68,1,60.0000022888184,2|2,1:2|2:3,3:0:0:0:
160,32,93668,1,0,2:0:0:0:
160,32,93782,2,0,P|133:39|91:41,1,60.0000022888184,2|2,1:3|2:3,3:0:0:0:
28,67,94123,1,0,2:0:0:0:
28,67,94236,2,0,P|21:92|19:117,1,30.0000011444092,2|0,1:2|3:0,0:0:0:0:
0,161,94464,2,0,P|3:176|7:191,1,30.0000011444092,2|0,3:0|2:0,0:0:0:0:
60,233,94691,6,0,P|73:287|76:345,1,90.0000034332277,2|0,1:2|3:0,3:0:0:0:
78,338,95146,1,2,1:2:0:0:
193,205,95373,1,0,3:0:0:0:
193,205,95486,2,0,P|180:259|178:337,1,120.000004577637,2|0,2:3|3:0,3:0:0:0:
179,340,96055,1,2,1:2:0:0:
268,302,96282,1,0,3:0:0:0:
456,336,96509,5,2,1:3:0:0:
495,224,96736,1,0,3:0:0:0:
445,272,96964,1,2,1:2:0:0:
384,242,97191,1,0,3:0:0:0:
318,104,97418,5,2,1:2:0:0:
190,178,97646,1,0,3:0:0:0:
248,156,97873,1,0,1:2:0:0:
296,192,98100,1,0,3:0:0:0:
385,170,98327,6,0,P|392:141|399:112,1,60.0000022888184,2|0,1:2|3:0,0:0:0:0:
433,58,98782,2,0,P|427:29|420:0,1,60.0000022888184,2|0,1:2|3:0,0:0:0:0:
504,120,99236,2,0,P|497:149|490:178,1,60.0000022888184,2|0,1:2|3:0,0:0:0:0:
456,232,99691,2,0,P|462:261|469:290,1,60.0000022888184,2|0,1:2|3:0,0:0:0:0:
256,208,100146,5,2,1:3:0:0:
288,264,100373,1,0,3:0:0:0:
250,318,100600,1,0,1:0:0:0:
256,327,100827,1,0,3:0:0:0:
328,360,101055,2,0,P|357:354|386:347,1,60.0000022888184,2|0,1:2|3:0,0:0:0:0:
336,208,101509,1,2,1:2:0:0:
264,176,101736,1,0,3:0:0:0:
184,256,101964,6,0,P|155:250|126:243,1,60.0000022888184,2|0,1:2|3:0,0:0:0:0:
64,192,102418,2,0,P|25:204|-14:216,1,60.0000022888184,2|0,1:2|3:0,0:0:0:0:
120,148,102873,6,0,P|126:119|133:90,1,60.0000022888184,2|0,1:2|3:0,0:0:0:0:
215,116,103327,2,0,P|221:145|228:174,1,60.0000022888184,2|0,1:2|3:0,0:0:0:0:
224,48,103782,5,2,1:2:0:0:
145,72,104009,2,0,L|137:33,1,40.000001525879,2|0,2:3|3:0,0:0:0:0:
142,128,104236,2,0,L|154:89,1,40.000001525879,2|0,1:2|3:0,0:0:0:0:
164,184,104464,1,0,2:0:0:0:
312,80,104691,5,2,1:2:0:0:
366,124,104918,2,0,L|375:85,1,40.000001525879,2|0,2:3|3:0,0:0:0:0:
369,184,105145,2,0,L|357:145,1,40.000001525879,2|0,1:2|3:0,0:0:0:0:
349,240,105373,1,0,2:0:0:0:
248,288,105600,5,2,1:2:0:0:
240,360,105827,2,0,L|270:352,1,30.0000011444092,2|0,2:3|2:0,0:0:0:0:
152,320,106055,2,0,L|182:328,1,30.0000011444092,2|0,1:2|2:0,0:0:0:0:
64,351,106282,2,0,L|94:344,1,30.0000011444092,0|0,3:0|2:0,0:0:0:0:
32,232,106509,5,2,1:2:0:0:
106,219,106736,2,0,L|96:258,1,40.000001525879,2|0,2:3|3:0,0:0:0:0:
86,159,106963,2,0,L|95:197,1,40.000001525879,2|0,1:2|3:0,0:0:0:0:
167,162,107191,2,0,L|181:117,1,40.000001525879,0|0,2:0|3:0,0:0:0:0:
211,45,107418,6,0,P|267:21|323:53,1,120.000004577637,2|0,1:2|1:2,0:0:0:0:
288,192,108100,1,2,2:0:0:0:
288,192,108214,1,0,3:0:0:0:
288,192,108327,2,0,P|344:216|400:184,1,120.000004577637,2|0,1:2|1:0,0:0:0:0:
456,64,109009,5,2,2:0:0:0:
456,64,109123,1,0,3:0:0:0:
456,64,109236,2,0,L|464:112,1,30.0000011444092,2|0,1:2|2:0,0:0:0:0:
376,72,109464,2,0,L|380:42,1,30.0000011444092,2|0,2:3|2:0,0:0:0:0:
240,120,109691,2,0,L|269:116,1,30.0000011444092,2|0,1:2|2:0,0:0:0:0:
296,48,109918,2,0,L|265:44,1,30.0000011444092,0|0,3:0|2:0,0:0:0:0:
136,40,110146,6,0,B|128:64|128:64|144:160,1,120.000004577637,2|0,1:2|1:0,0:0:0:0:
160,288,110827,5,2,2:0:0:0:
160,288,110941,1,0,3:0:0:0:
160,288,111055,2,0,P|127:300|96:320,2,60.0000022888184,2|0|0,1:2|2:0|1:0,0:0:0:0:
208,184,111736,5,2,2:0:0:0:
208,184,111850,1,0,3:0:0:0:
208,184,111964,2,0,P|174:173|138:168,2,60.0000022888184,2|0|0,1:2|2:0|1:0,0:0:0:0:
376,184,112646,5,0,2:0:0:0:
376,184,112760,1,0,3:0:0:0:
376,184,112873,2,0,L|384:136,1,30.0000011444092,2|0,1:2|2:0,0:0:0:0:
280,224,113101,2,0,L|285:253,1,30.0000011444092,2|0,2:3|2:0,0:0:0:0:
296,128,113327,2,0,L|291:98,1,30.0000011444092,2|0,1:2|2:0,0:0:0:0:
200,160,113555,2,0,L|195:189,1,30.0000011444092,0|0,3:0|2:0,0:0:0:0:
192,48,113782,6,0,P|136:24|96:48,1,90.0000034332277,2|0,1:2|2:0,0:0:0:0:
95,43,114236,2,0,P|55:67|7:51,1,90.0000034332277,2|0,1:2|2:0,0:0:0:0:
24,152,114691,5,2,1:2:0:0:
52,158,114805,1,0,2:0:0:0:
75,177,114918,1,0,2:0:0:0:
87,204,115031,1,0,3:0:0:0:
84,236,115146,2,0,P|63:281|60:284,3,30.0000011444092,2|0|0|0,1:2|2:0|0:0|3:0,0:0:0:0:
128,328,115600,5,2,1:2:0:0:
153,313,115713,1,0,2:0:0:0:
182,311,115827,1,0,2:0:0:0:
210,323,115940,1,0,3:0:0:0:
229,347,116055,2,0,P|245:393|245:398,3,30.0000011444092,2|0|0|0,1:2|2:0|0:0|3:0,0:0:0:0:
344,360,116509,5,10,2:0:0:0:
362,336,116622,1,0,2:0:0:0:
368,307,116736,1,0,2:0:0:0:
360,278,116849,1,0,3:0:0:0:
336,256,116964,1,10,0:0:0:0:
317,232,117077,1,0,2:0:0:0:
311,203,117191,1,0,2:0:0:0:
319,174,117304,1,0,3:0:0:0:
342,149,117418,6,0,L|399:137,1,35.9999989013672,10|0,2:2|2:0,0:0:0:0:
272,80,117646,2,0,L|307:87,1,35.9999989013672,10|0,2:0|2:0,0:0:0:0:
168,160,117873,6,0,L|161:125,1,35.9999989013672,10|0,2:0|2:0,0:0:0:0:
272,80,118100,2,0,L|279:44,1,35.9999989013672,10|0,2:0|2:0,0:0:0:0:
72,24,118327,5,6,1:2:0:0:
200,68,118555,1,0,2:0:0:0:
80,88,118782,1,10,2:2:0:0:
190,5,119009,1,2,2:0:0:0:
32,208,119236,6,0,P|64:192|112:184,1,71.9999978027344,0|0,1:2|2:0,0:0:0:0:
117,185,119577,1,0,3:0:0:0:
117,185,119691,1,10,2:0:0:0:
256,248,119918,1,0,2:0:0:0:
400,128,120146,5,2,1:2:0:0:
272,172,120374,1,0,2:0:0:0:
390,191,120601,1,10,2:0:0:0:
282,109,120828,1,0,2:0:0:0:
416,271,121055,6,0,P|447:254|482:246,2,71.9999978027344,2|0|10,1:2|3:0|2:0,0:0:0:0:
499,243,121736,1,0,3:0:0:0:
347,369,121964,5,2,1:2:0:0:
281,358,122192,1,0,3:0:0:0:
235,285,122418,1,10,2:0:0:0:
322,269,122646,1,0,2:0:0:0:
149,184,122873,5,2,1:2:0:0:
267,215,123100,1,2,2:0:0:0:
167,333,123327,5,10,2:0:0:0:
161,339,123403,1,2,2:0:0:0:
168,342,123479,1,2,2:0:0:0:
174,338,123555,1,0,2:0:0:0:
32,312,123782,6,0,P|21:268|0:224,1,71.9999978027344,2|0,1:2|3:0,0:0:0:0:
77,123,124236,2,0,P|64:156|56:192,1,71.9999978027344,10|0,2:0|3:0,0:0:0:0:
100,242,124691,1,2,1:3:0:0:
110,248,124918,1,0,3:0:0:0:
230,208,125146,5,10,2:0:0:0:
334,304,125373,1,0,3:0:0:0:
258,384,125600,2,0,L|274:264,1,107.999996704102,2|0,1:3|2:0,0:0:0:0:
275,263,126055,5,10,2:0:0:0:
374,248,126282,1,0,3:0:0:0:
390,348,126509,2,0,P|438:364|486:332,1,107.999996704102,2|0,1:2|2:0,0:0:0:0:
492,320,126964,6,0,L|476:226,1,71.9999978027344,10|0,2:0|0:0,0:0:0:0:
480,232,127305,1,0,2:0:0:0:
480,232,127418,1,2,1:3:0:0:
305,157,127646,1,0,3:0:0:0:
432,176,127873,1,10,2:0:0:0:
347,278,128100,1,0,3:0:0:0:
200,272,128327,2,0,P|176:240|184:176,1,107.999996704102,2|0,1:2|2:0,0:0:0:0:
195,162,128782,5,10,2:2:0:0:
320,80,129009,1,0,2:0:0:0:
264,32,129236,2,0,L|168:24,1,71.9999978027344,2|0,1:2|3:0,0:0:0:0:
96,96,129691,2,0,L|192:88,1,71.9999978027344,10|0,2:0|3:0,0:0:0:0:
59,27,130146,5,2,1:3:0:0:
16,88,130373,1,0,3:0:0:0:
87,223,130600,1,10,2:0:0:0:
172,191,130827,1,0,3:0:0:0:
28,155,131055,5,2,1:3:0:0:
22,149,131131,1,2,2:0:0:0:
19,156,131207,1,2,2:0:0:0:
23,162,131283,1,2,2:0:0:0:
176,208,131509,1,8,2:0:0:0:
64,288,131736,1,0,3:0:0:0:
151,378,131964,6,0,P|191:366|223:362,1,71.9999978027344,2|0,1:2|3:0,0:0:0:0:
287,306,132418,2,0,P|247:294|215:290,1,71.9999978027344,10|0,2:0|3:0,0:0:0:0:
400,256,132873,6,0,P|424:214|416:181,1,71.9999978027344,6|0,2:0|3:0,0:0:0:0:
315,102,133327,2,0,P|338:143|370:153,1,71.9999978027344,10|0,2:0|3:0,0:0:0:0:
448,112,133782,5,2,1:2:0:0:
444,102,134009,1,0,3:0:0:0:
384,24,134236,1,10,2:2:0:0:
280,40,134464,1,0,3:0:0:0:
145,83,134691,6,0,P|180:90|216:96,1,71.9999978027344,2|0,1:2|3:0,0:0:0:0:
144,192,135146,2,0,P|114:196|56:208,1,71.9999978027344,10|0,2:0|3:0,0:0:0:0:
2,154,135600,5,2,1:2:0:0:
18,83,135827,1,0,3:0:0:0:
70,133,136055,1,10,0:2:0:0:
52,204,136282,1,0,3:0:0:0:
32,336,136509,6,0,P|54:361|104:360,1,71.9999978027344,2|0,1:2|3:0,0:0:0:0:
200,312,136964,2,0,P|177:286|128:288,1,71.9999978027344,10|0,2:0|3:0,0:0:0:0:
320,320,137418,5,2,1:2:0:0:
376,288,137646,1,0,3:0:0:0:
320,256,137873,1,10,0:0:0:0:
376,224,138100,1,0,3:0:0:0:
296,144,138327,6,0,P|260:137|225:132,1,71.9999978027344,2|0,1:2|3:0,0:0:0:0:
142,56,138782,1,10,2:0:0:0:
78,0,139009,1,0,3:0:0:0:
5,59,139236,2,0,L|16:148,1,71.9999978027344,2|0,1:2|3:0,0:0:0:0:
111,228,139691,5,10,2:2:0:0:
134,168,139918,1,2,0:0:0:0:
261,215,140146,2,0,P|302:203|376:209,1,107.999996704102,6|0,1:2|2:0,0:0:0:0:
380,210,140600,1,10,2:0:0:0:
311,124,140827,1,0,3:0:0:0:
261,215,141055,2,0,P|268:257|272:310,1,71.9999978027344,2|0,1:2|3:0,0:0:0:0:
155,367,141509,2,0,P|151:331|145:295,1,71.9999978027344,10|0,2:0|3:0,0:0:0:0:
24,240,141964,5,2,1:2:0:0:
105,221,142191,1,0,3:0:0:0:
5,160,142418,1,10,2:0:0:0:
24,240,142646,1,0,3:0:0:0:
72,104,142873,2,0,P|144:96|184:168,1,143.999995605469,2|10,1:2|2:0,0:0:0:0:
272,88,143555,5,0,3:0:0:0:
384,152,143782,2,0,P|348:153|313:146,1,71.9999978027344,2|0,1:2|3:0,0:0:0:0:
312,24,144236,2,0,P|359:16|387:19,1,71.9999978027344,10|0,2:0|3:0,0:0:0:0:
464,64,144691,1,2,1:2:0:0:
384,152,144918,1,0,3:0:0:0:
496,184,145146,1,10,2:0:0:0:
450,127,145373,1,0,3:0:0:0:
416,240,145600,6,0,P|412:275|408:328,1,71.9999978027344,6|0,1:2|3:0,0:0:0:0:
319,359,146055,2,0,P|316:323|312:288,1,71.9999978027344,10|0,2:0|3:0,0:0:0:0:
208,248,146509,2,0,P|204:283|200:336,2,71.9999978027344,2|0|10,1:2|3:0|2:0,0:0:0:0:
168,200,147191,1,0,3:0:0:0:
400,136,147418,5,6,1:2:0:0:
144,64,147873,1,2,2:0:0:0:
272,220,148327,1,2,2:0:0:0:
368,40,148782,1,2,2:0:0:0:
240,80,149236,6,0,P|200:72|176:72,1,60.0000022888184,6|0,1:2|3:0,0:0:0:0:
160,144,149691,2,0,P|120:136|96:136,1,60.0000022888184,0|0,1:0|3:0,0:0:0:0:
16,240,150146,6,0,P|56:232|80:232,1,60.0000022888184,2|0,1:3|3:0,0:0:0:0:
96,304,150601,2,0,P|136:296|160:296,1,60.0000022888184,0|0,1:0|3:0,0:0:0:0:
304,336,151055,6,0,P|312:296|312:272,1,60.0000022888184,2|0,1:3|3:0,3:0:0:0:
240,256,151510,2,0,P|248:216|248:192,1,60.0000022888184,0|0,1:0|3:0,3:0:0:0:
328,136,151964,2,0,P|376:112|416:152,1,90.0000034332277,2|0,1:3|2:0,0:0:0:0:
416,144,152418,2,0,L|408:72,1,60.0000022888184,0|0,1:0|3:0,0:0:0:0:
352,32,152873,5,2,1:3:0:0:
288,48,153100,1,0,3:0:0:0:
192,128,153327,6,0,P|232:136|256:136,1,60.0000022888184,0|0,1:0|3:0,0:0:0:0:
176,40,153782,2,0,P|128:16|88:56,1,90.0000034332277,2|0,1:3|2:0,0:0:0:0:
85,47,154236,2,0,L|93:119,1,60.0000022888184,0|0,1:0|3:0,0:0:0:0:
128,176,154691,5,2,1:3:0:0:
112,240,154918,1,0,3:0:0:0:
16,264,155146,6,0,P|8:224|8:200,1,60.0000022888184,0|0,1:0|0:3,0:0:0:0:
112,240,155600,2,0,L|208:264,1,90.0000034332277,2|0,1:3|2:0,0:0:0:0:
215,267,156055,5,0,1:0:0:0:
88,304,156282,1,0,3:0:0:0:
192,184,156509,2,0,L|272:168,1,60.0000022888184,2|0,1:3|3:0,0:0:0:0:
288,120,156964,1,0,1:0:0:0:
111,62,157191,5,2,3:2:0:0:
231,30,157418,1,0,1:3:0:0:
0,30,157646,5,2,3:2:0:0:
130,81,157873,1,0,1:0:0:0:
90,0,158100,1,2,3:2:0:0:
32,112,158327,6,0,P|24:152|24:176,1,60.0000022888184,2|0,1:3|3:0,0:0:0:0:
72,216,158782,1,0,1:0:0:0:
227,351,159009,5,2,3:2:0:0:
107,319,159236,1,0,1:3:0:0:
338,319,159464,5,2,3:2:0:0:
208,370,159691,1,0,1:0:0:0:
248,289,159918,1,2,3:2:0:0:
128,248,160146,6,0,P|104:208|128:152,1,90.0000034332277,2|0,1:2|2:0,0:0:0:0:
121,155,160600,2,0,L|193:147,1,60.0000022888184,0|0,1:3|2:0,0:0:0:0:
232,96,160941,1,0,3:0:0:0:
239,107,161055,2,0,L|311:115,1,60.0000022888184,2|0,1:2|3:0,0:0:0:0:
399,54,161509,2,0,P|423:94|399:150,1,90.0000034332277,2|0,1:3|2:0,0:0:0:0:
409,153,161964,6,0,L|337:161,1,60.0000022888184,2|0,1:2|2:0,0:0:0:0:
289,209,162305,1,0,3:0:0:0:
282,198,162418,2,0,L|210:190,1,60.0000022888184,2|0,1:3|2:0,0:0:0:0:
143,256,162759,1,0,3:0:0:0:
150,267,162873,2,0,L|222:275,1,60.0000022888184,2|0,1:2|3:0,0:0:0:0:
263,323,163327,1,2,1:2:0:0:
323,291,163555,1,0,3:0:0:0:
434,311,163782,6,0,P|468:314|514:327,1,60.0000022888184,6|0,1:2|2:0,0:0:0:0:
442,239,164123,1,0,3:0:0:0:
429,235,164236,2,0,P|425:201|413:155,1,60.0000022888184,2|0,1:3|3:0,0:0:0:0:
474,127,164691,1,2,1:2:0:0:
306,79,164918,1,0,3:0:0:0:
391,10,165146,1,2,1:3:0:0:
398,70,165373,1,0,3:0:0:0:
328,209,165600,5,2,1:2:0:0:
353,152,165827,1,0,3:2:0:0:
306,79,166055,2,0,P|276:73|247:70,1,60.0000022888184,2|0,1:3|2:0,0:0:0:0:
171,157,166509,2,0,P|201:151|230:148,1,60.0000022888184,2|0,1:2|0:0,0:0:0:0:
32,112,166964,1,2,1:3:0:0:
45,98,167191,1,2,3:2:0:0:
96,160,167418,6,0,P|105:188|112:216,1,60.0000022888184,2|0,1:3|3:0,0:0:0:0:
101,307,167873,2,0,P|128:295|157:287,1,60.0000022888184,2|0,1:3|3:0,0:0:0:0:
202,235,168327,1,2,1:2:0:0:
341,314,168554,1,0,2:0:0:0:
248,384,168782,1,2,1:3:0:0:
234,323,169009,1,0,2:0:0:0:
429,205,169236,5,2,1:3:0:0:
293,218,169464,1,0,3:0:0:0:
343,100,169691,1,2,1:3:0:0:
356,173,169918,1,0,3:0:0:0:
409,91,170146,6,0,P|419:63|431:36,1,60.0000022888184,2|0,1:3|3:0,0:0:0:0:
272,86,170600,1,2,1:2:0:0:
208,56,170827,1,0,3:0:0:0:
265,206,171055,5,6,1:2:0:0:
296,280,171282,1,0,3:0:0:0:
207,330,171509,1,2,1:2:0:0:
176,256,171736,1,0,3:0:0:0:
60,341,171964,5,2,1:3:0:0:
12,229,172191,1,0,3:0:0:0:
148,152,172418,1,2,1:2:0:0:
195,265,172645,1,0,3:0:0:0:
153,383,172873,6,0,L|240:368,1,64,2|0,1:3|3:0,0:0:0:0:
312,312,173327,2,8,L|239:297,1,64,2|0,1:2|3:0,2:0:0:0:
140,218,173782,2,0,L|259:203,1,96,2|0,1:3|2:0,0:0:0:0:
272,153,174236,1,0,1:2:0:0:
402,219,174464,1,0,3:0:0:0:
345,249,174691,6,0,P|337:201|369:161,1,96,2|0,1:2|2:0,0:0:0:0:
375,155,175146,1,2,1:2:0:0:
339,99,175373,1,0,3:0:0:0:
497,129,175600,1,2,1:2:0:0:
465,185,175827,1,0,3:0:0:0:
457,25,176055,1,2,1:2:0:0:
425,81,176283,1,0,3:0:0:0:
336,32,176509,6,0,P|283:20|232:32,1,96,2|0,1:2|2:0,0:0:0:0:
226,34,176964,1,2,1:2:0:0:
242,99,177191,1,0,3:0:0:0:
102,187,177418,1,2,1:2:0:0:
245,239,177646,5,2,3:2:0:0:
169,213,177873,1,2,1:2:0:0:
224,174,178100,1,2,3:2:0:0:
188,280,178327,5,6,1:2:0:0:
195,288,178555,1,2,3:2:0:0:
266,333,178782,2,0,B|314:308|314:308|396:327,1,128,10|0,2:0|1:0,0:0:0:0:
421,207,179464,5,2,3:2:0:0:
497,227,179691,1,10,2:0:0:0:
442,280,179918,1,2,3:2:0:0:
474,161,180146,5,2,1:3:0:0:
466,153,180373,1,0,3:0:0:0:
350,174,180600,2,0,B|328:128|328:128|342:42,1,128,10|0,2:0|1:0,0:0:0:0:
414,72,181282,5,2,3:2:0:0:
479,47,181509,1,10,2:0:0:0:
482,35,181736,1,2,3:2:0:0:
278,67,181964,5,0,1:3:0:0:
308,152,182191,1,2,3:3:0:0:
324,149,182418,1,10,2:0:0:0:
264,73,182645,1,2,3:2:0:0:
176,110,182873,1,2,1:3:0:0:
265,58,183100,1,2,3:2:0:0:
183,119,183327,1,10,2:0:0:0:
253,49,183554,1,2,3:2:0:0:
64,103,183782,5,2,1:3:0:0:
171,182,184009,1,0,3:0:0:0:
48,271,184236,2,0,L|36:209,1,64,10|0,2:0|3:0,0:0:0:0:
96,319,184691,2,0,L|84:381,1,64,2|0,1:3|3:0,0:0:0:0:
248,239,185145,5,8,2:0:0:0:
136,255,185373,1,0,3:0:0:0:
304,199,185600,6,0,P|311:168|323:138,1,64,2|0,1:2|3:0,0:0:0:0:
392,111,186054,1,10,2:0:0:0:
416,231,186282,2,0,P|446:239|476:251,2,64,2|0|0,3:2|1:0|3:0,0:0:0:0:
328,191,186963,1,10,2:0:0:0:
416,135,187191,1,0,3:0:0:0:
504,207,187418,6,0,L|496:279,1,64,2|0,1:2|3:0,0:0:0:0:
416,367,187873,2,0,L|408:303,1,64,10|0,2:0|3:0,0:0:0:0:
328,311,188327,2,0,L|248:327,1,64,0|0,1:2|3:0,0:0:0:0:
160,279,188782,1,10,2:0:0:0:
169,264,189009,1,0,3:0:0:0:
256,239,189236,6,0,P|280:191|256:143,1,96,2|0,1:2|2:0,0:0:0:0:
259,141,189691,1,10,2:0:0:0:
323,117,189918,1,0,3:0:0:0:
152,55,190145,5,2,1:2:0:0:
121,119,190373,1,0,3:0:0:0:
154,182,190600,1,10,2:0:0:0:
80,311,190827,1,0,3:0:0:0:
128,263,191054,6,0,L|216:271,1,64,2|0,1:2|3:0,0:0:0:0:
256,343,191509,2,0,L|176:351,1,64,10|0,2:0|3:0,0:0:0:0:
80,311,191964,2,0,P|56:263|80:215,1,96,2|0,1:2|2:0,0:0:0:0:
56,167,192418,1,10,2:0:0:0:
48,143,192646,1,8,0:0:0:0:
224,207,192873,5,4,1:2:0:0:
320,95,193327,2,0,B|341:113|341:113|480:135,2,143.999995605469,2|2|2,2:0|2:0|2:0,0:0:0:0:
96,119,194691,5,4,1:3:0:0:
88,111,195146,5,2,2:0:0:0:
234,68,195600,1,2,2:0:0:0:
314,200,196055,1,8,2:0:0:0:
80,295,196509,5,4,1:3:0:0:
143,239,196964,6,0,P|200:249|295:271,2,143.999995605469,2|2|2,2:0|2:0|2:0,2:0:0:0:
136,231,198327,2,0,L|168:391,2,143.999995605469,4|2|2,2:0|2:0|2:0,2:0:0:0:
224,191,199691,2,0,L|248:303,1,107.999996704102,10|0,2:0|2:0,2:0:0:0:
250,312,200146,5,6,1:2:0:0:
328,167,200373,1,2,3:0:0:0:
327,176,200486,1,0,3:0:0:0:
325,185,200600,2,0,L|415:204,1,71.9999978027344,10|0,2:0|3:0,0:0:0:0:
411,227,200941,1,0,3:0:0:0:
413,237,201055,5,2,1:2:0:0:
344,303,201282,1,2,3:2:0:0:
342,313,201396,2,0,L|334:361,1,35.9999989013672,2|8,0:2|2:0,0:0:0:0:
328,327,201623,2,0,L|310:252,1,71.9999978027344,2|0,2:0|3:0,0:0:0:0:
237,188,201964,6,0,L|245:132,3,35.9999989013672,2|0|0|0,1:2|3:0|3:0|3:0,0:0:0:0:
309,112,202418,1,10,2:0:0:0:
309,121,202532,1,2,2:3:0:0:
309,131,202646,1,0,3:0:0:0:
309,142,202759,1,2,3:2:0:0:
309,162,202873,6,0,L|357:178,1,35.9999989013672,2|0,1:3|2:0,0:0:0:0:
172,159,203100,2,0,L|124:175,1,35.9999989013672,2|0,2:0|2:0,0:0:0:0:
237,67,203327,1,10,2:0:0:0:
96,39,203555,1,0,3:0:0:0:
101,44,203668,2,0,L|117:132,1,71.9999978027344,2|0,2:0|2:0,0:0:0:0:
136,191,204009,6,0,L|128:239,1,35.9999989013672,6|0,3:2|2:0,0:0:0:0:
56,271,204236,2,0,L|8:287,3,35.9999989013672,10|0|0|0,2:0|3:0|3:0|3:0,0:0:0:0:
136,335,204691,2,0,L|88:319,3,35.9999989013672,2|0|0|0,1:3|3:0|3:0|3:0,0:0:0:0:
256,263,205146,5,10,2:0:0:0:
259,256,205259,1,2,3:0:0:0:
262,250,205373,1,2,2:0:0:0:
296,383,205600,5,2,1:3:0:0:
200,303,205827,1,2,3:2:0:0:
104,383,206055,1,10,2:0:0:0:
8,303,206282,1,2,3:2:0:0:
32,239,206509,5,2,1:3:0:0:
32,231,206623,2,0,P|28:206|24:192,2,35.9999989013672,2|0|0,3:2|3:0|3:0,0:0:0:0:
128,191,206964,1,10,0:2:0:0:
128,199,207077,2,0,P|132:224|136:238,2,35.9999989013672,2|0|0,3:2|3:0|3:0,0:0:0:0:
198,205,207418,5,6,1:2:0:0:
222,125,207646,1,0,3:0:0:0:
24,175,207873,1,10,0:0:0:0:
55,78,208100,2,0,P|103:54|159:86,1,107.999996704102,2|0,3:2|2:0,0:0:0:0:
163,87,208555,1,0,3:0:0:0:
179,15,208782,5,10,0:0:0:0:
344,143,209009,2,0,P|336:79|320:23,1,107.999996704102,2|0,3:2|2:0,0:0:0:0:
392,15,209464,1,0,3:0:0:0:
404,11,209691,1,10,0:0:0:0:
477,195,209918,2,0,P|429:179|381:211,1,107.999996704102,2|0,3:2|2:0,0:0:0:0:
374,226,210373,1,2,3:2:0:0:
338,359,210600,1,10,0:0:0:0:
477,317,210827,1,0,3:0:0:0:
254,272,211055,5,6,1:2:0:0:
265,343,211282,1,0,3:0:0:0:
399,308,211509,1,10,2:0:0:0:
302,232,211736,6,0,P|254:208|198:240,1,107.999996704102,2|0,3:2|2:0,0:0:0:0:
195,240,212191,1,0,3:0:0:0:
187,168,212418,1,10,0:0:0:0:
70,128,212646,2,0,L|54:264,1,107.999996704102,2|0,3:2|2:0,0:0:0:0:
70,296,213100,5,0,3:0:0:0:
58,300,213327,1,10,2:0:0:0:
214,200,213555,2,0,P|262:184|310:216,1,107.999996704102,2|0,3:2|0:0,0:0:0:0:
316,229,214009,1,10,0:0:0:0:
452,195,214236,1,10,0:0:0:0:
409,330,214464,1,10,0:0:0:0:
312,311,214691,5,6,1:2:0:0:
368,271,214918,1,0,2:0:0:0:
440,263,215146,1,0,2:0:0:0:
512,287,215373,1,0,2:0:0:0:
504,295,215600,5,2,2:0:0:0:
464,239,215827,1,0,2:0:0:0:
456,167,216055,1,0,2:0:0:0:
480,95,216282,1,0,2:0:0:0:
304,87,216510,6,0,P|316:125|320:159,2,71.9999978027344,2|0|0,2:3|2:0|2:0,0:0:0:0:
336,31,217192,1,0,2:0:0:0:
224,127,217419,6,0,L|128:111,1,71.9999978027344,2|0,2:0|2:0,0:0:0:0:
136,47,217873,2,0,L|40:63,1,71.9999978027344,2|0,2:0|2:0,0:0:0:0:
40,143,218328,5,2,2:3:0:0:
80,199,218555,1,0,2:0:0:0:
88,271,218782,1,0,2:0:0:0:
64,343,219010,1,0,2:0:0:0:
56,335,219237,5,2,2:0:0:0:
112,295,219464,1,0,2:0:0:0:
184,287,219692,1,0,2:0:0:0:
256,311,219919,1,0,2:0:0:0:
352,247,220146,6,0,P|390:235|424:231,2,71.9999978027344,2|0|0,2:3|2:0|2:0,0:0:0:0:
296,215,220827,1,0,2:0:0:0:
136,143,221055,6,0,P|143:102|152:63,1,71.9999978027344,2|0,2:0|0:0,0:0:0:0:
192,183,221510,1,2,2:3:0:0:
64,215,221737,2,0,P|49:176|37:138,2,71.9999978027344,2|0|0,2:0|2:0|2:0,0:0:0:0:
120,351,222419,2,0,P|163:355|216:367,1,71.9999978027344,2|0,2:3|2:0,2:0:0:0:
296,255,222873,5,2,2:3:0:0:
289,187,223101,1,2,0:0:0:0:
296,319,223328,1,2,2:3:0:0:
303,251,223555,1,0,3:0:0:0:
384,295,223782,2,0,P|424:303|480:207,1,143.999995605469,2|0,2:0|2:0,2:0:0:0:
432,175,224463,1,0,2:0:0:0:
312,15,224691,5,2,2:3:0:0:
336,127,224918,1,2,2:0:0:0:
360,63,225145,1,2,2:3:0:0:
344,135,225372,1,0,3:0:0:0:
240,215,225600,2,0,P|208:271|248:335,1,143.999995605469,2|0,2:0|2:0,0:0:0:0:
245,334,226282,1,0,2:0:0:0:
40,311,226509,5,2,2:3:0:0:
104,295,226736,1,2,2:0:0:0:
40,319,226963,1,2,2:3:0:0:
152,247,227191,1,0,2:0:0:0:
88,359,227418,1,2,2:3:0:0:
104,295,227645,1,0,3:0:0:0:
24,239,227873,2,0,P|8:181|0:119,1,107.999996704102,2|0,2:0|2:0,0:0:0:0:
40,47,228328,5,2,2:0:0:0:
38,59,228555,1,2,2:0:0:0:
144,39,228782,1,2,2:0:0:0:
142,27,229009,1,2,3:2:0:0:
144,135,229236,2,0,L|125:216,2,71.9999978027344,2|0|0,2:3|3:0|2:3,0:0:0:0:
208,71,229918,5,0,3:0:0:0:
278,55,230145,1,2,2:0:0:0:
330,105,230372,1,0,3:0:0:0:
384,151,230600,1,0,2:0:0:0:
456,127,230827,1,0,3:0:0:0:
320,191,231054,1,2,2:3:0:0:
472,215,231282,5,2,2:2:0:0:
474,227,231509,1,2,2:0:0:0:
477,238,231736,1,2,2:2:0:0:
336,279,231963,1,2,0:0:0:0:
336,291,232191,1,2,2:0:0:0:
408,199,232418,1,2,2:0:0:0:
408,208,232645,1,2,2:0:0:0:
272,143,232872,5,2,2:3:0:0:
272,154,233100,1,2,2:0:0:0:
128,221,233327,1,2,2:0:0:0:
128,210,233554,1,2,2:0:0:0:
272,271,233782,1,2,2:0:0:0:
120,335,234009,2,0,L|28:315,1,71.9999978027344,2|0,3:2|2:0,0:0:0:0:
8,175,234463,6,0,P|19:214|24:245,1,71.9999978027344,2|0,2:0|2:0,0:0:0:0:
192,303,234918,2,0,P|204:228|225:156,1,143.999995605469,2|0,2:0|2:0,0:0:0:0:
336,63,235600,6,0,L|432:55,1,71.9999978027344,2|0,2:0|2:0,0:0:0:0:
455,129,236055,2,0,L|384:135,1,71.9999978027344,2|0,2:0|0:0,0:0:0:0:
295,168,236508,6,0,B|281:222|281:222|310:231,1,71.9999978027344,2|0,0:2|2:0,0:0:0:0:
416,287,236963,1,2,0:0:0:0:
400,351,237190,1,2,2:0:0:0:
320,367,237418,2,0,B|334:312|334:312|305:303,1,71.9999978027344,2|0,0:0|2:0,0:0:0:0:
216,239,237872,5,2,0:0:0:0:
144,255,238099,1,2,0:0:0:0:
120,167,238327,2,0,B|65:153|65:153|56:182,1,71.9999978027344,2|0,2:3|2:0,0:0:0:0:
16,247,238781,5,0,3:0:0:0:
32,319,239008,1,0,2:0:0:0:
128,183,239236,2,0,L|144:87,1,71.9999978027344,2|0,2:0|2:0,0:0:0:0:
72,71,239690,5,2,2:0:0:0:
8,103,239918,1,0,2:0:0:0:
208,15,240145,5,2,3:0:0:0:
208,87,240372,1,2,3:2:0:0:
208,159,240599,1,0,2:0:0:0:
144,55,240827,5,0,3:0:0:0:
336,95,241055,2,0,L|352:-1,1,71.9999978027344,2|0,2:0|3:0,0:0:0:0:
400,168,241509,2,0,B|417:178|417:178|427:160|427:160|410:150|410:150|400:168,1,71.9999978027344,2|0,2:0|3:0,0:0:0:0:
312,223,241964,6,0,P|321:261|329:309,1,71.9999978027344,6|0,0:0|2:0,0:0:0:0:
256,271,242418,2,0,P|265:309|273:357,1,71.9999978027344,2|0,2:0|2:0,0:0:0:0:
200,311,242873,6,0,P|209:349|217:397,1,71.9999978027344,2|0,0:0|2:0,2:0:0:0:
64,303,243781,5,6,1:2:0:0:
128,287,244008,1,0,3:0:0:0:
288,207,244235,1,10,2:0:0:0:
88,135,244464,1,0,3:0:0:0:
160,207,244691,2,0,P|169:163|176:71,1,120,2|0,1:2|2:0,0:0:0:0:
176,73,245145,5,10,2:0:0:0:
264,143,245373,1,0,3:0:0:0:
304,87,245599,2,0,P|352:71|416:71,1,80,2|0,1:2|3:0,0:0:0:0:
264,143,246054,2,0,L|275:222,1,80,10|0,2:0|3:0,0:0:0:0:
288,311,246508,5,2,1:2:0:0:
344,271,246735,1,0,1:0:0:0:
432,367,246963,2,0,L|541:383,2,80,10|0|0,2:0|3:0|1:2,0:0:0:0:
400,311,247646,1,0,3:0:0:0:
512,191,247873,1,10,2:0:0:0:
496,255,248099,1,0,3:0:0:0:
376,207,248327,6,0,P|367:171|360:87,1,120,2|0,1:2|2:0,0:0:0:0:
360,72,248781,1,10,2:0:0:0:
152,143,249008,1,0,3:0:0:0:
216,167,249235,1,2,1:2:0:0:
128,31,249464,1,0,3:0:0:0:
0,167,249690,1,10,2:0:0:0:
48,119,249917,1,0,3:0:0:0:
8,175,250146,6,0,L|14:272,1,80,2|0,1:3|1:0,3:0:0:0:
101,287,250600,2,0,L|94:368,1,80,10|0,2:0|3:0,0:0:0:0:
192,191,251055,5,6,1:2:0:0:
192,191,251168,1,2,3:0:0:0:
192,191,251282,2,0,P|187:214|184:231,1,40,2|0,3:2|2:0,0:0:0:0:
272,119,251509,2,0,P|276:163|288:223,1,80,10|0,2:0|3:0,0:0:0:0:
296,272,251850,6,0,L|352:264,1,40,2|0,3:2|1:0,3:0:0:0:
273,276,252077,1,0,3:0:0:0:
454,220,252304,2,0,P|415:211|376:208,1,80,2|0,2:3|2:0,0:0:0:0:
480,143,252645,2,0,P|483:123|488:104,1,40,2|0,3:2|2:0,0:0:0:0:
408,47,252872,5,2,1:2:0:0:
408,47,252986,1,2,3:0:0:0:
408,47,253100,2,0,P|413:70|416:87,1,40,2|0,3:2|2:0,0:0:0:0:
328,39,253327,2,0,P|281:45|216:63,1,80,10|0,2:0|3:0,0:0:0:0:
144,89,253668,6,0,L|184:95,1,40,2|0,2:3|1:0,0:0:0:0:
271,137,253895,2,0,L|232:143,1,40,2|0,2:0|1:0,0:0:0:0:
167,207,254122,2,0,P|150:243|138:281,1,80,2|0,3:2|0:0,0:0:0:0:
86,365,254464,2,0,P|81:345|79:326,1,40,2|0,3:2|2:0,0:0:0:0:
24,200,254690,5,2,1:3:0:0:
24,200,254804,1,2,2:0:0:0:
24,200,254918,2,0,P|20:176|17:159,1,40,2|0,3:2|2:0,0:0:0:0:
64,255,255145,2,0,P|110:264|177:267,1,80,10|0,2:0|3:0,0:0:0:0:
176,167,255486,6,0,L|232:159,1,40,2|0,2:0|1:0,0:0:0:0:
149,172,255713,1,2,3:2:0:0:
232,96,255940,2,0,P|267:99|320:112,1,80,2|0,3:2|3:0,0:0:0:0:
376,184,256282,2,0,P|379:164|383:144,1,40,2|0,0:0|2:0,0:0:0:0:
472,95,256509,5,2,1:3:0:0:
472,95,256622,1,2,3:2:0:0:
472,95,256736,2,0,P|467:118|464:135,1,40,2|0,3:2|2:0,0:0:0:0:
488,231,256963,2,0,P|494:278|512:343,1,80,10|0,2:0|3:0,0:0:0:0:
421,370,257304,6,0,P|401:372|382:378,1,40,2|0,3:2|1:0,0:0:0:0:
444,365,257531,1,2,3:2:0:0:
329,331,257759,1,2,3:2:0:0:
329,331,257873,2,0,P|305:323|276:318,1,40,8|0,2:0|3:0,0:0:0:0:
362,253,258099,1,2,3:2:0:0:
362,253,258213,1,2,3:2:0:0:
362,253,258327,6,0,P|382:176|398:136,1,107.999996704102,6|0,1:2|2:0,0:0:0:0:
398,133,258781,1,10,2:0:0:0:
262,159,259009,2,0,P|253:124|232:79,2,71.9999978027344,2|0|0,3:0|1:0|1:0,0:0:0:0:
293,54,259577,1,0,3:0:0:0:
296,61,259691,2,0,P|310:94|319:128,1,71.9999978027344,10|0,2:0|3:0,0:0:0:0:
288,231,260145,6,0,P|364:209|409:205,1,107.999996704102,2|0,1:3|2:0,0:0:0:0:
406,204,260599,1,10,2:0:0:0:
387,62,260827,2,0,P|422:67|469:84,2,71.9999978027344,2|0|0,3:0|1:0|1:0,0:0:0:0:
312,33,261395,1,0,3:0:0:0:
304,37,261509,2,0,P|270:51|236:60,1,71.9999978027344,10|0,2:0|3:0,0:0:0:0:
88,23,261963,6,0,B|55:107|55:107|83:153,2,143.999995605469,2|10|2,1:3|2:0|1:3,0:0:0:0:
68,220,263099,1,0,1:0:0:0:
162,131,263327,2,0,P|196:121|232:115,1,71.9999978027344,10|0,2:0|3:0,0:0:0:0:
167,257,263782,6,0,P|243:275|284:294,1,107.999996704102,2|0,1:3|2:0,0:0:0:0:
283,294,264237,1,10,2:0:0:0:
327,347,264464,1,0,3:0:0:0:
447,289,264691,5,2,1:2:0:0:
440,223,264918,1,0,1:0:0:0:
461,161,265146,1,10,2:0:0:0:
512,120,265373,1,0,3:0:0:0:
304,207,265600,6,0,P|227:227|187:243,1,107.999996704102,2|0,1:2|2:0,0:0:0:0:
186,243,266054,1,10,2:0:0:0:
112,303,266281,2,0,P|77:294|32:273,2,71.9999978027344,2|0|0,3:0|1:0|1:0,0:0:0:0:
150,357,266963,1,10,2:0:0:0:
214,299,267190,1,0,3:0:0:0:
352,368,267418,6,0,P|381:306|362:248,1,107.999996704102,2|0,1:3|2:0,0:0:0:0:
369,253,267872,1,10,2:0:0:0:
293,190,268099,1,0,3:0:0:0:
352,112,268327,2,0,L|376:32,2,71.9999978027344,2|0|10,1:3|1:0|2:0,0:0:0:0:
272,32,269009,1,0,3:0:0:0:
144,80,269236,6,0,P|120:144|144:200,1,107.999996704102,2|0,1:3|2:0,0:0:0:0:
139,194,269690,1,8,2:0:0:0:
224,144,269918,1,0,3:0:0:0:
304,208,270145,2,0,L|328:288,2,71.9999978027344,2|0|10,1:2|1:0|2:0,0:0:0:0:
244,287,270827,1,0,3:0:0:0:
184,343,271055,6,0,P|108:321|63:317,1,107.999996704102,2|0,1:3|2:0,0:0:0:0:
64,317,271509,1,10,2:0:0:0:
0,341,271736,1,0,3:0:0:0:
168,231,271963,5,2,1:2:0:0:
104,215,272190,1,0,1:2:0:0:
53,174,272418,1,8,2:0:0:0:
32,112,272645,1,0,3:0:0:0:
152,55,272872,5,6,1:2:0:0:
163,47,273099,1,2,3:2:0:0:
200,103,273327,2,0,P|189:146|184:191,1,71.9999978027344,10|0,2:0|3:0,0:0:0:0:
232,255,273781,1,2,1:2:0:0:
240,247,274009,1,2,1:2:0:0:
52,239,274236,5,10,3:2:0:0:
56,247,274349,1,0,3:0:0:0:
59,254,274463,1,0,3:0:0:0:
63,262,274577,1,0,3:0:0:0:
67,271,274691,2,0,P|74:306|77:342,2,71.9999978027344,2|2|10,1:3|3:2|2:0,0:0:0:0:
160,319,275372,5,2,3:2:0:0:
168,207,275599,1,2,1:2:0:0:
160,199,275827,1,2,1:2:0:0:
280,167,276054,1,10,2:0:0:0:
288,159,276281,1,2,3:2:0:0:
205,127,276509,6,0,P|194:84|189:39,2,71.9999978027344,2|2|8,1:3|3:2|2:0,0:0:0:0:
303,31,277191,2,0,P|339:34|375:41,2,71.9999978027344,2|2|2,3:2|1:2|1:2,0:0:0:0:
352,127,277872,5,8,3:2:0:0:
348,135,277986,1,0,3:0:0:0:
345,142,278099,1,0,3:0:0:0:
341,150,278213,1,0,3:0:0:0:
337,159,278327,6,0,P|330:194|327:230,2,71.9999978027344,2|0|8,1:3|3:0|2:0,0:0:0:0:
160,159,279009,1,0,3:0:0:0:
48,279,279236,1,2,1:2:0:0:
52,289,279463,1,2,1:2:0:0:
128,343,279690,1,10,2:0:0:0:
124,353,279918,1,2,3:2:0:0:
103,108,280146,6,0,P|23:108|39:164,1,143.999995605469,6|8,1:2|2:0,0:0:0:0:
79,212,280827,2,0,B|111:194|143:199|143:218|187:237|226:212,1,143.999995605469,2|0,2:0|1:0,0:0:0:0:
243,123,281509,2,0,P|278:120|305:143,1,71.9999978027344,10|0,2:0|3:0,0:0:0:0:
446,75,281964,5,2,1:2:0:0:
396,120,282191,2,0,B|388:163|388:163|380:200,1,71.9999978027344,2|8,3:2|2:0,0:0:0:0:
416,247,282646,2,0,P|428:323|440:375,1,107.999996704102,2|0,0:3|2:0,0:0:0:0:
438,369,283099,1,0,1:0:0:0:
312,328,283327,2,0,P|248:336|256:360,1,107.999996704102,8|0,2:0|2:0,0:0:0:0:
200,280,283782,5,2,1:2:0:0:
32,240,284084,1,2,2:0:0:0:
192,176,284388,1,2,2:0:0:0:
91,301,284691,2,0,L|107:173,1,119.999996337891,2|0,1:2|1:0,0:0:0:0:
76,101,285145,1,10,2:0:0:0:
76,101,285373,6,0,P|128:114|166:135,1,71.9999978027344,2|0,3:2|1:0,0:0:0:0:
260,155,285827,2,0,P|207:168|169:189,1,71.9999978027344,2|10,0:2|2:0,0:0:0:0:
56,216,286282,5,0,3:0:0:0:
200,312,286509,1,2,1:2:0:0:
219,252,286735,1,2,1:2:0:0:
91,301,286963,2,0,P|113:349|121:391,1,71.9999978027344,10|0,2:0|3:0,0:0:0:0:
296,175,287418,6,0,L|439:188,1,143.999995605469,6|10,1:2|2:0,0:0:0:0:
488,143,288099,1,0,3:0:0:0:
432,103,288326,1,2,1:2:0:0:
360,287,288555,1,0,1:0:0:0:
432,359,288781,2,0,L|448:271,1,71.9999978027344,10|0,2:0|3:0,0:0:0:0:
288,335,289236,6,0,L|274:191,1,143.999995605469,2|10,1:3|2:0,0:0:0:0:
224,143,289917,1,0,3:0:0:0:
192,199,290146,1,2,1:2:0:0:
16,95,290372,1,0,1:0:0:0:
88,23,290599,2,0,L|104:111,1,71.9999978027344,10|0,0:0|3:0,0:0:0:0:
224,55,291054,6,0,L|210:198,1,143.999995605469,2|10,1:3|2:0,0:0:0:0:
0,191,291736,2,0,P|80:151|136:183,1,143.999995605469,2|0,3:2|1:0,3:0:0:0:
184,207,292418,2,0,L|200:303,1,71.9999978027344,10|0,2:0|3:0,0:0:0:0:
184,47,292873,2,0,L|88:63,2,71.9999978027344,2|0|8,1:3|3:0|2:0,3:0:0:0:
240,95,293555,5,0,3:0:0:0:
296,55,293781,1,2,1:2:0:0:
448,215,294008,1,0,1:0:0:0:
384,191,294235,1,8,2:0:0:0:
432,47,294463,1,0,3:0:0:0:
432,47,294690,6,0,P|442:91|448:135,1,71.9999978027344,6|0,1:2|3:0,0:0:0:0:
384,191,295145,2,0,P|374:235|368:279,1,71.9999978027344,10|0,2:0|3:0,0:0:0:0:
256,351,295600,2,0,P|250:315|242:280,1,71.9999978027344,2|0,1:2|1:0,0:0:0:0:
184,239,296054,2,0,P|189:203|197:168,1,71.9999978027344,10|0,2:0|0:3,0:0:0:0:
40,311,296509,2,0,P|27:236|16:135,1,143.999995605469,2|10,1:3|2:0,0:0:0:0:
56,119,297190,1,0,3:0:0:0:
184,239,297418,2,0,P|221:232|272:227,2,71.9999978027344,2|0|10,1:3|1:0|2:0,3:0:0:0:
288,175,298099,1,0,3:0:0:0:
184,327,298327,6,0,P|256:309|360:303,1,143.999995605469,2|10,1:3|2:0,0:0:0:0:
376,351,299008,1,0,3:0:0:0:
293,232,299236,2,0,P|285:267|280:303,1,71.9999978027344,2|0,1:3|1:0,0:0:0:0:
160,303,299690,2,0,P|165:338|173:373,1,71.9999978027344,10|0,2:0|3:0,0:0:0:0:
200,240,300145,6,0,P|128:222|24:216,1,143.999995605469,2|10,1:3|2:0,0:0:0:0:
24,160,300827,1,0,3:0:0:0:
70,112,301055,1,2,1:2:0:0:
10,0,301282,1,0,1:0:0:0:
139,40,301509,2,0,P|146:75|152:110,1,71.9999978027344,10|0,2:0|3:0,0:0:0:0:
200,166,301964,6,0,B|256:142|256:142|352:174,1,143.999995605469,2|10,1:3|2:0,0:0:0:0:
392,118,302646,1,0,3:0:0:0:
512,214,302872,1,2,1:2:0:0:
488,270,303099,1,0,1:0:0:0:
304,272,303326,5,10,2:0:0:0:
432,198,303555,1,2,3:2:0:0:
384,254,303781,2,0,L|363:355,2,71.9999978027344,2|0|10,1:3|3:0|2:0,3:0:0:0:
336,182,304463,1,0,3:0:0:0:
224,150,304690,1,2,1:2:0:0:
208,312,304917,5,2,1:2:0:0:
197,316,305146,5,10,2:2:0:0:
187,321,305372,5,2,0:2:0:0:
48,167,305599,2,0,P|37:117|35:74,1,71.9999978027344,2|0,1:3|3:0,0:0:0:0:
21,230,306055,1,10,2:0:0:0:
48,288,306281,1,2,3:2:0:0:
200,224,306509,5,2,1:2:0:0:
143,268,306736,2,0,P|129:301|120:336,1,71.9999978027344,0|10,1:0|2:0,0:0:0:0:
272,248,307190,1,0,3:0:0:0:
143,268,307418,2,0,P|103:188|151:140,1,143.999995605469,2|10,1:3|2:0,0:0:0:0:
232,56,308099,1,0,3:0:0:0:
312,113,308326,1,10,2:0:0:0:
177,205,308555,5,10,0:2:0:0:
382,133,308781,1,10,2:0:0:0:
232,56,309008,1,10,0:2:0:0:
296,255,309236,6,0,P|352:239|400:231,1,80,6|2,1:2|3:2,0:0:0:0:
493,201,309690,1,10,2:0:0:0:
315,165,309917,1,2,3:2:0:0:
432,296,310146,1,0,1:0:0:0:
416,111,310372,5,2,1:2:0:0:
248,215,310599,1,10,2:0:0:0:
280,72,310826,1,0,3:0:0:0:
184,48,311054,6,0,P|200:104|208:152,1,80,2|2,1:3|3:2,0:0:0:0:
48,256,311508,1,10,2:0:0:0:
108,318,311736,2,0,P|122:261|139:215,1,80,2|0,3:2|1:0,0:0:0:0:
80,143,312190,5,2,1:2:0:0:
208,199,312417,1,10,2:0:0:0:
336,119,312646,1,2,3:2:0:0:
270,251,312872,6,0,P|275:295|286:339,1,80,6|2,1:2|3:2,0:0:0:0:
334,363,313326,1,10,2:0:0:0:
494,189,313555,2,0,P|451:178|416:175,1,80,2|0,3:2|1:0,0:0:0:0:
352,87,314008,2,0,P|394:76|430:72,1,80,2|8,1:2|2:0,0:0:0:0:
304,39,314463,1,0,3:0:0:0:
184,207,314691,5,2,1:3:0:0:
206,69,314917,1,0,3:0:0:0:
270,192,315146,1,10,2:0:0:0:
143,129,315372,1,0,3:0:0:0:
284,107,315599,1,2,1:2:0:0:
34,33,315826,5,2,1:2:0:0:
110,198,316055,1,10,2:0:0:0:
225,54,316281,1,2,3:2:0:0:
142,20,316508,6,0,P|157:73|166:124,1,80,6|2,1:2|3:2,0:0:0:0:
220,191,316963,1,10,2:0:0:0:
56,129,317190,1,2,3:2:0:0:
72,303,317418,2,0,P|125:287|176:279,1,80,2|2,1:2|1:2,0:0:0:0:
218,315,317873,1,10,2:0:0:0:
129,180,318100,1,2,3:2:0:0:
294,212,318327,6,0,P|302:172|314:134,1,80,2|0,1:3|3:0,0:0:0:0:
416,271,318782,2,0,P|427:309|436:348,1,80,10|0,2:0|3:0,0:0:0:0:
376,383,319236,1,0,1:0:0:0:
464,191,319463,1,0,1:0:0:0:
296,255,319691,2,0,P|257:243|218:234,1,80,10|0,2:0|3:0,0:0:0:0:
56,95,320146,6,0,P|65:133|76:172,1,80,6|0,1:2|3:0,0:0:0:0:
40,239,320600,1,10,2:0:0:0:
155,142,320827,1,0,3:0:0:0:
288,207,321054,6,0,P|312:249|336:303,1,80,2|0,1:3|1:2,0:0:0:0:
192,279,321509,2,0,P|201:317|206:357,1,80,10|0,2:0|3:0,0:0:0:0:
93,346,321963,6,0,B|50:370|-15:349|-12:256|63:228|104:277|104:277|80:196|24:269|-15:148|-23:43|96:-36|266:3|258:143|217:204|217:204|306:162|314:252|395:196,1,960,6|0,1:2|2:0,0:0:0:0:
