osu file format v14

[General]
AudioFilename: audio.mp3
AudioLeadIn: 0
PreviewTime: -1
Countdown: 1
SampleSet: Normal
StackLeniency: 0.7
Mode: 3
LetterboxInBreaks: 0
SpecialStyle: 1
WidescreenStoryboard: 0

[Editor]
DistanceSpacing: 0.5
BeatDivisor: 2
GridSize: 8
TimelineZoom: 1

[Metadata]
Title:Scream Aim Fire
TitleUnicode:Scream Aim Fire
Artist:BFMV
ArtistUnicode:BFMV
Creator:Yachi
Version:HD
Source:
Tags:
BeatmapID:1359979
BeatmapSetID:641343

[Difficulty]
HPDrainRate:5
CircleSize:4
OverallDifficulty:5
ApproachRate:5
SliderMultiplier:1.4
SliderTickRate:1

[Events]
//Background and Video events
//Break Periods
//Storyboard Layer 0 (Background)
//Storyboard Layer 1 (Fail)
//Storyboard Layer 2 (Pass)
//Storyboard Layer 3 (Foreground)
//Storyboard Sound Samples

[TimingPoints]
-114,295.565,4,1,0,15,1,0
149294,310.559,4,1,0,15,1,0
171809,295.566,4,1,0,15,1,0
238016,310.559,4,1,0,15,1,0

[HitObjects]
64,192,477,5,0,0:0:0:0:
192,192,551,1,0,0:0:0:0:
64,192,624,1,0,0:0:0:0:
192,192,698,1,0,0:0:0:0:
64,192,772,1,0,0:0:0:0:
192,192,846,1,0,0:0:0:0:
320,192,920,1,0,0:0:0:0:
448,192,994,1,0,0:0:0:0:
64,192,1068,1,0,0:0:0:0:
448,192,1142,1,0,0:0:0:0:
64,192,1216,1,0,0:0:0:0:
448,192,1289,1,0,0:0:0:0:
320,192,1363,1,0,0:0:0:0:
448,192,1437,1,0,0:0:0:0:
320,192,1511,1,0,0:0:0:0:
448,192,1585,1,0,0:0:0:0:
64,192,1659,1,0,0:0:0:0:
448,192,1733,1,0,0:0:0:0:
64,192,1807,1,0,0:0:0:0:
448,192,1881,1,0,0:0:0:0:
192,192,1954,1,0,0:0:0:0:
448,192,2028,1,0,0:0:0:0:
192,192,2102,1,0,0:0:0:0:
448,192,2176,1,0,0:0:0:0:
64,192,2250,1,0,0:0:0:0:
448,192,2324,1,0,0:0:0:0:
192,192,2398,1,0,0:0:0:0:
320,192,2472,1,0,0:0:0:0:
64,192,2546,1,0,0:0:0:0:
448,192,2841,1,0,0:0:0:0:
320,192,2989,1,0,0:0:0:0:
320,192,3137,1,0,0:0:0:0:
192,192,3284,1,0,0:0:0:0:
64,192,3432,1,0,0:0:0:0:
64,192,3580,1,0,0:0:0:0:
448,192,3728,1,0,0:0:0:0:
192,192,3802,1,0,0:0:0:0:
448,192,3876,1,0,0:0:0:0:
64,192,4023,1,0,0:0:0:0:
320,192,4097,1,0,0:0:0:0:
64,192,4171,1,0,0:0:0:0:
320,192,4319,1,0,0:0:0:0:
192,192,4467,1,0,0:0:0:0:
192,192,4615,1,0,0:0:0:0:
448,192,4762,1,0,0:0:0:0:
64,192,4910,1,0,0:0:0:0:
192,192,5058,1,0,0:0:0:0:
320,192,5206,1,0,0:0:0:0:
448,192,5280,1,0,0:0:0:0:
320,192,5353,1,0,0:0:0:0:
192,192,5501,1,0,0:0:0:0:
64,192,5649,1,0,0:0:0:0:
448,192,5797,1,0,0:0:0:0:
192,192,5871,1,0,0:0:0:0:
320,192,5945,1,0,0:0:0:0:
64,192,6092,1,0,0:0:0:0:
320,192,6166,1,0,0:0:0:0:
192,192,6240,1,0,0:0:0:0:
320,192,6388,1,0,0:0:0:0:
192,192,6462,1,0,0:0:0:0:
448,192,6536,1,0,0:0:0:0:
64,192,6683,1,0,0:0:0:0:
448,192,6831,1,0,0:0:0:0:
64,0,6979,128,0,7521:1:0:0:0:
448,192,7570,1,0,0:0:0:0:
320,192,7644,1,0,0:0:0:0:
448,192,7718,1,0,0:0:0:0:
320,192,7792,1,0,0:0:0:0:
448,192,7866,1,0,0:0:0:0:
320,192,7940,1,0,0:0:0:0:
448,192,8014,1,0,0:0:0:0:
320,192,8087,1,0,0:0:0:0:
448,192,8161,1,0,0:0:0:0:
64,192,8235,1,0,0:0:0:0:
448,192,8309,1,0,0:0:0:0:
64,192,8383,1,0,0:0:0:0:
448,192,8457,1,0,0:0:0:0:
64,192,8531,1,0,0:0:0:0:
448,192,8605,1,0,0:0:0:0:
64,192,8679,1,0,0:0:0:0:
448,192,8752,1,0,0:0:0:0:
192,192,8826,1,0,0:0:0:0:
448,192,8900,1,0,0:0:0:0:
192,192,8974,1,0,0:0:0:0:
448,192,9048,1,0,0:0:0:0:
192,192,9122,1,0,0:0:0:0:
448,192,9196,1,0,0:0:0:0:
192,192,9270,1,0,0:0:0:0:
320,192,9344,1,0,0:0:0:0:
192,192,9417,1,0,0:0:0:0:
320,192,9491,1,0,0:0:0:0:
192,192,9565,1,0,0:0:0:0:
320,192,9639,1,0,0:0:0:0:
192,192,9713,1,0,0:0:0:0:
320,192,9787,1,0,0:0:0:0:
192,192,9861,1,0,0:0:0:0:
320,192,9935,1,0,0:0:0:0:
64,192,10009,1,0,0:0:0:0:
320,192,10082,1,0,0:0:0:0:
64,192,10156,1,0,0:0:0:0:
320,192,10230,1,0,0:0:0:0:
64,192,10304,1,0,0:0:0:0:
320,192,10378,1,0,0:0:0:0:
64,192,10452,1,0,0:0:0:0:
448,192,10526,1,0,0:0:0:0:
64,192,10600,1,0,0:0:0:0:
448,192,10674,1,0,0:0:0:0:
64,192,10748,1,0,0:0:0:0:
448,192,10821,1,0,0:0:0:0:
64,192,10895,1,0,0:0:0:0:
448,192,10969,1,0,0:0:0:0:
64,192,11043,1,0,0:0:0:0:
192,192,11117,1,0,0:0:0:0:
320,192,11191,1,0,0:0:0:0:
192,192,11265,1,0,0:0:0:0:
320,192,11339,1,0,0:0:0:0:
192,192,11413,1,0,0:0:0:0:
320,192,11486,1,0,0:0:0:0:
192,192,11560,1,0,0:0:0:0:
320,192,11634,1,0,0:0:0:0:
192,192,11708,1,0,0:0:0:0:
64,192,11782,1,0,0:0:0:0:
448,192,11856,1,0,0:0:0:0:
192,192,11930,1,0,0:0:0:0:
320,192,12004,1,0,0:0:0:0:
64,192,12078,1,0,0:0:0:0:
320,192,12151,1,0,0:0:0:0:
192,192,12225,1,0,0:0:0:0:
448,192,12299,1,0,0:0:0:0:
64,192,12447,1,0,0:0:0:0:
64,192,12595,1,0,0:0:0:0:
448,192,12743,1,0,0:0:0:0:
192,192,12890,1,0,0:0:0:0:
192,192,13038,1,0,0:0:0:0:
320,192,13186,1,0,0:0:0:0:
64,192,13260,1,0,0:0:0:0:
320,192,13334,1,0,0:0:0:0:
192,192,13481,1,0,0:0:0:0:
320,192,13555,1,0,0:0:0:0:
192,192,13629,1,0,0:0:0:0:
448,192,13777,1,0,0:0:0:0:
192,192,13925,1,0,0:0:0:0:
64,192,14073,1,0,0:0:0:0:
192,192,14220,1,0,0:0:0:0:
448,192,14368,1,0,0:0:0:0:
64,192,14516,1,0,0:0:0:0:
448,192,14664,1,0,0:0:0:0:
320,192,14812,1,0,0:0:0:0:
192,192,14959,1,0,0:0:0:0:
320,192,15033,1,0,0:0:0:0:
192,192,15107,1,0,0:0:0:0:
320,192,15255,1,0,0:0:0:0:
192,192,15403,1,0,0:0:0:0:
64,192,15550,1,0,0:0:0:0:
192,192,15624,1,0,0:0:0:0:
64,192,15698,1,0,0:0:0:0:
448,192,15846,1,0,0:0:0:0:
192,192,15920,1,0,0:0:0:0:
448,192,15994,1,0,0:0:0:0:
192,192,16142,1,0,0:0:0:0:
320,192,16289,1,0,0:0:0:0:
64,0,16437,128,0,16954:1:0:0:0:
448,192,17028,1,0,0:0:0:0:
192,192,17102,1,0,0:0:0:0:
320,192,17176,1,0,0:0:0:0:
64,192,17250,1,0,0:0:0:0:
448,192,17324,1,0,0:0:0:0:
192,192,17398,1,0,0:0:0:0:
320,192,17472,1,0,0:0:0:0:
64,192,17546,1,0,0:0:0:0:
448,192,17619,1,0,0:0:0:0:
320,192,17693,1,0,0:0:0:0:
192,192,17767,1,0,0:0:0:0:
64,192,17841,1,0,0:0:0:0:
448,192,17915,1,0,0:0:0:0:
320,192,17989,1,0,0:0:0:0:
192,192,18063,1,0,0:0:0:0:
64,192,18137,1,0,0:0:0:0:
448,192,18211,1,0,0:0:0:0:
192,192,18284,1,0,0:0:0:0:
448,192,18358,1,0,0:0:0:0:
192,192,18432,1,0,0:0:0:0:
448,192,18506,1,0,0:0:0:0:
192,192,18580,1,0,0:0:0:0:
448,192,18654,1,0,0:0:0:0:
192,192,18728,1,0,0:0:0:0:
320,192,18802,1,0,0:0:0:0:
192,192,18876,1,0,0:0:0:0:
320,192,18949,1,0,0:0:0:0:
192,192,19023,1,0,0:0:0:0:
320,192,19097,1,0,0:0:0:0:
192,192,19171,1,0,0:0:0:0:
320,192,19245,1,0,0:0:0:0:
192,192,19319,1,0,0:0:0:0:
320,192,19393,1,0,0:0:0:0:
64,192,19467,1,0,0:0:0:0:
448,192,19541,1,0,0:0:0:0:
192,192,19614,1,0,0:0:0:0:
320,192,19688,1,0,0:0:0:0:
64,192,19762,1,0,0:0:0:0:
448,192,19836,1,0,0:0:0:0:
192,192,19910,1,0,0:0:0:0:
448,192,19984,1,0,0:0:0:0:
64,192,20058,1,0,0:0:0:0:
192,192,20132,1,0,0:0:0:0:
320,192,20206,1,0,0:0:0:0:
448,192,20279,1,0,0:0:0:0:
64,192,20353,1,0,0:0:0:0:
192,192,20427,1,0,0:0:0:0:
320,192,20501,1,0,0:0:0:0:
448,192,20575,1,0,0:0:0:0:
64,192,20649,1,0,0:0:0:0:
448,192,20723,1,0,0:0:0:0:
64,192,20797,1,0,0:0:0:0:
448,192,20871,1,0,0:0:0:0:
64,192,20945,1,0,0:0:0:0:
448,192,21018,1,0,0:0:0:0:
320,192,21092,1,0,0:0:0:0:
448,192,21166,1,0,0:0:0:0:
192,192,21240,1,0,0:0:0:0:
320,192,21314,1,0,0:0:0:0:
64,192,21388,1,0,0:0:0:0:
448,192,21462,1,0,0:0:0:0:
192,192,21536,1,0,0:0:0:0:
320,192,21610,1,0,0:0:0:0:
64,192,21683,1,0,0:0:0:0:
448,0,21757,128,0,23605:1:0:0:0:
64,192,24122,1,0,0:0:0:0:
320,192,24196,1,0,0:0:0:0:
64,192,24270,1,0,0:0:0:0:
320,192,24417,1,0,0:0:0:0:
192,192,24565,1,0,0:0:0:0:
448,192,24639,1,0,0:0:0:0:
192,192,24713,1,0,0:0:0:0:
448,192,24861,1,0,0:0:0:0:
64,192,25009,1,0,0:0:0:0:
192,192,25082,1,0,0:0:0:0:
64,192,25156,1,0,0:0:0:0:
192,192,25304,1,0,0:0:0:0:
320,192,25378,1,0,0:0:0:0:
192,192,25452,1,0,0:0:0:0:
320,192,25600,1,0,0:0:0:0:
448,192,25674,1,0,0:0:0:0:
320,192,25747,1,0,0:0:0:0:
448,192,25895,1,0,0:0:0:0:
192,192,25969,1,0,0:0:0:0:
448,192,26043,1,0,0:0:0:0:
64,192,26117,1,0,0:0:0:0:
320,192,26191,1,0,0:0:0:0:
64,192,26265,1,0,0:0:0:0:
192,192,26339,1,0,0:0:0:0:
320,192,26412,1,0,0:0:0:0:
448,192,26486,1,0,0:0:0:0:
320,192,26634,1,0,0:0:0:0:
448,192,26782,1,0,0:0:0:0:
192,192,26856,1,0,0:0:0:0:
320,192,26930,1,0,0:0:0:0:
192,192,27077,1,0,0:0:0:0:
320,192,27151,1,0,0:0:0:0:
64,192,27225,1,0,0:0:0:0:
448,192,27373,1,0,0:0:0:0:
64,0,27521,128,0,27743:1:0:0:0:
448,192,27816,1,0,0:0:0:0:
64,192,27964,1,0,0:0:0:0:
448,192,28038,1,0,0:0:0:0:
64,192,28112,1,0,0:0:0:0:
448,192,28260,1,0,0:0:0:0:
192,192,28334,1,0,0:0:0:0:
448,192,28408,1,0,0:0:0:0:
64,192,28555,1,0,0:0:0:0:
320,0,28703,128,0,28925:1:0:0:0:
192,192,28999,1,0,0:0:0:0:
448,192,29146,1,0,0:0:0:0:
192,192,29220,1,0,0:0:0:0:
448,192,29294,1,0,0:0:0:0:
64,192,29442,1,0,0:0:0:0:
192,192,29516,1,0,0:0:0:0:
320,192,29590,1,0,0:0:0:0:
448,192,29738,1,0,0:0:0:0:
320,0,29885,128,0,30107:1:0:0:0:
192,192,30181,1,0,0:0:0:0:
320,192,30329,1,0,0:0:0:0:
192,192,30403,1,0,0:0:0:0:
64,192,30476,1,0,0:0:0:0:
192,0,30624,128,0,31031:1:0:0:0:
64,0,31068,128,0,31178:1:0:0:0:
64,192,31363,1,0,0:0:0:0:
320,192,31511,1,0,0:0:0:0:
192,192,31585,1,0,0:0:0:0:
320,192,31659,1,0,0:0:0:0:
192,192,31807,1,0,0:0:0:0:
448,192,31880,1,0,0:0:0:0:
192,192,31954,1,0,0:0:0:0:
448,192,32102,1,0,0:0:0:0:
64,0,32250,128,0,32508:1:0:0:0:
192,192,32545,1,0,0:0:0:0:
320,192,32693,1,0,0:0:0:0:
448,192,32767,1,0,0:0:0:0:
320,192,32841,1,0,0:0:0:0:
448,192,32989,1,0,0:0:0:0:
64,192,33063,1,0,0:0:0:0:
448,192,33137,1,0,0:0:0:0:
64,192,33284,1,0,0:0:0:0:
320,0,33432,128,0,34319:1:0:0:0:
320,192,34614,1,0,0:0:0:0:
64,192,34762,1,0,0:0:0:0:
64,192,34910,1,0,0:0:0:0:
448,192,35058,1,0,0:0:0:0:
448,192,35206,1,0,0:0:0:0:
320,192,35353,1,0,0:0:0:0:
320,192,35501,1,0,0:0:0:0:
192,192,35649,1,0,0:0:0:0:
64,0,35797,128,0,35944:1:0:0:0:
192,0,35797,128,0,35981:1:0:0:0:
192,192,36092,1,0,0:0:0:0:
320,192,36240,1,0,0:0:0:0:
448,192,36314,1,0,0:0:0:0:
192,192,36388,1,0,0:0:0:0:
320,192,36536,1,0,0:0:0:0:
64,192,36609,1,0,0:0:0:0:
448,192,36683,1,0,0:0:0:0:
192,192,36831,1,0,0:0:0:0:
448,0,36979,128,0,37053:1:0:0:0:
448,192,37274,1,0,0:0:0:0:
192,192,37422,1,0,0:0:0:0:
320,192,37496,1,0,0:0:0:0:
192,192,37570,1,0,0:0:0:0:
320,192,37718,1,0,0:0:0:0:
64,192,37792,1,0,0:0:0:0:
320,192,37866,1,0,0:0:0:0:
64,192,38013,1,0,0:0:0:0:
448,0,38161,128,0,38383:1:0:0:0:
64,192,38457,1,0,0:0:0:0:
192,192,38605,1,0,0:0:0:0:
320,192,38678,1,0,0:0:0:0:
448,192,38752,1,0,0:0:0:0:
64,192,38900,1,0,0:0:0:0:
320,192,38974,1,0,0:0:0:0:
192,192,39048,1,0,0:0:0:0:
448,192,39196,1,0,0:0:0:0:
64,0,39343,128,0,39565:1:0:0:0:
320,192,39639,1,0,0:0:0:0:
448,192,39787,1,0,0:0:0:0:
320,192,39935,1,0,0:0:0:0:
64,0,40082,128,0,40526:1:0:0:0:
448,0,40526,128,0,40747:1:0:0:0:
64,192,40821,1,0,0:0:0:0:
448,192,40969,1,0,0:0:0:0:
64,192,41043,1,0,0:0:0:0:
320,192,41117,1,0,0:0:0:0:
192,192,41265,1,0,0:0:0:0:
448,192,41338,1,0,0:0:0:0:
64,192,41412,1,0,0:0:0:0:
192,192,41560,1,0,0:0:0:0:
320,0,41708,128,0,41930:1:0:0:0:
448,192,42004,1,0,0:0:0:0:
320,192,42151,1,0,0:0:0:0:
192,192,42225,1,0,0:0:0:0:
320,192,42299,1,0,0:0:0:0:
192,192,42447,1,0,0:0:0:0:
64,192,42521,1,0,0:0:0:0:
192,192,42595,1,0,0:0:0:0:
64,192,42742,1,0,0:0:0:0:
448,0,42890,128,0,43777:1:0:0:0:
320,192,44072,1,0,0:0:0:0:
192,192,44220,1,0,0:0:0:0:
192,192,44368,1,0,0:0:0:0:
448,192,44516,1,0,0:0:0:0:
448,192,44664,1,0,0:0:0:0:
64,192,44811,1,0,0:0:0:0:
64,192,44959,1,0,0:0:0:0:
192,192,45107,1,0,0:0:0:0:
320,0,45255,128,0,45366:1:0:0:0:
192,0,45255,128,0,45476:1:0:0:0:
320,192,45550,1,0,0:0:0:0:
448,192,45698,1,0,0:0:0:0:
448,192,45846,1,0,0:0:0:0:
64,192,45994,1,0,0:0:0:0:
64,192,46141,1,0,0:0:0:0:
320,192,46289,1,0,0:0:0:0:
448,192,46437,1,0,0:0:0:0:
320,192,46585,1,0,0:0:0:0:
320,192,46733,1,0,0:0:0:0:
64,192,46880,1,0,0:0:0:0:
64,192,47028,1,0,0:0:0:0:
448,192,47176,1,0,0:0:0:0:
320,0,47324,128,0,47471:1:0:0:0:
448,0,47324,128,0,47471:1:0:0:0:
320,0,47619,128,0,47767:1:0:0:0:
192,0,47619,128,0,47804:1:0:0:0:
192,192,47915,1,0,0:0:0:0:
64,192,48063,1,0,0:0:0:0:
64,192,48210,1,0,0:0:0:0:
448,192,48358,1,0,0:0:0:0:
448,192,48506,1,0,0:0:0:0:
192,192,48654,1,0,0:0:0:0:
320,192,48802,1,0,0:0:0:0:
64,0,48949,128,0,49393:1:0:0:0:
320,0,48949,128,0,49393:1:0:0:0:
320,0,49540,128,0,49725:1:0:0:0:
192,0,49540,128,0,49762:1:0:0:0:
320,0,49984,128,0,50205:1:0:0:0:
64,192,50279,1,0,0:0:0:0:
320,192,50427,1,0,0:0:0:0:
320,192,50575,1,0,0:0:0:0:
448,192,50723,1,0,0:0:0:0:
448,192,50870,1,0,0:0:0:0:
320,192,51018,1,0,0:0:0:0:
64,192,51166,1,0,0:0:0:0:
448,192,51314,1,0,0:0:0:0:
448,192,51462,1,0,0:0:0:0:
320,192,51609,1,0,0:0:0:0:
320,192,51757,1,0,0:0:0:0:
192,192,51905,1,0,0:0:0:0:
64,0,52053,128,0,52164:1:0:0:0:
448,0,52053,128,0,52164:1:0:0:0:
448,0,52348,128,0,52459:1:0:0:0:
192,0,52348,128,0,52496:1:0:0:0:
320,192,52644,1,0,0:0:0:0:
64,192,52792,1,0,0:0:0:0:
64,192,52939,1,0,0:0:0:0:
192,192,53087,1,0,0:0:0:0:
320,192,53235,1,0,0:0:0:0:
448,192,53309,1,0,0:0:0:0:
64,192,53383,1,0,0:0:0:0:
448,192,53531,1,0,0:0:0:0:
64,0,53678,128,0,54122:1:0:0:0:
192,0,53678,128,0,54159:1:0:0:0:
448,0,54269,128,0,54528:1:0:0:0:
192,0,54269,128,0,54565:1:0:0:0:
64,0,54713,128,0,54898:1:0:0:0:
320,192,55008,1,0,0:0:0:0:
192,192,55156,1,0,0:0:0:0:
192,192,55304,1,0,0:0:0:0:
320,192,55452,1,0,0:0:0:0:
320,192,55600,1,0,0:0:0:0:
64,192,55747,1,0,0:0:0:0:
448,192,55895,1,0,0:0:0:0:
320,192,56043,1,0,0:0:0:0:
320,192,56191,1,0,0:0:0:0:
192,192,56338,1,0,0:0:0:0:
192,192,56486,1,0,0:0:0:0:
64,192,56634,1,0,0:0:0:0:
448,0,56782,128,0,56893:1:0:0:0:
192,0,56782,128,0,56930:1:0:0:0:
64,0,57077,128,0,57188:1:0:0:0:
320,0,57077,128,0,57188:1:0:0:0:
320,192,57373,1,0,0:0:0:0:
192,192,57521,1,0,0:0:0:0:
192,192,57668,1,0,0:0:0:0:
448,192,57816,1,0,0:0:0:0:
448,192,57964,1,0,0:0:0:0:
192,192,58112,1,0,0:0:0:0:
320,192,58260,1,0,0:0:0:0:
64,0,58407,128,0,58666:1:0:0:0:
320,0,58407,128,0,58666:1:0:0:0:
64,0,58999,128,0,59183:1:0:0:0:
448,0,58999,128,0,59183:1:0:0:0:
448,0,59442,128,0,59627:1:0:0:0:
64,192,59737,1,0,0:0:0:0:
192,192,59885,1,0,0:0:0:0:
192,192,60033,1,0,0:0:0:0:
320,192,60181,1,0,0:0:0:0:
320,192,60329,1,0,0:0:0:0:
64,192,60476,1,0,0:0:0:0:
320,192,60624,1,0,0:0:0:0:
448,192,60772,1,0,0:0:0:0:
448,192,60920,1,0,0:0:0:0:
192,192,61067,1,0,0:0:0:0:
192,192,61215,1,0,0:0:0:0:
448,192,61363,1,0,0:0:0:0:
64,0,61511,128,0,61622:1:0:0:0:
320,0,61511,128,0,61622:1:0:0:0:
320,0,61806,128,0,61917:1:0:0:0:
192,0,61806,128,0,61954:1:0:0:0:
320,192,62102,1,0,0:0:0:0:
64,192,62250,1,0,0:0:0:0:
192,192,62398,1,0,0:0:0:0:
448,192,62545,1,0,0:0:0:0:
192,192,62693,1,0,0:0:0:0:
64,192,62841,1,0,0:0:0:0:
448,192,62989,1,0,0:0:0:0:
448,0,63136,128,0,63543:1:0:0:0:
192,0,63136,128,0,63580:1:0:0:0:
64,0,63728,128,0,64097:1:0:0:0:
320,0,63728,128,0,64097:1:0:0:0:
192,192,64319,1,0,0:0:0:0:
448,192,64466,1,0,0:0:0:0:
448,192,64614,1,0,0:0:0:0:
64,192,64762,1,0,0:0:0:0:
192,192,64910,1,0,0:0:0:0:
320,192,65058,1,0,0:0:0:0:
448,192,65205,1,0,0:0:0:0:
320,192,65279,1,0,0:0:0:0:
448,192,65353,1,0,0:0:0:0:
320,192,65501,1,0,0:0:0:0:
192,192,65575,1,0,0:0:0:0:
320,192,65649,1,0,0:0:0:0:
192,192,65797,1,0,0:0:0:0:
64,192,65944,1,0,0:0:0:0:
320,192,66092,1,0,0:0:0:0:
192,192,66240,1,0,0:0:0:0:
448,192,66388,1,0,0:0:0:0:
64,192,66535,1,0,0:0:0:0:
192,192,66683,1,0,0:0:0:0:
320,192,66831,1,0,0:0:0:0:
448,192,66979,1,0,0:0:0:0:
320,192,67053,1,0,0:0:0:0:
448,192,67127,1,0,0:0:0:0:
64,192,67274,1,0,0:0:0:0:
192,192,67422,1,0,0:0:0:0:
64,192,67570,1,0,0:0:0:0:
320,192,67644,1,0,0:0:0:0:
64,192,67718,1,0,0:0:0:0:
448,192,67865,1,0,0:0:0:0:
192,192,67939,1,0,0:0:0:0:
448,192,68013,1,0,0:0:0:0:
64,192,68161,1,0,0:0:0:0:
320,192,68309,1,0,0:0:0:0:
192,0,68457,128,0,68900:1:0:0:0:
448,192,69048,1,0,0:0:0:0:
64,192,69122,1,0,0:0:0:0:
448,192,69196,1,0,0:0:0:0:
64,192,69269,1,0,0:0:0:0:
448,192,69343,1,0,0:0:0:0:
64,192,69417,1,0,0:0:0:0:
448,192,69491,1,0,0:0:0:0:
64,192,69565,1,0,0:0:0:0:
448,192,69639,1,0,0:0:0:0:
192,192,69713,1,0,0:0:0:0:
320,192,69787,1,0,0:0:0:0:
64,192,69861,1,0,0:0:0:0:
448,192,69934,1,0,0:0:0:0:
192,192,70008,1,0,0:0:0:0:
320,192,70082,1,0,0:0:0:0:
64,192,70156,1,0,0:0:0:0:
448,192,70230,1,0,0:0:0:0:
320,192,70304,1,0,0:0:0:0:
448,192,70378,1,0,0:0:0:0:
320,192,70452,1,0,0:0:0:0:
448,192,70526,1,0,0:0:0:0:
320,192,70599,1,0,0:0:0:0:
448,192,70673,1,0,0:0:0:0:
320,192,70747,1,0,0:0:0:0:
448,192,70821,1,0,0:0:0:0:
64,192,70895,1,0,0:0:0:0:
192,192,70969,1,0,0:0:0:0:
320,192,71043,1,0,0:0:0:0:
448,192,71117,1,0,0:0:0:0:
64,192,71191,1,0,0:0:0:0:
192,192,71264,1,0,0:0:0:0:
320,192,71338,1,0,0:0:0:0:
448,192,71412,1,0,0:0:0:0:
192,192,71486,1,0,0:0:0:0:
448,192,71560,1,0,0:0:0:0:
192,192,71634,1,0,0:0:0:0:
448,192,71708,1,0,0:0:0:0:
192,192,71782,1,0,0:0:0:0:
448,192,71856,1,0,0:0:0:0:
192,192,71929,1,0,0:0:0:0:
320,192,72003,1,0,0:0:0:0:
64,192,72077,1,0,0:0:0:0:
320,192,72151,1,0,0:0:0:0:
64,192,72225,1,0,0:0:0:0:
448,192,72299,1,0,0:0:0:0:
320,192,72373,1,0,0:0:0:0:
192,192,72447,1,0,0:0:0:0:
64,192,72521,1,0,0:0:0:0:
448,192,72594,1,0,0:0:0:0:
64,192,72668,1,0,0:0:0:0:
320,192,72742,1,0,0:0:0:0:
192,192,72816,1,0,0:0:0:0:
320,192,72890,1,0,0:0:0:0:
64,192,72964,1,0,0:0:0:0:
192,192,73038,1,0,0:0:0:0:
320,192,73112,1,0,0:0:0:0:
448,192,73186,1,0,0:0:0:0:
64,192,73260,1,0,0:0:0:0:
192,192,73333,1,0,0:0:0:0:
320,192,73407,1,0,0:0:0:0:
448,192,73481,1,0,0:0:0:0:
64,192,73555,1,0,0:0:0:0:
320,192,73629,1,0,0:0:0:0:
192,192,73703,1,0,0:0:0:0:
448,192,73777,1,0,0:0:0:0:
64,192,73925,1,0,0:0:0:0:
192,192,74072,1,0,0:0:0:0:
320,192,74220,1,0,0:0:0:0:
448,192,74368,1,0,0:0:0:0:
320,192,74516,1,0,0:0:0:0:
448,192,74663,1,0,0:0:0:0:
320,192,74737,1,0,0:0:0:0:
448,192,74811,1,0,0:0:0:0:
320,192,74959,1,0,0:0:0:0:
192,192,75033,1,0,0:0:0:0:
320,192,75107,1,0,0:0:0:0:
192,192,75255,1,0,0:0:0:0:
448,192,75402,1,0,0:0:0:0:
192,192,75550,1,0,0:0:0:0:
64,192,75698,1,0,0:0:0:0:
448,192,75846,1,0,0:0:0:0:
64,192,75993,1,0,0:0:0:0:
320,192,76141,1,0,0:0:0:0:
192,192,76289,1,0,0:0:0:0:
320,192,76437,1,0,0:0:0:0:
192,192,76511,1,0,0:0:0:0:
320,192,76585,1,0,0:0:0:0:
192,192,76732,1,0,0:0:0:0:
448,192,76880,1,0,0:0:0:0:
64,192,77028,1,0,0:0:0:0:
192,192,77102,1,0,0:0:0:0:
64,192,77176,1,0,0:0:0:0:
192,192,77324,1,0,0:0:0:0:
320,192,77397,1,0,0:0:0:0:
448,192,77471,1,0,0:0:0:0:
320,192,77619,1,0,0:0:0:0:
448,192,77767,1,0,0:0:0:0:
320,0,77915,128,0,78358:1:0:0:0:
448,192,78506,1,0,0:0:0:0:
320,192,78580,1,0,0:0:0:0:
448,192,78654,1,0,0:0:0:0:
64,192,78727,1,0,0:0:0:0:
320,192,78801,1,0,0:0:0:0:
64,192,78875,1,0,0:0:0:0:
448,192,78949,1,0,0:0:0:0:
192,192,79023,1,0,0:0:0:0:
448,192,79097,1,0,0:0:0:0:
64,192,79171,1,0,0:0:0:0:
192,192,79245,1,0,0:0:0:0:
64,192,79319,1,0,0:0:0:0:
448,192,79392,1,0,0:0:0:0:
320,192,79466,1,0,0:0:0:0:
448,192,79540,1,0,0:0:0:0:
64,192,79614,1,0,0:0:0:0:
192,192,79688,1,0,0:0:0:0:
64,192,79762,1,0,0:0:0:0:
448,192,79836,1,0,0:0:0:0:
192,192,79910,1,0,0:0:0:0:
448,192,79984,1,0,0:0:0:0:
192,192,80058,1,0,0:0:0:0:
320,192,80131,1,0,0:0:0:0:
64,192,80205,1,0,0:0:0:0:
320,192,80279,1,0,0:0:0:0:
64,192,80353,1,0,0:0:0:0:
192,192,80427,1,0,0:0:0:0:
320,192,80501,1,0,0:0:0:0:
448,192,80575,1,0,0:0:0:0:
64,192,80649,1,0,0:0:0:0:
320,192,80723,1,0,0:0:0:0:
192,192,80796,1,0,0:0:0:0:
320,192,80870,1,0,0:0:0:0:
64,192,80944,1,0,0:0:0:0:
192,192,81018,1,0,0:0:0:0:
320,192,81092,1,0,0:0:0:0:
448,192,81166,1,0,0:0:0:0:
64,192,81240,1,0,0:0:0:0:
448,192,81314,1,0,0:0:0:0:
320,192,81388,1,0,0:0:0:0:
192,192,81461,1,0,0:0:0:0:
64,192,81535,1,0,0:0:0:0:
448,192,81609,1,0,0:0:0:0:
192,192,81683,1,0,0:0:0:0:
320,192,81757,1,0,0:0:0:0:
64,192,81831,1,0,0:0:0:0:
448,192,81905,1,0,0:0:0:0:
64,192,81979,1,0,0:0:0:0:
192,192,82053,1,0,0:0:0:0:
320,192,82126,1,0,0:0:0:0:
192,192,82200,1,0,0:0:0:0:
320,192,82274,1,0,0:0:0:0:
448,192,82348,1,0,0:0:0:0:
64,192,82422,1,0,0:0:0:0:
320,192,82496,1,0,0:0:0:0:
64,192,82570,1,0,0:0:0:0:
448,192,82644,1,0,0:0:0:0:
192,192,82718,1,0,0:0:0:0:
320,192,82791,1,0,0:0:0:0:
64,192,82865,1,0,0:0:0:0:
448,192,82939,1,0,0:0:0:0:
192,192,83013,1,0,0:0:0:0:
320,192,83087,1,0,0:0:0:0:
64,192,83161,1,0,0:0:0:0:
448,0,83235,128,0,85415:1:0:0:0:
64,192,85599,1,0,0:0:0:0:
192,192,85673,1,0,0:0:0:0:
320,192,85747,1,0,0:0:0:0:
448,192,85895,1,0,0:0:0:0:
64,192,86043,1,0,0:0:0:0:
320,192,86117,1,0,0:0:0:0:
192,192,86190,1,0,0:0:0:0:
320,192,86338,1,0,0:0:0:0:
192,192,86486,1,0,0:0:0:0:
448,192,86560,1,0,0:0:0:0:
192,192,86634,1,0,0:0:0:0:
448,192,86782,1,0,0:0:0:0:
64,192,86856,1,0,0:0:0:0:
448,192,86929,1,0,0:0:0:0:
64,192,87077,1,0,0:0:0:0:
192,192,87151,1,0,0:0:0:0:
64,192,87225,1,0,0:0:0:0:
448,192,87373,1,0,0:0:0:0:
192,192,87447,1,0,0:0:0:0:
320,192,87521,1,0,0:0:0:0:
64,192,87594,1,0,0:0:0:0:
448,0,87668,128,0,87779:1:0:0:0:
64,192,87964,1,0,0:0:0:0:
320,192,88112,1,0,0:0:0:0:
192,192,88259,1,0,0:0:0:0:
448,192,88407,1,0,0:0:0:0:
64,192,88555,1,0,0:0:0:0:
448,192,88629,1,0,0:0:0:0:
64,192,88703,1,0,0:0:0:0:
448,192,88851,1,0,0:0:0:0:
320,0,88998,128,0,89220:1:0:0:0:
192,192,89294,1,0,0:0:0:0:
64,192,89442,1,0,0:0:0:0:
448,192,89516,1,0,0:0:0:0:
192,192,89589,1,0,0:0:0:0:
448,192,89737,1,0,0:0:0:0:
192,192,89811,1,0,0:0:0:0:
320,192,89885,1,0,0:0:0:0:
64,192,90033,1,0,0:0:0:0:
448,0,90181,128,0,90402:1:0:0:0:
64,192,90476,1,0,0:0:0:0:
192,192,90624,1,0,0:0:0:0:
320,192,90698,1,0,0:0:0:0:
192,192,90772,1,0,0:0:0:0:
320,192,90920,1,0,0:0:0:0:
448,192,90993,1,0,0:0:0:0:
64,192,91067,1,0,0:0:0:0:
320,192,91215,1,0,0:0:0:0:
192,0,91363,128,0,91658:1:0:0:0:
448,192,91658,1,0,0:0:0:0:
192,192,91806,1,0,0:0:0:0:
64,192,91954,1,0,0:0:0:0:
192,0,92102,128,0,92434:1:0:0:0:
320,0,92545,128,0,92767:1:0:0:0:
64,192,92841,1,0,0:0:0:0:
192,192,92988,1,0,0:0:0:0:
320,192,93062,1,0,0:0:0:0:
192,192,93136,1,0,0:0:0:0:
320,192,93284,1,0,0:0:0:0:
448,192,93358,1,0,0:0:0:0:
64,192,93432,1,0,0:0:0:0:
448,192,93580,1,0,0:0:0:0:
64,0,93727,128,0,93949:1:0:0:0:
320,192,94023,1,0,0:0:0:0:
192,192,94171,1,0,0:0:0:0:
448,192,94245,1,0,0:0:0:0:
192,192,94319,1,0,0:0:0:0:
320,192,94466,1,0,0:0:0:0:
64,192,94540,1,0,0:0:0:0:
448,192,94614,1,0,0:0:0:0:
64,192,94762,1,0,0:0:0:0:
192,0,94910,128,0,95796:1:0:0:0:
448,192,96092,1,0,0:0:0:0:
64,192,96240,1,0,0:0:0:0:
64,192,96387,1,0,0:0:0:0:
320,192,96535,1,0,0:0:0:0:
320,192,96683,1,0,0:0:0:0:
192,192,96831,1,0,0:0:0:0:
192,192,96979,1,0,0:0:0:0:
448,192,97126,1,0,0:0:0:0:
448,0,97274,128,0,97496:1:0:0:0:
64,192,97570,1,0,0:0:0:0:
192,192,97718,1,0,0:0:0:0:
320,192,97791,1,0,0:0:0:0:
192,192,97865,1,0,0:0:0:0:
320,192,98013,1,0,0:0:0:0:
448,192,98087,1,0,0:0:0:0:
320,192,98161,1,0,0:0:0:0:
448,192,98309,1,0,0:0:0:0:
64,0,98456,128,0,98678:1:0:0:0:
320,192,98752,1,0,0:0:0:0:
192,192,98900,1,0,0:0:0:0:
448,192,98974,1,0,0:0:0:0:
64,192,99048,1,0,0:0:0:0:
448,192,99195,1,0,0:0:0:0:
320,192,99269,1,0,0:0:0:0:
192,192,99343,1,0,0:0:0:0:
64,192,99491,1,0,0:0:0:0:
192,0,99639,128,0,99897:1:0:0:0:
64,192,99934,1,0,0:0:0:0:
448,192,100082,1,0,0:0:0:0:
64,192,100156,1,0,0:0:0:0:
320,192,100230,1,0,0:0:0:0:
192,192,100378,1,0,0:0:0:0:
448,192,100452,1,0,0:0:0:0:
64,192,100525,1,0,0:0:0:0:
448,192,100673,1,0,0:0:0:0:
320,0,100821,128,0,101043:1:0:0:0:
448,192,101117,1,0,0:0:0:0:
64,192,101264,1,0,0:0:0:0:
320,192,101412,1,0,0:0:0:0:
192,0,101560,128,0,101892:1:0:0:0:
320,0,102003,128,0,102077:1:0:0:0:
320,192,102299,1,0,0:0:0:0:
64,192,102447,1,0,0:0:0:0:
320,192,102520,1,0,0:0:0:0:
64,192,102594,1,0,0:0:0:0:
448,192,102742,1,0,0:0:0:0:
192,192,102816,1,0,0:0:0:0:
448,192,102890,1,0,0:0:0:0:
64,192,103038,1,0,0:0:0:0:
192,0,103185,128,0,103481:1:0:0:0:
320,192,103481,1,0,0:0:0:0:
448,192,103629,1,0,0:0:0:0:
64,192,103703,1,0,0:0:0:0:
448,192,103777,1,0,0:0:0:0:
64,192,103924,1,0,0:0:0:0:
448,192,103998,1,0,0:0:0:0:
64,192,104072,1,0,0:0:0:0:
448,192,104220,1,0,0:0:0:0:
192,0,104368,128,0,105365:1:0:0:0:
64,192,105550,1,0,0:0:0:0:
320,192,105698,1,0,0:0:0:0:
320,192,105846,1,0,0:0:0:0:
192,192,105993,1,0,0:0:0:0:
192,192,106141,1,0,0:0:0:0:
448,192,106289,1,0,0:0:0:0:
448,192,106437,1,0,0:0:0:0:
64,192,106584,1,0,0:0:0:0:
320,0,106732,128,0,106843:1:0:0:0:
448,0,106732,128,0,106843:1:0:0:0:
320,192,107028,1,0,0:0:0:0:
192,192,107176,1,0,0:0:0:0:
192,192,107323,1,0,0:0:0:0:
64,192,107471,1,0,0:0:0:0:
64,192,107619,1,0,0:0:0:0:
448,192,107767,1,0,0:0:0:0:
192,192,107915,1,0,0:0:0:0:
320,192,108062,1,0,0:0:0:0:
320,192,108210,1,0,0:0:0:0:
192,192,108358,1,0,0:0:0:0:
192,192,108506,1,0,0:0:0:0:
448,192,108653,1,0,0:0:0:0:
64,0,108801,128,0,108949:1:0:0:0:
320,0,108801,128,0,108949:1:0:0:0:
64,0,109097,128,0,109245:1:0:0:0:
448,0,109097,128,0,109245:1:0:0:0:
448,192,109392,1,0,0:0:0:0:
320,192,109540,1,0,0:0:0:0:
64,192,109688,1,0,0:0:0:0:
320,192,109836,1,0,0:0:0:0:
448,192,109983,1,0,0:0:0:0:
64,192,110131,1,0,0:0:0:0:
320,192,110279,1,0,0:0:0:0:
448,0,110427,128,0,110833:1:0:0:0:
192,0,110427,128,0,110870:1:0:0:0:
320,0,111018,128,0,111277:1:0:0:0:
192,0,111018,128,0,111314:1:0:0:0:
64,0,111461,128,0,111572:1:0:0:0:
448,0,111461,128,0,111572:1:0:0:0:
448,192,111757,1,0,0:0:0:0:
320,192,111905,1,0,0:0:0:0:
320,192,112052,1,0,0:0:0:0:
192,192,112200,1,0,0:0:0:0:
192,192,112348,1,0,0:0:0:0:
64,192,112496,1,0,0:0:0:0:
448,192,112644,1,0,0:0:0:0:
192,192,112791,1,0,0:0:0:0:
192,192,112939,1,0,0:0:0:0:
320,192,113087,1,0,0:0:0:0:
320,192,113235,1,0,0:0:0:0:
192,192,113382,1,0,0:0:0:0:
64,0,113530,128,0,113678:1:0:0:0:
448,0,113530,128,0,113678:1:0:0:0:
320,0,113826,128,0,113937:1:0:0:0:
448,0,113826,128,0,113937:1:0:0:0:
448,192,114121,1,0,0:0:0:0:
320,192,114269,1,0,0:0:0:0:
64,192,114417,1,0,0:0:0:0:
320,192,114565,1,0,0:0:0:0:
448,192,114713,1,0,0:0:0:0:
64,192,114786,1,0,0:0:0:0:
320,192,114860,1,0,0:0:0:0:
64,192,115008,1,0,0:0:0:0:
448,0,115156,128,0,115562:1:0:0:0:
192,0,115156,128,0,115599:1:0:0:0:
64,0,115747,128,0,116006:1:0:0:0:
320,0,115747,128,0,116006:1:0:0:0:
320,0,116190,128,0,116375:1:0:0:0:
192,192,116486,1,0,0:0:0:0:
448,192,116634,1,0,0:0:0:0:
448,192,116781,1,0,0:0:0:0:
320,192,116929,1,0,0:0:0:0:
320,192,117077,1,0,0:0:0:0:
64,192,117225,1,0,0:0:0:0:
320,192,117373,1,0,0:0:0:0:
448,192,117520,1,0,0:0:0:0:
448,192,117668,1,0,0:0:0:0:
64,192,117816,1,0,0:0:0:0:
64,192,117964,1,0,0:0:0:0:
320,192,118112,1,0,0:0:0:0:
448,0,118259,128,0,118444:1:0:0:0:
192,0,118259,128,0,118481:1:0:0:0:
64,0,118555,128,0,118666:1:0:0:0:
192,0,118555,128,0,118703:1:0:0:0:
192,192,118850,1,0,0:0:0:0:
320,192,118998,1,0,0:0:0:0:
320,192,119146,1,0,0:0:0:0:
448,192,119294,1,0,0:0:0:0:
448,192,119442,1,0,0:0:0:0:
64,192,119589,1,0,0:0:0:0:
320,192,119737,1,0,0:0:0:0:
64,0,119885,128,0,120291:1:0:0:0:
448,0,119885,128,0,120291:1:0:0:0:
64,0,120476,128,0,120772:1:0:0:0:
320,0,120476,128,0,120772:1:0:0:0:
192,0,120919,128,0,121141:1:0:0:0:
448,192,121215,1,0,0:0:0:0:
192,192,121363,1,0,0:0:0:0:
64,192,121511,1,0,0:0:0:0:
192,192,121658,1,0,0:0:0:0:
192,192,121806,1,0,0:0:0:0:
448,192,121954,1,0,0:0:0:0:
448,192,122102,1,0,0:0:0:0:
64,192,122249,1,0,0:0:0:0:
192,192,122397,1,0,0:0:0:0:
320,192,122545,1,0,0:0:0:0:
320,192,122693,1,0,0:0:0:0:
448,192,122841,1,0,0:0:0:0:
64,0,122988,128,0,123136:1:0:0:0:
448,0,122988,128,0,123136:1:0:0:0:
448,0,123284,128,0,123432:1:0:0:0:
192,0,123284,128,0,123469:1:0:0:0:
192,192,123579,1,0,0:0:0:0:
320,192,123727,1,0,0:0:0:0:
448,192,123875,1,0,0:0:0:0:
320,192,124023,1,0,0:0:0:0:
64,192,124171,1,0,0:0:0:0:
192,192,124318,1,0,0:0:0:0:
320,192,124466,1,0,0:0:0:0:
64,0,124614,128,0,125020:1:0:0:0:
448,0,124614,128,0,125020:1:0:0:0:
448,0,125205,128,0,125611:1:0:0:0:
192,0,125205,128,0,125648:1:0:0:0:
448,192,125796,1,0,0:0:0:0:
192,192,125944,1,0,0:0:0:0:
64,192,126092,1,0,0:0:0:0:
192,192,126240,1,0,0:0:0:0:
448,192,126387,1,0,0:0:0:0:
192,192,126535,1,0,0:0:0:0:
448,192,126683,1,0,0:0:0:0:
64,192,126757,1,0,0:0:0:0:
192,192,126831,1,0,0:0:0:0:
64,192,126978,1,0,0:0:0:0:
192,192,127052,1,0,0:0:0:0:
320,192,127126,1,0,0:0:0:0:
448,192,127274,1,0,0:0:0:0:
320,192,127422,1,0,0:0:0:0:
64,192,127570,1,0,0:0:0:0:
320,192,127717,1,0,0:0:0:0:
448,192,127865,1,0,0:0:0:0:
64,192,128013,1,0,0:0:0:0:
448,192,128161,1,0,0:0:0:0:
192,192,128309,1,0,0:0:0:0:
448,192,128456,1,0,0:0:0:0:
192,192,128530,1,0,0:0:0:0:
448,192,128604,1,0,0:0:0:0:
64,192,128752,1,0,0:0:0:0:
320,192,128900,1,0,0:0:0:0:
192,192,129047,1,0,0:0:0:0:
448,192,129121,1,0,0:0:0:0:
192,192,129195,1,0,0:0:0:0:
448,192,129343,1,0,0:0:0:0:
64,192,129417,1,0,0:0:0:0:
192,192,129491,1,0,0:0:0:0:
64,192,129639,1,0,0:0:0:0:
192,192,129786,1,0,0:0:0:0:
320,0,129934,128,0,130377:1:0:0:0:
448,192,130525,1,0,0:0:0:0:
320,192,130599,1,0,0:0:0:0:
448,192,130673,1,0,0:0:0:0:
64,192,130747,1,0,0:0:0:0:
320,192,130821,1,0,0:0:0:0:
64,192,130895,1,0,0:0:0:0:
448,192,130969,1,0,0:0:0:0:
192,192,131042,1,0,0:0:0:0:
448,192,131116,1,0,0:0:0:0:
64,192,131190,1,0,0:0:0:0:
192,192,131264,1,0,0:0:0:0:
64,192,131338,1,0,0:0:0:0:
448,192,131412,1,0,0:0:0:0:
320,192,131486,1,0,0:0:0:0:
448,192,131560,1,0,0:0:0:0:
64,192,131634,1,0,0:0:0:0:
192,192,131708,1,0,0:0:0:0:
64,192,131781,1,0,0:0:0:0:
448,192,131855,1,0,0:0:0:0:
192,192,131929,1,0,0:0:0:0:
448,192,132003,1,0,0:0:0:0:
64,192,132077,1,0,0:0:0:0:
320,192,132151,1,0,0:0:0:0:
64,192,132225,1,0,0:0:0:0:
320,192,132299,1,0,0:0:0:0:
64,192,132373,1,0,0:0:0:0:
192,192,132446,1,0,0:0:0:0:
320,192,132520,1,0,0:0:0:0:
448,192,132594,1,0,0:0:0:0:
64,192,132668,1,0,0:0:0:0:
320,192,132742,1,0,0:0:0:0:
192,192,132816,1,0,0:0:0:0:
448,192,132890,1,0,0:0:0:0:
192,192,132964,1,0,0:0:0:0:
448,192,133038,1,0,0:0:0:0:
64,192,133111,1,0,0:0:0:0:
448,192,133185,1,0,0:0:0:0:
64,192,133259,1,0,0:0:0:0:
192,192,133333,1,0,0:0:0:0:
320,192,133407,1,0,0:0:0:0:
448,192,133481,1,0,0:0:0:0:
320,192,133555,1,0,0:0:0:0:
448,192,133629,1,0,0:0:0:0:
64,192,133703,1,0,0:0:0:0:
320,192,133776,1,0,0:0:0:0:
64,192,133850,1,0,0:0:0:0:
448,192,133924,1,0,0:0:0:0:
192,192,133998,1,0,0:0:0:0:
448,192,134072,1,0,0:0:0:0:
64,192,134146,1,0,0:0:0:0:
192,192,134220,1,0,0:0:0:0:
64,192,134294,1,0,0:0:0:0:
192,192,134368,1,0,0:0:0:0:
320,192,134441,1,0,0:0:0:0:
448,192,134515,1,0,0:0:0:0:
64,192,134589,1,0,0:0:0:0:
320,192,134663,1,0,0:0:0:0:
192,192,134737,1,0,0:0:0:0:
448,192,134811,1,0,0:0:0:0:
64,192,134885,1,0,0:0:0:0:
320,192,134959,1,0,0:0:0:0:
192,192,135033,1,0,0:0:0:0:
448,192,135107,1,0,0:0:0:0:
64,192,135180,1,0,0:0:0:0:
448,192,135254,1,0,0:0:0:0:
192,192,135402,1,0,0:0:0:0:
320,192,135550,1,0,0:0:0:0:
64,192,135698,1,0,0:0:0:0:
320,192,135845,1,0,0:0:0:0:
192,192,135993,1,0,0:0:0:0:
448,192,136141,1,0,0:0:0:0:
192,192,136215,1,0,0:0:0:0:
448,192,136289,1,0,0:0:0:0:
64,192,136437,1,0,0:0:0:0:
192,192,136510,1,0,0:0:0:0:
320,192,136584,1,0,0:0:0:0:
448,192,136732,1,0,0:0:0:0:
192,192,136880,1,0,0:0:0:0:
64,192,137028,1,0,0:0:0:0:
192,192,137175,1,0,0:0:0:0:
448,192,137323,1,0,0:0:0:0:
64,192,137471,1,0,0:0:0:0:
192,192,137619,1,0,0:0:0:0:
320,192,137767,1,0,0:0:0:0:
448,192,137914,1,0,0:0:0:0:
64,192,137988,1,0,0:0:0:0:
448,192,138062,1,0,0:0:0:0:
64,192,138210,1,0,0:0:0:0:
192,192,138358,1,0,0:0:0:0:
64,192,138506,1,0,0:0:0:0:
192,192,138579,1,0,0:0:0:0:
320,192,138653,1,0,0:0:0:0:
192,192,138801,1,0,0:0:0:0:
320,192,138875,1,0,0:0:0:0:
448,192,138949,1,0,0:0:0:0:
64,192,139097,1,0,0:0:0:0:
320,192,139244,1,0,0:0:0:0:
192,0,139392,128,0,139836:1:0:0:0:
448,192,139983,1,0,0:0:0:0:
192,192,140057,1,0,0:0:0:0:
320,192,140131,1,0,0:0:0:0:
64,192,140205,1,0,0:0:0:0:
448,192,140279,1,0,0:0:0:0:
192,192,140353,1,0,0:0:0:0:
320,192,140427,1,0,0:0:0:0:
64,192,140501,1,0,0:0:0:0:
448,192,140574,1,0,0:0:0:0:
320,192,140648,1,0,0:0:0:0:
192,192,140722,1,0,0:0:0:0:
64,192,140796,1,0,0:0:0:0:
448,192,140870,1,0,0:0:0:0:
320,192,140944,1,0,0:0:0:0:
192,192,141018,1,0,0:0:0:0:
64,192,141092,1,0,0:0:0:0:
448,192,141166,1,0,0:0:0:0:
64,192,141239,1,0,0:0:0:0:
448,192,141313,1,0,0:0:0:0:
192,192,141387,1,0,0:0:0:0:
448,192,141461,1,0,0:0:0:0:
64,192,141535,1,0,0:0:0:0:
448,192,141609,1,0,0:0:0:0:
320,192,141683,1,0,0:0:0:0:
192,192,141757,1,0,0:0:0:0:
320,192,141831,1,0,0:0:0:0:
192,192,141905,1,0,0:0:0:0:
64,192,141978,1,0,0:0:0:0:
448,192,142052,1,0,0:0:0:0:
64,192,142126,1,0,0:0:0:0:
448,192,142200,1,0,0:0:0:0:
320,192,142274,1,0,0:0:0:0:
192,192,142348,1,0,0:0:0:0:
64,192,142422,1,0,0:0:0:0:
320,192,142496,1,0,0:0:0:0:
192,192,142570,1,0,0:0:0:0:
448,192,142643,1,0,0:0:0:0:
192,192,142717,1,0,0:0:0:0:
320,192,142791,1,0,0:0:0:0:
64,192,142865,1,0,0:0:0:0:
320,192,142939,1,0,0:0:0:0:
192,192,143013,1,0,0:0:0:0:
448,192,143087,1,0,0:0:0:0:
64,192,143161,1,0,0:0:0:0:
320,192,143235,1,0,0:0:0:0:
64,192,143308,1,0,0:0:0:0:
192,192,143382,1,0,0:0:0:0:
320,192,143456,1,0,0:0:0:0:
448,192,143530,1,0,0:0:0:0:
64,192,143604,1,0,0:0:0:0:
448,192,143678,1,0,0:0:0:0:
64,192,143752,1,0,0:0:0:0:
320,192,143826,1,0,0:0:0:0:
64,192,143900,1,0,0:0:0:0:
320,192,143973,1,0,0:0:0:0:
192,192,144047,1,0,0:0:0:0:
448,192,144121,1,0,0:0:0:0:
64,192,144195,1,0,0:0:0:0:
448,192,144269,1,0,0:0:0:0:
320,192,144343,1,0,0:0:0:0:
192,192,144417,1,0,0:0:0:0:
64,192,144491,1,0,0:0:0:0:
448,192,144565,1,0,0:0:0:0:
192,192,144638,1,0,0:0:0:0:
320,0,144712,128,0,146929:1:0:0:0:
64,192,147077,1,0,0:0:0:0:
320,192,147151,1,0,0:0:0:0:
192,192,147225,1,0,0:0:0:0:
448,192,147372,1,0,0:0:0:0:
64,192,147520,1,0,0:0:0:0:
192,192,147594,1,0,0:0:0:0:
320,192,147668,1,0,0:0:0:0:
192,192,147816,1,0,0:0:0:0:
64,192,147964,1,0,0:0:0:0:
192,192,148037,1,0,0:0:0:0:
320,192,148111,1,0,0:0:0:0:
448,192,148259,1,0,0:0:0:0:
192,192,148333,1,0,0:0:0:0:
320,192,148407,1,0,0:0:0:0:
64,192,148555,1,0,0:0:0:0:
448,192,148629,1,0,0:0:0:0:
64,192,148702,1,0,0:0:0:0:
448,192,148850,1,0,0:0:0:0:
64,192,148924,1,0,0:0:0:0:
448,192,148998,1,0,0:0:0:0:
64,192,149072,1,0,0:0:0:0:
320,192,149146,1,0,0:0:0:0:
192,192,149449,1,0,0:0:0:0:
320,192,149604,1,0,0:0:0:0:
64,192,149759,1,0,0:0:0:0:
448,192,149759,1,0,0:0:0:0:
64,192,150070,1,0,0:0:0:0:
192,192,150225,1,0,0:0:0:0:
448,192,150225,1,0,0:0:0:0:
448,192,150536,1,0,0:0:0:0:
192,192,150691,1,0,0:0:0:0:
320,192,150691,1,0,0:0:0:0:
192,192,151002,1,0,0:0:0:0:
64,192,151157,1,0,0:0:0:0:
320,192,151157,1,0,0:0:0:0:
320,192,151468,1,0,0:0:0:0:
64,192,151623,1,0,0:0:0:0:
448,192,151623,1,0,0:0:0:0:
64,192,151933,1,0,0:0:0:0:
192,192,152089,1,0,0:0:0:0:
320,192,152089,1,0,0:0:0:0:
192,192,152399,1,0,0:0:0:0:
320,192,152554,1,0,0:0:0:0:
448,192,152554,1,0,0:0:0:0:
320,192,152865,1,0,0:0:0:0:
64,192,153020,1,0,0:0:0:0:
448,192,153020,1,0,0:0:0:0:
192,192,153331,1,0,0:0:0:0:
64,0,153486,128,0,154107:1:0:0:0:
448,0,153486,128,0,154107:1:0:0:0:
64,192,154573,1,0,0:0:0:0:
320,192,154728,1,0,0:0:0:0:
448,192,154728,1,0,0:0:0:0:
320,192,155039,1,0,0:0:0:0:
64,192,155194,1,0,0:0:0:0:
192,192,155194,1,0,0:0:0:0:
320,192,155505,1,0,0:0:0:0:
192,192,155660,1,0,0:0:0:0:
448,192,155660,1,0,0:0:0:0:
448,192,155971,1,0,0:0:0:0:
64,192,156126,1,0,0:0:0:0:
448,192,156126,1,0,0:0:0:0:
64,192,156436,1,0,0:0:0:0:
192,192,156592,1,0,0:0:0:0:
320,192,156592,1,0,0:0:0:0:
320,192,156902,1,0,0:0:0:0:
192,192,157058,1,0,0:0:0:0:
448,192,157058,1,0,0:0:0:0:
64,192,157368,1,0,0:0:0:0:
320,192,157523,1,0,0:0:0:0:
448,192,157523,1,0,0:0:0:0:
192,192,157834,1,0,0:0:0:0:
64,192,157989,1,0,0:0:0:0:
320,192,157989,1,0,0:0:0:0:
192,192,158300,1,0,0:0:0:0:
64,192,158455,1,0,0:0:0:0:
448,192,158455,1,0,0:0:0:0:
448,0,158766,128,0,159232:1:0:0:0:
192,0,159387,128,0,160008:1:0:0:0:
320,192,160008,1,0,0:0:0:0:
64,192,160163,1,0,0:0:0:0:
448,192,160163,1,0,0:0:0:0:
192,192,160474,1,0,0:0:0:0:
320,192,160629,1,0,0:0:0:0:
448,192,160629,1,0,0:0:0:0:
448,192,160940,1,0,0:0:0:0:
64,192,161095,1,0,0:0:0:0:
192,192,161095,1,0,0:0:0:0:
320,192,161405,1,0,0:0:0:0:
64,192,161561,1,0,0:0:0:0:
448,192,161561,1,0,0:0:0:0:
192,192,161871,1,0,0:0:0:0:
64,192,162027,1,0,0:0:0:0:
320,192,162027,1,0,0:0:0:0:
448,192,162337,1,0,0:0:0:0:
64,192,162492,1,0,0:0:0:0:
192,192,162492,1,0,0:0:0:0:
64,192,162803,1,0,0:0:0:0:
320,192,162958,1,0,0:0:0:0:
448,192,162958,1,0,0:0:0:0:
448,192,163269,1,0,0:0:0:0:
64,192,163424,1,0,0:0:0:0:
320,192,163424,1,0,0:0:0:0:
192,192,163735,1,0,0:0:0:0:
64,192,163890,1,0,0:0:0:0:
448,192,163890,1,0,0:0:0:0:
448,192,164200,1,0,0:0:0:0:
320,0,164356,128,0,164938:1:0:0:0:
448,0,164472,128,0,164938:1:0:0:0:
192,192,165132,1,0,0:0:0:0:
64,192,165287,1,0,0:0:0:0:
448,192,165287,1,0,0:0:0:0:
64,192,165598,1,0,0:0:0:0:
192,192,165753,1,0,0:0:0:0:
448,192,165753,1,0,0:0:0:0:
448,192,166064,1,0,0:0:0:0:
192,192,166219,1,0,0:0:0:0:
320,192,166219,1,0,0:0:0:0:
192,192,166530,1,0,0:0:0:0:
64,192,166685,1,0,0:0:0:0:
320,192,166685,1,0,0:0:0:0:
448,192,166995,1,0,0:0:0:0:
64,192,167151,1,0,0:0:0:0:
192,192,167151,1,0,0:0:0:0:
320,192,167461,1,0,0:0:0:0:
64,192,167617,1,0,0:0:0:0:
448,192,167617,1,0,0:0:0:0:
192,192,167927,1,0,0:0:0:0:
64,192,168082,1,0,0:0:0:0:
320,192,168082,1,0,0:0:0:0:
320,192,168393,1,0,0:0:0:0:
192,192,168548,1,0,0:0:0:0:
448,192,168548,1,0,0:0:0:0:
320,192,168859,1,0,0:0:0:0:
64,0,169014,128,0,169273:1:0:0:0:
192,0,169325,128,0,169946:1:0:0:0:
320,0,169946,128,0,170528:1:0:0:0:
448,0,170567,128,0,171149:1:0:0:0:
64,0,171188,128,0,171770:1:0:0:0:
320,0,171809,128,0,172954:1:0:0:0:
192,0,172991,128,0,174026:1:0:0:0:
448,192,174174,1,0,0:0:0:0:
192,192,174248,1,0,0:0:0:0:
448,192,174321,1,0,0:0:0:0:
192,192,174395,1,0,0:0:0:0:
320,192,174469,1,0,0:0:0:0:
64,192,174543,1,0,0:0:0:0:
320,192,174617,1,0,0:0:0:0:
64,192,174691,1,0,0:0:0:0:
448,192,174765,1,0,0:0:0:0:
320,192,174839,1,0,0:0:0:0:
448,192,174913,1,0,0:0:0:0:
320,192,174986,1,0,0:0:0:0:
192,192,175060,1,0,0:0:0:0:
64,192,175134,1,0,0:0:0:0:
192,192,175208,1,0,0:0:0:0:
64,192,175282,1,0,0:0:0:0:
448,192,175356,1,0,0:0:0:0:
192,192,175430,1,0,0:0:0:0:
448,192,175504,1,0,0:0:0:0:
192,192,175578,1,0,0:0:0:0:
320,192,175652,1,0,0:0:0:0:
64,192,175725,1,0,0:0:0:0:
192,192,175799,1,0,0:0:0:0:
320,192,175873,1,0,0:0:0:0:
448,192,175947,1,0,0:0:0:0:
64,192,176021,1,0,0:0:0:0:
320,192,176095,1,0,0:0:0:0:
192,192,176169,1,0,0:0:0:0:
448,192,176243,1,0,0:0:0:0:
64,192,176317,1,0,0:0:0:0:
448,192,176390,1,0,0:0:0:0:
64,192,176464,1,0,0:0:0:0:
192,0,176538,128,0,177720:1:0:0:0:
64,0,177720,128,0,178607:1:0:0:0:
192,192,178755,1,0,0:0:0:0:
320,192,178903,1,0,0:0:0:0:
448,192,178977,1,0,0:0:0:0:
64,192,179051,1,0,0:0:0:0:
320,192,179124,1,0,0:0:0:0:
64,192,179198,1,0,0:0:0:0:
448,192,179272,1,0,0:0:0:0:
64,192,179346,1,0,0:0:0:0:
192,192,179420,1,0,0:0:0:0:
320,192,179494,1,0,0:0:0:0:
448,192,179568,1,0,0:0:0:0:
64,192,179642,1,0,0:0:0:0:
320,192,179716,1,0,0:0:0:0:
192,192,179789,1,0,0:0:0:0:
448,192,179863,1,0,0:0:0:0:
64,192,179937,1,0,0:0:0:0:
192,192,180011,1,0,0:0:0:0:
64,192,180085,1,0,0:0:0:0:
448,192,180159,1,0,0:0:0:0:
320,192,180233,1,0,0:0:0:0:
448,192,180307,1,0,0:0:0:0:
64,192,180381,1,0,0:0:0:0:
320,192,180454,1,0,0:0:0:0:
64,192,180528,1,0,0:0:0:0:
448,192,180602,1,0,0:0:0:0:
192,192,180676,1,0,0:0:0:0:
448,192,180750,1,0,0:0:0:0:
64,192,180824,1,0,0:0:0:0:
192,192,180898,1,0,0:0:0:0:
320,192,180972,1,0,0:0:0:0:
448,0,181119,128,0,181193:1:0:0:0:
448,192,181415,1,0,0:0:0:0:
192,192,181563,1,0,0:0:0:0:
64,192,181711,1,0,0:0:0:0:
192,0,181858,128,0,182228:1:0:0:0:
448,0,182302,128,0,182523:1:0:0:0:
64,192,182597,1,0,0:0:0:0:
192,192,182745,1,0,0:0:0:0:
448,192,182893,1,0,0:0:0:0:
192,0,183041,128,0,183336:1:0:0:0:
320,0,183484,128,0,183706:1:0:0:0:
448,192,183780,1,0,0:0:0:0:
320,192,183927,1,0,0:0:0:0:
64,192,184075,1,0,0:0:0:0:
320,192,184223,1,0,0:0:0:0:
448,192,184371,1,0,0:0:0:0:
64,192,184519,1,0,0:0:0:0:
320,192,184666,1,0,0:0:0:0:
448,192,184814,1,0,0:0:0:0:
320,192,184962,1,0,0:0:0:0:
64,192,185110,1,0,0:0:0:0:
448,192,185257,1,0,0:0:0:0:
64,0,185405,128,0,185701:1:0:0:0:
320,192,185849,1,0,0:0:0:0:
64,192,185996,1,0,0:0:0:0:
192,192,186046,1,0,0:0:0:0:
64,192,186095,1,0,0:0:0:0:
192,192,186144,1,0,0:0:0:0:
320,192,186218,1,0,0:0:0:0:
448,192,186292,1,0,0:0:0:0:
320,192,186366,1,0,0:0:0:0:
192,192,186440,1,0,0:0:0:0:
64,192,186514,1,0,0:0:0:0:
448,192,186587,1,0,0:0:0:0:
192,192,186661,1,0,0:0:0:0:
320,192,186735,1,0,0:0:0:0:
64,192,186809,1,0,0:0:0:0:
320,192,186883,1,0,0:0:0:0:
192,192,186957,1,0,0:0:0:0:
448,192,187031,1,0,0:0:0:0:
64,192,187105,1,0,0:0:0:0:
448,192,187179,1,0,0:0:0:0:
64,192,187228,1,0,0:0:0:0:
448,192,187277,1,0,0:0:0:0:
64,192,187326,1,0,0:0:0:0:
192,192,187400,1,0,0:0:0:0:
320,192,187474,1,0,0:0:0:0:
448,192,187548,1,0,0:0:0:0:
320,192,187622,1,0,0:0:0:0:
448,192,187696,1,0,0:0:0:0:
64,192,187770,1,0,0:0:0:0:
320,192,187844,1,0,0:0:0:0:
192,192,187918,1,0,0:0:0:0:
448,192,187991,1,0,0:0:0:0:
320,192,188065,1,0,0:0:0:0:
448,192,188139,1,0,0:0:0:0:
64,192,188213,1,0,0:0:0:0:
448,192,188287,1,0,0:0:0:0:
64,192,188361,1,0,0:0:0:0:
320,192,188459,1,0,0:0:0:0:
448,192,188558,1,0,0:0:0:0:
320,192,188656,1,0,0:0:0:0:
64,192,188755,1,0,0:0:0:0:
448,192,188853,1,0,0:0:0:0:
320,192,188952,1,0,0:0:0:0:
192,192,189051,1,0,0:0:0:0:
64,192,189149,1,0,0:0:0:0:
448,192,189248,1,0,0:0:0:0:
192,192,189346,1,0,0:0:0:0:
320,192,189445,1,0,0:0:0:0:
192,192,189543,1,0,0:0:0:0:
448,192,189642,1,0,0:0:0:0:
64,192,189740,1,0,0:0:0:0:
192,192,189839,1,0,0:0:0:0:
320,192,189937,1,0,0:0:0:0:
448,192,190036,1,0,0:0:0:0:
64,0,190134,128,0,190725:1:0:0:0:
448,0,190725,128,0,192499:1:0:0:0:
64,0,190873,128,0,192499:1:0:0:0:
64,0,192647,128,0,192757:1:0:0:0:
320,0,192647,128,0,192757:1:0:0:0:
448,0,192942,128,0,193053:1:0:0:0:
192,0,192942,128,0,193090:1:0:0:0:
448,192,193238,1,0,0:0:0:0:
320,192,193386,1,0,0:0:0:0:
64,192,193533,1,0,0:0:0:0:
320,192,193681,1,0,0:0:0:0:
448,192,193829,1,0,0:0:0:0:
192,192,193977,1,0,0:0:0:0:
320,192,194124,1,0,0:0:0:0:
64,0,194272,128,0,194642:1:0:0:0:
448,0,194272,128,0,194642:1:0:0:0:
64,0,194863,128,0,195233:1:0:0:0:
192,0,194863,128,0,195270:1:0:0:0:
320,0,195307,128,0,195528:1:0:0:0:
448,192,195602,1,0,0:0:0:0:
192,192,195750,1,0,0:0:0:0:
192,192,195898,1,0,0:0:0:0:
320,192,196046,1,0,0:0:0:0:
320,192,196193,1,0,0:0:0:0:
64,192,196341,1,0,0:0:0:0:
448,192,196489,1,0,0:0:0:0:
320,192,196637,1,0,0:0:0:0:
320,192,196785,1,0,0:0:0:0:
192,192,196932,1,0,0:0:0:0:
192,192,197080,1,0,0:0:0:0:
64,192,197228,1,0,0:0:0:0:
448,0,197376,128,0,197523:1:0:0:0:
192,0,197376,128,0,197560:1:0:0:0:
64,0,197671,128,0,197782:1:0:0:0:
320,0,197671,128,0,197782:1:0:0:0:
64,192,197967,1,0,0:0:0:0:
448,192,198115,1,0,0:0:0:0:
320,192,198262,1,0,0:0:0:0:
192,192,198410,1,0,0:0:0:0:
64,192,198558,1,0,0:0:0:0:
192,192,198632,1,0,0:0:0:0:
320,192,198706,1,0,0:0:0:0:
448,192,198853,1,0,0:0:0:0:
320,0,199001,128,0,199371:1:0:0:0:
448,0,199001,128,0,199371:1:0:0:0:
64,0,199592,128,0,199814:1:0:0:0:
448,0,199592,128,0,199814:1:0:0:0:
64,0,200036,128,0,200257:1:0:0:0:
320,192,200331,1,0,0:0:0:0:
192,192,200479,1,0,0:0:0:0:
192,192,200627,1,0,0:0:0:0:
448,192,200775,1,0,0:0:0:0:
448,192,200922,1,0,0:0:0:0:
64,192,201070,1,0,0:0:0:0:
192,192,201218,1,0,0:0:0:0:
320,192,201366,1,0,0:0:0:0:
320,192,201514,1,0,0:0:0:0:
448,192,201661,1,0,0:0:0:0:
448,192,201809,1,0,0:0:0:0:
64,192,201957,1,0,0:0:0:0:
320,0,202105,128,0,202253:1:0:0:0:
192,0,202105,128,0,202289:1:0:0:0:
64,0,202400,128,0,202548:1:0:0:0:
320,0,202400,128,0,202548:1:0:0:0:
64,192,202696,1,0,0:0:0:0:
320,192,202844,1,0,0:0:0:0:
192,192,202991,1,0,0:0:0:0:
448,192,203139,1,0,0:0:0:0:
192,192,203287,1,0,0:0:0:0:
320,192,203435,1,0,0:0:0:0:
64,192,203583,1,0,0:0:0:0:
320,0,203730,128,0,204174:1:0:0:0:
448,0,203730,128,0,204174:1:0:0:0:
64,0,204321,128,0,204580:1:0:0:0:
448,0,204321,128,0,204580:1:0:0:0:
448,0,204765,128,0,204950:1:0:0:0:
64,192,205060,1,0,0:0:0:0:
320,192,205208,1,0,0:0:0:0:
320,192,205356,1,0,0:0:0:0:
192,192,205504,1,0,0:0:0:0:
192,192,205652,1,0,0:0:0:0:
448,192,205799,1,0,0:0:0:0:
64,192,205947,1,0,0:0:0:0:
192,192,206095,1,0,0:0:0:0:
192,192,206243,1,0,0:0:0:0:
320,192,206390,1,0,0:0:0:0:
320,192,206538,1,0,0:0:0:0:
448,192,206686,1,0,0:0:0:0:
320,0,206834,128,0,206982:1:0:0:0:
448,0,206834,128,0,206982:1:0:0:0:
64,0,207129,128,0,207277:1:0:0:0:
192,0,207129,128,0,207314:1:0:0:0:
192,192,207425,1,0,0:0:0:0:
64,192,207573,1,0,0:0:0:0:
64,192,207720,1,0,0:0:0:0:
448,192,207868,1,0,0:0:0:0:
448,192,208016,1,0,0:0:0:0:
192,192,208164,1,0,0:0:0:0:
320,192,208312,1,0,0:0:0:0:
64,0,208459,128,0,208829:1:0:0:0:
320,0,208459,128,0,208829:1:0:0:0:
64,0,209051,128,0,209457:1:0:0:0:
448,0,209051,128,0,209457:1:0:0:0:
64,192,209642,1,0,0:0:0:0:
192,192,209789,1,0,0:0:0:0:
320,192,209937,1,0,0:0:0:0:
448,192,210085,1,0,0:0:0:0:
64,192,210233,1,0,0:0:0:0:
320,192,210381,1,0,0:0:0:0:
64,192,210528,1,0,0:0:0:0:
448,192,210602,1,0,0:0:0:0:
192,192,210676,1,0,0:0:0:0:
320,192,210824,1,0,0:0:0:0:
64,192,210898,1,0,0:0:0:0:
448,192,210972,1,0,0:0:0:0:
320,192,211119,1,0,0:0:0:0:
64,192,211267,1,0,0:0:0:0:
320,192,211415,1,0,0:0:0:0:
448,192,211563,1,0,0:0:0:0:
64,192,211711,1,0,0:0:0:0:
320,192,211858,1,0,0:0:0:0:
64,192,212006,1,0,0:0:0:0:
320,192,212080,1,0,0:0:0:0:
192,192,212154,1,0,0:0:0:0:
320,192,212302,1,0,0:0:0:0:
64,192,212450,1,0,0:0:0:0:
192,192,212597,1,0,0:0:0:0:
320,192,212745,1,0,0:0:0:0:
448,192,212893,1,0,0:0:0:0:
320,192,212967,1,0,0:0:0:0:
448,192,213041,1,0,0:0:0:0:
64,192,213188,1,0,0:0:0:0:
448,192,213262,1,0,0:0:0:0:
64,192,213336,1,0,0:0:0:0:
320,192,213484,1,0,0:0:0:0:
192,192,213632,1,0,0:0:0:0:
448,0,213780,128,0,214186:1:0:0:0:
64,192,214371,1,0,0:0:0:0:
192,192,214445,1,0,0:0:0:0:
64,192,214519,1,0,0:0:0:0:
192,192,214592,1,0,0:0:0:0:
64,192,214666,1,0,0:0:0:0:
192,192,214740,1,0,0:0:0:0:
320,192,214814,1,0,0:0:0:0:
448,192,214888,1,0,0:0:0:0:
320,192,214962,1,0,0:0:0:0:
448,192,215036,1,0,0:0:0:0:
320,192,215110,1,0,0:0:0:0:
448,192,215184,1,0,0:0:0:0:
64,192,215257,1,0,0:0:0:0:
448,192,215331,1,0,0:0:0:0:
64,192,215405,1,0,0:0:0:0:
448,192,215479,1,0,0:0:0:0:
192,192,215553,1,0,0:0:0:0:
320,192,215627,1,0,0:0:0:0:
64,192,215701,1,0,0:0:0:0:
192,192,215775,1,0,0:0:0:0:
320,192,215849,1,0,0:0:0:0:
448,192,215922,1,0,0:0:0:0:
64,192,215996,1,0,0:0:0:0:
448,192,216070,1,0,0:0:0:0:
64,192,216144,1,0,0:0:0:0:
320,192,216218,1,0,0:0:0:0:
192,192,216292,1,0,0:0:0:0:
448,192,216366,1,0,0:0:0:0:
64,192,216440,1,0,0:0:0:0:
448,192,216514,1,0,0:0:0:0:
64,192,216587,1,0,0:0:0:0:
448,192,216661,1,0,0:0:0:0:
320,192,216735,1,0,0:0:0:0:
192,192,216809,1,0,0:0:0:0:
320,192,216883,1,0,0:0:0:0:
192,192,216957,1,0,0:0:0:0:
64,192,217031,1,0,0:0:0:0:
448,192,217105,1,0,0:0:0:0:
192,192,217179,1,0,0:0:0:0:
320,192,217253,1,0,0:0:0:0:
64,192,217326,1,0,0:0:0:0:
320,192,217400,1,0,0:0:0:0:
64,192,217474,1,0,0:0:0:0:
448,192,217548,1,0,0:0:0:0:
320,192,217622,1,0,0:0:0:0:
448,192,217696,1,0,0:0:0:0:
192,192,217770,1,0,0:0:0:0:
320,192,217844,1,0,0:0:0:0:
64,192,217918,1,0,0:0:0:0:
448,192,217991,1,0,0:0:0:0:
64,192,218065,1,0,0:0:0:0:
320,192,218139,1,0,0:0:0:0:
192,192,218213,1,0,0:0:0:0:
448,192,218287,1,0,0:0:0:0:
64,192,218361,1,0,0:0:0:0:
192,192,218435,1,0,0:0:0:0:
320,192,218509,1,0,0:0:0:0:
448,192,218583,1,0,0:0:0:0:
192,192,218656,1,0,0:0:0:0:
320,192,218730,1,0,0:0:0:0:
64,192,218804,1,0,0:0:0:0:
448,192,218878,1,0,0:0:0:0:
64,192,218952,1,0,0:0:0:0:
448,192,219026,1,0,0:0:0:0:
320,192,219100,1,0,0:0:0:0:
192,192,219248,1,0,0:0:0:0:
64,192,219395,1,0,0:0:0:0:
448,192,219543,1,0,0:0:0:0:
192,192,219691,1,0,0:0:0:0:
320,192,219839,1,0,0:0:0:0:
64,192,219986,1,0,0:0:0:0:
320,192,220060,1,0,0:0:0:0:
64,192,220134,1,0,0:0:0:0:
320,192,220282,1,0,0:0:0:0:
192,192,220356,1,0,0:0:0:0:
448,192,220430,1,0,0:0:0:0:
192,192,220578,1,0,0:0:0:0:
64,192,220725,1,0,0:0:0:0:
192,192,220873,1,0,0:0:0:0:
448,192,221021,1,0,0:0:0:0:
64,192,221169,1,0,0:0:0:0:
192,192,221317,1,0,0:0:0:0:
320,192,221464,1,0,0:0:0:0:
448,192,221538,1,0,0:0:0:0:
320,192,221612,1,0,0:0:0:0:
448,192,221760,1,0,0:0:0:0:
320,192,221908,1,0,0:0:0:0:
192,192,222055,1,0,0:0:0:0:
64,192,222203,1,0,0:0:0:0:
448,192,222351,1,0,0:0:0:0:
192,192,222425,1,0,0:0:0:0:
320,192,222499,1,0,0:0:0:0:
64,192,222647,1,0,0:0:0:0:
192,192,222720,1,0,0:0:0:0:
320,192,222794,1,0,0:0:0:0:
448,192,222942,1,0,0:0:0:0:
64,192,223090,1,0,0:0:0:0:
448,0,223238,128,0,223681:1:0:0:0:
64,192,223829,1,0,0:0:0:0:
320,192,223903,1,0,0:0:0:0:
64,192,223977,1,0,0:0:0:0:
448,192,224051,1,0,0:0:0:0:
192,192,224124,1,0,0:0:0:0:
320,192,224198,1,0,0:0:0:0:
64,192,224272,1,0,0:0:0:0:
448,192,224346,1,0,0:0:0:0:
320,192,224420,1,0,0:0:0:0:
448,192,224494,1,0,0:0:0:0:
64,192,224568,1,0,0:0:0:0:
448,192,224642,1,0,0:0:0:0:
64,192,224716,1,0,0:0:0:0:
192,192,224789,1,0,0:0:0:0:
320,192,224863,1,0,0:0:0:0:
448,192,224937,1,0,0:0:0:0:
64,192,225011,1,0,0:0:0:0:
192,192,225085,1,0,0:0:0:0:
320,192,225159,1,0,0:0:0:0:
192,192,225233,1,0,0:0:0:0:
64,192,225307,1,0,0:0:0:0:
448,192,225381,1,0,0:0:0:0:
192,192,225454,1,0,0:0:0:0:
320,192,225528,1,0,0:0:0:0:
192,192,225602,1,0,0:0:0:0:
320,192,225676,1,0,0:0:0:0:
64,192,225750,1,0,0:0:0:0:
448,192,225824,1,0,0:0:0:0:
320,192,225898,1,0,0:0:0:0:
192,192,225972,1,0,0:0:0:0:
64,192,226046,1,0,0:0:0:0:
448,192,226119,1,0,0:0:0:0:
64,192,226193,1,0,0:0:0:0:
320,192,226267,1,0,0:0:0:0:
192,192,226341,1,0,0:0:0:0:
448,192,226415,1,0,0:0:0:0:
192,192,226489,1,0,0:0:0:0:
448,192,226563,1,0,0:0:0:0:
64,192,226637,1,0,0:0:0:0:
192,192,226711,1,0,0:0:0:0:
64,192,226785,1,0,0:0:0:0:
448,192,226858,1,0,0:0:0:0:
320,192,226932,1,0,0:0:0:0:
448,192,227006,1,0,0:0:0:0:
64,192,227080,1,0,0:0:0:0:
320,192,227154,1,0,0:0:0:0:
192,192,227228,1,0,0:0:0:0:
448,192,227302,1,0,0:0:0:0:
64,192,227376,1,0,0:0:0:0:
192,192,227450,1,0,0:0:0:0:
320,192,227523,1,0,0:0:0:0:
448,192,227597,1,0,0:0:0:0:
64,192,227671,1,0,0:0:0:0:
320,192,227745,1,0,0:0:0:0:
64,192,227819,1,0,0:0:0:0:
448,192,227893,1,0,0:0:0:0:
64,192,227967,1,0,0:0:0:0:
192,192,228041,1,0,0:0:0:0:
320,192,228115,1,0,0:0:0:0:
448,192,228188,1,0,0:0:0:0:
64,192,228262,1,0,0:0:0:0:
320,192,228336,1,0,0:0:0:0:
192,192,228410,1,0,0:0:0:0:
448,192,228484,1,0,0:0:0:0:
192,0,228558,128,0,237129:1:0:0:0:
320,192,237129,1,0,0:0:0:0:
64,192,237203,1,0,0:0:0:0:
320,192,237277,1,0,0:0:0:0:
64,192,237351,1,0,0:0:0:0:
448,0,237425,128,0,237868:1:0:0:0:
64,192,238016,1,0,0:0:0:0:
192,192,238171,1,0,0:0:0:0:
192,192,238327,1,0,0:0:0:0:
320,192,238327,1,0,0:0:0:0:
320,192,238637,1,0,0:0:0:0:
64,192,238792,1,0,0:0:0:0:
192,192,238792,1,0,0:0:0:0:
448,192,239103,1,0,0:0:0:0:
64,192,239258,1,0,0:0:0:0:
448,192,239258,1,0,0:0:0:0:
448,192,239569,1,0,0:0:0:0:
64,192,239724,1,0,0:0:0:0:
320,192,239724,1,0,0:0:0:0:
64,192,240035,1,0,0:0:0:0:
64,192,240190,1,0,0:0:0:0:
320,192,240190,1,0,0:0:0:0:
320,192,240501,1,0,0:0:0:0:
192,192,240656,1,0,0:0:0:0:
448,192,240656,1,0,0:0:0:0:
192,192,240966,1,0,0:0:0:0:
192,192,241122,1,0,0:0:0:0:
320,192,241122,1,0,0:0:0:0:
320,192,241432,1,0,0:0:0:0:
64,192,241587,1,0,0:0:0:0:
448,192,241587,1,0,0:0:0:0:
64,192,241898,1,0,0:0:0:0:
320,0,242053,128,0,242325:1:0:0:0:
192,0,242053,128,0,242364:1:0:0:0:
320,192,243140,1,0,0:0:0:0:
64,192,243296,1,0,0:0:0:0:
448,192,243296,1,0,0:0:0:0:
448,192,243606,1,0,0:0:0:0:
64,192,243761,1,0,0:0:0:0:
320,192,243761,1,0,0:0:0:0:
192,192,244072,1,0,0:0:0:0:
64,192,244227,1,0,0:0:0:0:
448,192,244227,1,0,0:0:0:0:
64,192,244538,1,0,0:0:0:0:
320,192,244693,1,0,0:0:0:0:
448,192,244693,1,0,0:0:0:0:
448,192,245004,1,0,0:0:0:0:
192,192,245159,1,0,0:0:0:0:
448,192,245159,1,0,0:0:0:0:
64,192,245469,1,0,0:0:0:0:
64,192,245625,1,0,0:0:0:0:
320,192,245625,1,0,0:0:0:0:
64,192,245935,1,0,0:0:0:0:
320,192,246091,1,0,0:0:0:0:
448,192,246091,1,0,0:0:0:0:
192,192,246401,1,0,0:0:0:0:
64,192,246556,1,0,0:0:0:0:
448,192,246556,1,0,0:0:0:0:
64,192,246867,1,0,0:0:0:0:
448,0,247022,128,0,247294:1:0:0:0:
64,0,247333,128,0,247954:1:0:0:0:
320,0,247954,128,0,248459:1:0:0:0:
192,192,248575,1,0,0:0:0:0:
448,192,248575,1,0,0:0:0:0:
64,192,248730,1,0,0:0:0:0:
448,192,248730,1,0,0:0:0:0:
64,192,249041,1,0,0:0:0:0:
192,192,249041,1,0,0:0:0:0:
192,192,249196,1,0,0:0:0:0:
320,192,249196,1,0,0:0:0:0:
320,192,249507,1,0,0:0:0:0:
448,192,249507,1,0,0:0:0:0:
64,192,249662,1,0,0:0:0:0:
448,192,249662,1,0,0:0:0:0:
64,192,249973,1,0,0:0:0:0:
320,192,249973,1,0,0:0:0:0:
192,192,250128,1,0,0:0:0:0:
448,192,250128,1,0,0:0:0:0:
192,192,250438,1,0,0:0:0:0:
320,192,250438,1,0,0:0:0:0:
64,192,250594,1,0,0:0:0:0:
320,192,250594,1,0,0:0:0:0:
64,192,250904,1,0,0:0:0:0:
448,192,250904,1,0,0:0:0:0:
64,192,251060,1,0,0:0:0:0:
192,192,251060,1,0,0:0:0:0:
192,192,251370,1,0,0:0:0:0:
320,192,251370,1,0,0:0:0:0:
64,192,251525,1,0,0:0:0:0:
448,192,251525,1,0,0:0:0:0:
192,192,251836,1,0,0:0:0:0:
448,192,251836,1,0,0:0:0:0:
320,192,251991,1,0,0:0:0:0:
448,192,251991,1,0,0:0:0:0:
64,192,252302,1,0,0:0:0:0:
192,192,252302,1,0,0:0:0:0:
64,192,252457,1,0,0:0:0:0:
192,192,252457,1,0,0:0:0:0:
192,192,252768,1,0,0:0:0:0:
320,0,252923,128,0,253622:1:0:0:0:
448,0,253039,128,0,253622:1:0:0:0:
192,192,253699,1,0,0:0:0:0:
64,192,253855,1,0,0:0:0:0:
448,192,254165,1,0,0:0:0:0:
64,192,254320,1,0,0:0:0:0:
448,192,254320,1,0,0:0:0:0:
64,192,254631,1,0,0:0:0:0:
320,192,254786,1,0,0:0:0:0:
192,192,255097,1,0,0:0:0:0:
192,192,255252,1,0,0:0:0:0:
320,192,255252,1,0,0:0:0:0:
320,192,255563,1,0,0:0:0:0:
64,192,255718,1,0,0:0:0:0:
192,192,256028,1,0,0:0:0:0:
64,192,256184,1,0,0:0:0:0:
192,192,256184,1,0,0:0:0:0:
320,192,256494,1,0,0:0:0:0:
448,192,256650,1,0,0:0:0:0:
64,192,256960,1,0,0:0:0:0:
64,192,257115,1,0,0:0:0:0:
448,192,257115,1,0,0:0:0:0:
448,192,257426,1,0,0:0:0:0:
320,0,257581,128,0,257892:1:0:0:0:
192,0,257892,128,0,258513:1:0:0:0:
64,0,258513,128,0,259134:1:0:0:0:
448,0,259134,128,0,259755:1:0:0:0:
192,0,259755,128,0,260376:1:0:0:0:
320,192,260376,1,0,0:0:0:0:
64,192,260415,1,0,0:0:0:0:
320,192,260454,1,0,0:0:0:0:
64,192,260532,1,0,0:0:0:0:
192,192,260609,1,0,0:0:0:0:
320,192,260687,1,0,0:0:0:0:
448,192,260764,1,0,0:0:0:0:
64,192,260842,1,0,0:0:0:0:
320,192,260920,1,0,0:0:0:0:
192,192,260997,1,0,0:0:0:0:
448,192,261075,1,0,0:0:0:0:
64,192,261153,1,0,0:0:0:0:
192,192,261230,1,0,0:0:0:0:
320,192,261308,1,0,0:0:0:0:
448,192,261386,1,0,0:0:0:0:
64,192,261463,1,0,0:0:0:0:
320,192,261541,1,0,0:0:0:0:
192,192,261619,1,0,0:0:0:0:
448,192,261657,1,0,0:0:0:0:
192,192,261696,1,0,0:0:0:0:
320,192,261774,1,0,0:0:0:0:
192,192,261851,1,0,0:0:0:0:
448,192,261929,1,0,0:0:0:0:
320,192,262007,1,0,0:0:0:0:
192,192,262084,1,0,0:0:0:0:
64,192,262162,1,0,0:0:0:0:
448,192,262240,1,0,0:0:0:0:
64,192,262317,1,0,0:0:0:0:
320,192,262395,1,0,0:0:0:0:
192,192,262473,1,0,0:0:0:0:
448,192,262550,1,0,0:0:0:0:
64,192,262628,1,0,0:0:0:0:
192,192,262705,1,0,0:0:0:0:
320,192,262783,1,0,0:0:0:0:
448,0,262861,128,0,263133:1:0:0:0:
