osu file format v14

[General]
AudioFilename: audio.mp3
AudioLeadIn: 0
PreviewTime: 83564
Countdown: 0
SampleSet: Normal
StackLeniency: 0.7
Mode: 3
LetterboxInBreaks: 0
SpecialStyle: 0
WidescreenStoryboard: 0

[Editor]
DistanceSpacing: 0.8
BeatDivisor: 4
GridSize: 4
TimelineZoom: 0.8999999

[Metadata]
Title:glory day
TitleUnicode:glory day
Artist:BEXTER & Mycin.T
ArtistUnicode:BEXTER & Mycin.T
Creator:Marirose
Version:4K MX
Source:DJMAX RESPECT
Tags:DyoN Joo
BeatmapID:1426696
BeatmapSetID:674242

[Difficulty]
HPDrainRate:8
CircleSize:4
OverallDifficulty:8
ApproachRate:5
SliderMultiplier:1.4
SliderTickRate:1

[Events]
//Background and Video events
Video,0,"BGA.mp4"
0,0,"BG1.png",0,0
//Break Periods
//Storyboard Layer 0 (Background)
//Storyboard Layer 1 (Fail)
//Storyboard Layer 2 (Pass)
//Storyboard Layer 3 (Foreground)
//Storyboard Sound Samples

[TimingPoints]
787,370.37037037037,4,1,0,0,1,0

[HitObjects]
448,192,787,5,0,0:0:0:0:
64,192,787,1,0,0:0:0:0:
320,192,972,1,0,0:0:0:0:
448,192,1157,1,0,0:0:0:0:
64,192,1157,1,0,0:0:0:0:
192,192,1249,1,0,0:0:0:0:
320,192,1342,1,0,0:0:0:0:
192,192,1435,1,0,0:0:0:0:
448,192,1527,1,0,0:0:0:0:
64,192,1527,1,0,0:0:0:0:
320,192,1527,1,0,0:0:0:0:
192,192,1712,1,0,0:0:0:0:
64,192,1898,1,0,0:0:0:0:
448,192,1898,1,0,0:0:0:0:
320,192,2083,128,0,2361:0:0:0:0:
64,192,2268,1,0,0:0:0:0:
320,192,2453,1,0,0:0:0:0:
448,192,2638,1,0,0:0:0:0:
64,192,2638,1,0,0:0:0:0:
192,192,2824,1,0,0:0:0:0:
320,192,3009,1,0,0:0:0:0:
64,192,3009,1,0,0:0:0:0:
320,192,3194,1,0,0:0:0:0:
448,192,3379,1,0,0:0:0:0:
64,192,3379,1,0,0:0:0:0:
320,192,3564,128,0,3842:0:0:0:0:
64,192,3749,1,0,0:0:0:0:
320,192,3935,1,0,0:0:0:0:
448,192,4120,1,0,0:0:0:0:
64,192,4120,1,0,0:0:0:0:
320,192,4305,1,0,0:0:0:0:
192,192,4490,1,0,0:0:0:0:
448,192,4490,1,0,0:0:0:0:
192,192,4675,1,0,0:0:0:0:
448,192,4861,1,0,0:0:0:0:
64,192,4861,1,0,0:0:0:0:
192,192,5046,128,0,5324:0:0:0:0:
448,192,5231,1,0,0:0:0:0:
192,192,5416,1,0,0:0:0:0:
448,192,5601,1,0,0:0:0:0:
64,192,5601,1,0,0:0:0:0:
192,192,5786,1,0,0:0:0:0:
320,192,5972,1,0,0:0:0:0:
64,192,5972,1,0,0:0:0:0:
192,192,6157,128,0,6342:0:0:0:0:
448,192,6342,1,0,0:0:0:0:
64,192,6342,1,0,0:0:0:0:
192,192,6527,128,0,7083:0:0:0:0:
448,192,6712,1,0,0:0:0:0:
320,192,6898,1,0,0:0:0:0:
448,192,7083,1,0,0:0:0:0:
64,192,7083,1,0,0:0:0:0:
192,192,7268,1,0,0:0:0:0:
448,192,7453,1,0,0:0:0:0:
64,192,7453,1,0,0:0:0:0:
320,192,7453,1,0,0:0:0:0:
192,192,7638,1,0,0:0:0:0:
64,192,7824,1,0,0:0:0:0:
448,192,7824,1,0,0:0:0:0:
320,192,8009,128,0,8286:0:0:0:0:
64,192,8194,1,0,0:0:0:0:
320,192,8379,1,0,0:0:0:0:
448,192,8564,1,0,0:0:0:0:
64,192,8564,1,0,0:0:0:0:
192,192,8749,1,0,0:0:0:0:
320,192,8935,1,0,0:0:0:0:
64,192,8935,1,0,0:0:0:0:
320,192,9120,1,0,0:0:0:0:
448,192,9305,1,0,0:0:0:0:
64,192,9305,1,0,0:0:0:0:
320,192,9490,128,0,9768:0:0:0:0:
64,192,9675,1,0,0:0:0:0:
320,192,9861,1,0,0:0:0:0:
448,192,10046,1,0,0:0:0:0:
64,192,10046,1,0,0:0:0:0:
320,192,10231,1,0,0:0:0:0:
192,192,10416,1,0,0:0:0:0:
448,192,10416,1,0,0:0:0:0:
192,192,10601,1,0,0:0:0:0:
64,192,10786,1,0,0:0:0:0:
448,192,10786,1,0,0:0:0:0:
192,192,10972,128,0,11249:0:0:0:0:
448,192,11157,1,0,0:0:0:0:
192,192,11342,1,0,0:0:0:0:
448,192,11527,1,0,0:0:0:0:
64,192,11527,1,0,0:0:0:0:
320,192,11712,1,0,0:0:0:0:
192,192,11898,1,0,0:0:0:0:
448,192,11898,1,0,0:0:0:0:
320,192,12083,1,0,0:0:0:0:
64,192,12268,1,0,0:0:0:0:
448,192,12268,1,0,0:0:0:0:
320,192,12453,1,0,0:0:0:0:
192,192,12638,1,0,0:0:0:0:
64,192,12824,1,0,0:0:0:0:
192,192,13009,128,0,13194:0:0:0:0:
448,192,13009,1,0,0:0:0:0:
320,192,13194,1,0,0:0:0:0:
448,192,13379,1,0,0:0:0:0:
64,192,13379,1,0,0:0:0:0:
192,192,13379,1,0,0:0:0:0:
192,192,13564,1,0,0:0:0:0:
64,192,13749,1,0,0:0:0:0:
448,192,13749,1,0,0:0:0:0:
192,192,13935,128,0,14490:0:0:0:0:
448,192,14120,1,0,0:0:0:0:
320,192,14305,1,0,0:0:0:0:
64,192,14490,1,0,0:0:0:0:
448,192,14490,1,0,0:0:0:0:
192,192,14675,1,0,0:0:0:0:
320,192,14861,1,0,0:0:0:0:
64,192,14861,1,0,0:0:0:0:
320,192,15046,1,0,0:0:0:0:
448,192,15231,1,0,0:0:0:0:
64,192,15231,1,0,0:0:0:0:
320,192,15416,128,0,15972:0:0:0:0:
64,192,15601,1,0,0:0:0:0:
192,192,15786,1,0,0:0:0:0:
448,192,15972,1,0,0:0:0:0:
64,192,15972,1,0,0:0:0:0:
320,192,16157,1,0,0:0:0:0:
448,192,16342,1,0,0:0:0:0:
192,192,16342,1,0,0:0:0:0:
192,192,16527,1,0,0:0:0:0:
448,192,16712,1,0,0:0:0:0:
64,192,16712,1,0,0:0:0:0:
192,192,16898,128,0,17453:0:0:0:0:
448,192,17083,1,0,0:0:0:0:
320,192,17268,1,0,0:0:0:0:
448,192,17453,1,0,0:0:0:0:
64,192,17453,1,0,0:0:0:0:
320,192,17638,1,0,0:0:0:0:
192,192,17824,1,0,0:0:0:0:
320,192,18009,1,0,0:0:0:0:
448,192,18194,1,0,0:0:0:0:
64,192,18194,128,0,18935:0:0:0:0:
320,192,18379,1,0,0:0:0:0:
192,192,18564,128,0,18935:0:0:0:0:
448,192,18749,1,0,0:0:0:0:
448,192,18935,128,0,19305:0:0:0:0:
320,192,18935,1,0,0:0:0:0:
192,192,19120,1,0,0:0:0:0:
64,192,19305,1,0,0:0:0:0:
320,192,19305,1,0,0:0:0:0:
320,192,19490,1,0,0:0:0:0:
64,192,19675,1,0,0:0:0:0:
448,192,19675,1,0,0:0:0:0:
320,192,19861,128,0,20416:0:0:0:0:
64,192,20046,1,0,0:0:0:0:
192,192,20231,1,0,0:0:0:0:
64,192,20416,1,0,0:0:0:0:
448,192,20416,1,0,0:0:0:0:
320,192,20601,1,0,0:0:0:0:
448,192,20786,1,0,0:0:0:0:
192,192,20786,1,0,0:0:0:0:
192,192,20972,1,0,0:0:0:0:
64,192,21157,1,0,0:0:0:0:
448,192,21157,1,0,0:0:0:0:
192,192,21342,128,0,21898:0:0:0:0:
448,192,21527,1,0,0:0:0:0:
320,192,21712,1,0,0:0:0:0:
448,192,21898,1,0,0:0:0:0:
64,192,21898,1,0,0:0:0:0:
320,192,22083,1,0,0:0:0:0:
448,192,22268,1,0,0:0:0:0:
192,192,22268,1,0,0:0:0:0:
320,192,22453,128,0,23749:0:0:0:0:
448,192,22638,1,0,0:0:0:0:
64,192,22638,1,0,0:0:0:0:
192,192,22824,1,0,0:0:0:0:
448,192,23009,1,0,0:0:0:0:
192,192,23194,1,0,0:0:0:0:
448,192,23379,1,0,0:0:0:0:
64,192,23379,1,0,0:0:0:0:
192,192,23749,1,0,0:0:0:0:
64,192,23935,1,0,0:0:0:0:
320,192,23935,128,0,24212:0:0:0:0:
320,192,24305,5,0,0:0:0:0:
192,192,24398,1,0,0:0:0:0:
448,192,24490,1,0,0:0:0:0:
64,192,24490,1,0,0:0:0:0:
320,192,24675,1,0,0:0:0:0:
192,192,24861,128,0,25138:0:0:0:0:
448,192,25231,5,0,0:0:0:0:
320,192,25231,1,0,0:0:0:0:
64,192,25231,1,0,0:0:0:0:
192,192,25416,1,0,0:0:0:0:
448,192,25601,1,0,0:0:0:0:
64,192,25601,1,0,0:0:0:0:
192,192,25786,1,0,0:0:0:0:
64,192,25972,1,0,0:0:0:0:
448,192,25972,1,0,0:0:0:0:
192,192,26157,1,0,0:0:0:0:
64,192,26342,1,0,0:0:0:0:
448,192,26342,1,0,0:0:0:0:
192,192,26527,1,0,0:0:0:0:
320,192,26620,1,0,0:0:0:0:
448,192,26712,1,0,0:0:0:0:
64,192,26712,1,0,0:0:0:0:
192,192,26898,1,0,0:0:0:0:
448,192,27083,1,0,0:0:0:0:
64,192,27083,1,0,0:0:0:0:
192,192,27268,1,0,0:0:0:0:
448,192,27453,1,0,0:0:0:0:
64,192,27453,1,0,0:0:0:0:
192,192,27638,1,0,0:0:0:0:
320,192,27824,1,0,0:0:0:0:
448,192,27824,1,0,0:0:0:0:
192,192,28009,1,0,0:0:0:0:
320,192,28194,1,0,0:0:0:0:
64,192,28194,1,0,0:0:0:0:
448,192,28379,1,0,0:0:0:0:
320,192,28564,1,0,0:0:0:0:
64,192,28564,1,0,0:0:0:0:
448,192,28749,1,0,0:0:0:0:
320,192,28935,1,0,0:0:0:0:
64,192,28935,1,0,0:0:0:0:
448,192,29120,1,0,0:0:0:0:
320,192,29305,1,0,0:0:0:0:
64,192,29305,1,0,0:0:0:0:
448,192,29490,1,0,0:0:0:0:
192,192,29583,1,0,0:0:0:0:
320,192,29675,1,0,0:0:0:0:
64,192,29675,1,0,0:0:0:0:
448,192,29861,1,0,0:0:0:0:
320,192,30046,1,0,0:0:0:0:
64,192,30046,1,0,0:0:0:0:
448,192,30231,1,0,0:0:0:0:
320,192,30416,1,0,0:0:0:0:
64,192,30416,1,0,0:0:0:0:
192,192,30601,1,0,0:0:0:0:
320,192,30786,1,0,0:0:0:0:
448,192,30786,1,0,0:0:0:0:
192,192,30972,1,0,0:0:0:0:
448,192,31157,1,0,0:0:0:0:
64,192,31157,1,0,0:0:0:0:
320,192,31342,1,0,0:0:0:0:
448,192,31527,1,0,0:0:0:0:
64,192,31527,1,0,0:0:0:0:
320,192,31712,1,0,0:0:0:0:
448,192,31898,1,0,0:0:0:0:
64,192,31898,1,0,0:0:0:0:
320,192,32083,1,0,0:0:0:0:
448,192,32268,1,0,0:0:0:0:
64,192,32268,1,0,0:0:0:0:
320,192,32453,1,0,0:0:0:0:
192,192,32546,1,0,0:0:0:0:
448,192,32638,1,0,0:0:0:0:
64,192,32638,1,0,0:0:0:0:
320,192,32824,1,0,0:0:0:0:
448,192,33009,1,0,0:0:0:0:
64,192,33009,1,0,0:0:0:0:
320,192,33194,1,0,0:0:0:0:
448,192,33379,1,0,0:0:0:0:
64,192,33379,1,0,0:0:0:0:
320,192,33564,1,0,0:0:0:0:
64,192,33749,1,0,0:0:0:0:
192,192,33749,1,0,0:0:0:0:
320,192,33935,1,0,0:0:0:0:
64,192,34120,1,0,0:0:0:0:
448,192,34120,1,0,0:0:0:0:
192,192,34305,1,0,0:0:0:0:
64,192,34490,1,0,0:0:0:0:
320,192,34490,1,0,0:0:0:0:
192,192,34675,1,0,0:0:0:0:
64,192,34861,1,0,0:0:0:0:
320,192,34861,1,0,0:0:0:0:
192,192,35046,1,0,0:0:0:0:
64,192,35231,1,0,0:0:0:0:
320,192,35231,1,0,0:0:0:0:
192,192,35416,1,0,0:0:0:0:
448,192,35509,1,0,0:0:0:0:
64,192,35601,1,0,0:0:0:0:
320,192,35601,1,0,0:0:0:0:
192,192,35786,1,0,0:0:0:0:
64,192,35972,1,0,0:0:0:0:
320,192,35972,1,0,0:0:0:0:
192,192,36157,1,0,0:0:0:0:
64,192,36342,1,0,0:0:0:0:
320,192,36342,1,0,0:0:0:0:
192,192,36527,1,0,0:0:0:0:
64,192,36712,1,0,0:0:0:0:
448,192,36712,1,0,0:0:0:0:
320,192,36712,1,0,0:0:0:0:
64,192,37083,1,0,0:0:0:0:
448,192,37083,1,0,0:0:0:0:
192,192,37083,1,0,0:0:0:0:
320,192,37268,1,0,0:0:0:0:
448,192,37453,1,0,0:0:0:0:
64,192,37453,1,0,0:0:0:0:
192,192,37638,1,0,0:0:0:0:
320,192,37824,1,0,0:0:0:0:
448,192,38009,1,0,0:0:0:0:
448,192,38194,1,0,0:0:0:0:
64,192,38194,1,0,0:0:0:0:
192,192,38379,1,0,0:0:0:0:
320,192,38564,1,0,0:0:0:0:
64,192,38749,1,0,0:0:0:0:
192,192,38935,1,0,0:0:0:0:
448,192,38935,1,0,0:0:0:0:
64,192,39120,1,0,0:0:0:0:
320,192,39305,1,0,0:0:0:0:
192,192,39490,1,0,0:0:0:0:
64,192,39675,1,0,0:0:0:0:
448,192,39675,1,0,0:0:0:0:
320,192,39861,1,0,0:0:0:0:
192,192,40046,1,0,0:0:0:0:
448,192,40046,1,0,0:0:0:0:
320,192,40231,1,0,0:0:0:0:
448,192,40416,1,0,0:0:0:0:
64,192,40416,1,0,0:0:0:0:
192,192,40601,1,0,0:0:0:0:
448,192,40786,1,0,0:0:0:0:
320,192,40972,1,0,0:0:0:0:
448,192,41157,1,0,0:0:0:0:
64,192,41157,1,0,0:0:0:0:
192,192,41342,1,0,0:0:0:0:
64,192,41527,1,0,0:0:0:0:
192,192,41712,1,0,0:0:0:0:
64,192,41898,1,0,0:0:0:0:
320,192,41898,1,0,0:0:0:0:
192,192,42083,1,0,0:0:0:0:
448,192,42268,1,0,0:0:0:0:
64,192,42268,1,0,0:0:0:0:
320,192,42453,1,0,0:0:0:0:
192,192,42638,1,0,0:0:0:0:
448,192,42638,1,0,0:0:0:0:
320,192,42824,1,0,0:0:0:0:
448,192,43009,1,0,0:0:0:0:
64,192,43009,1,0,0:0:0:0:
192,192,43194,1,0,0:0:0:0:
448,192,43379,1,0,0:0:0:0:
320,192,43379,1,0,0:0:0:0:
64,192,43564,1,0,0:0:0:0:
192,192,43749,1,0,0:0:0:0:
320,192,43935,1,0,0:0:0:0:
448,192,44120,1,0,0:0:0:0:
64,192,44120,1,0,0:0:0:0:
192,192,44305,1,0,0:0:0:0:
64,192,44490,1,0,0:0:0:0:
192,192,44675,1,0,0:0:0:0:
64,192,44861,1,0,0:0:0:0:
448,192,44861,1,0,0:0:0:0:
320,192,45046,1,0,0:0:0:0:
448,192,45231,1,0,0:0:0:0:
320,192,45416,1,0,0:0:0:0:
64,192,45601,1,0,0:0:0:0:
192,192,45601,1,0,0:0:0:0:
320,192,45786,1,0,0:0:0:0:
448,192,45972,1,0,0:0:0:0:
64,192,45972,1,0,0:0:0:0:
192,192,46157,1,0,0:0:0:0:
320,192,46342,1,0,0:0:0:0:
64,192,46342,1,0,0:0:0:0:
192,192,46527,1,0,0:0:0:0:
448,192,46712,1,0,0:0:0:0:
64,192,46712,1,0,0:0:0:0:
320,192,46898,1,0,0:0:0:0:
448,192,47083,1,0,0:0:0:0:
192,192,47083,1,0,0:0:0:0:
320,192,47268,1,0,0:0:0:0:
64,192,47453,1,0,0:0:0:0:
448,192,47453,1,0,0:0:0:0:
320,192,47638,1,0,0:0:0:0:
192,192,47638,1,0,0:0:0:0:
64,192,47824,1,0,0:0:0:0:
64,192,48009,1,0,0:0:0:0:
320,192,48009,1,0,0:0:0:0:
192,192,48194,1,0,0:0:0:0:
448,192,48194,1,0,0:0:0:0:
320,192,48379,1,0,0:0:0:0:
64,192,48379,1,0,0:0:0:0:
192,192,48564,1,0,0:0:0:0:
448,192,48564,1,0,0:0:0:0:
320,192,48749,1,0,0:0:0:0:
192,192,48935,1,0,0:0:0:0:
64,192,48935,1,0,0:0:0:0:
448,192,48935,128,0,50786:0:0:0:0:
192,192,49305,1,0,0:0:0:0:
64,192,49675,1,0,0:0:0:0:
320,192,49675,1,0,0:0:0:0:
192,192,50046,1,0,0:0:0:0:
192,192,50416,1,0,0:0:0:0:
64,192,50601,1,0,0:0:0:0:
320,192,50601,1,0,0:0:0:0:
192,192,50786,1,0,0:0:0:0:
320,192,50972,1,0,0:0:0:0:
64,192,51157,1,0,0:0:0:0:
448,192,51157,128,0,51898:0:0:0:0:
192,192,51157,1,0,0:0:0:0:
192,192,51527,128,0,51898:0:0:0:0:
320,192,51898,128,0,53564:0:0:0:0:
64,192,51898,1,0,0:0:0:0:
64,192,52268,1,0,0:0:0:0:
448,192,52638,1,0,0:0:0:0:
192,192,52638,1,0,0:0:0:0:
192,192,53009,1,0,0:0:0:0:
64,192,53194,1,0,0:0:0:0:
448,192,53194,1,0,0:0:0:0:
192,192,53379,1,0,0:0:0:0:
64,192,53564,1,0,0:0:0:0:
448,192,53564,1,0,0:0:0:0:
192,192,53749,1,0,0:0:0:0:
64,192,53935,1,0,0:0:0:0:
320,192,53935,1,0,0:0:0:0:
192,192,54120,1,0,0:0:0:0:
448,192,54120,128,0,54675:0:0:0:0:
192,192,54490,1,0,0:0:0:0:
64,192,54675,1,0,0:0:0:0:
320,192,54675,1,0,0:0:0:0:
192,192,54861,1,0,0:0:0:0:
448,192,54861,1,0,0:0:0:0:
64,192,54861,1,0,0:0:0:0:
320,192,55046,1,0,0:0:0:0:
448,192,55231,1,0,0:0:0:0:
64,192,55231,1,0,0:0:0:0:
320,192,55416,1,0,0:0:0:0:
192,192,55601,1,0,0:0:0:0:
320,192,55786,1,0,0:0:0:0:
64,192,55972,1,0,0:0:0:0:
448,192,55972,1,0,0:0:0:0:
320,192,56157,1,0,0:0:0:0:
192,192,56342,1,0,0:0:0:0:
320,192,56527,1,0,0:0:0:0:
64,192,56712,1,0,0:0:0:0:
448,192,56712,1,0,0:0:0:0:
320,192,56898,1,0,0:0:0:0:
192,192,57083,1,0,0:0:0:0:
320,192,57268,1,0,0:0:0:0:
448,192,57453,1,0,0:0:0:0:
64,192,57453,1,0,0:0:0:0:
320,192,57638,1,0,0:0:0:0:
192,192,57824,1,0,0:0:0:0:
320,192,57824,128,0,58564:0:0:0:0:
64,192,57824,1,0,0:0:0:0:
192,192,58194,128,0,58564:0:0:0:0:
64,192,58194,1,0,0:0:0:0:
448,192,58564,128,0,59305:0:0:0:0:
192,192,58749,1,0,0:0:0:0:
64,192,58935,128,0,59305:0:0:0:0:
320,192,58935,1,0,0:0:0:0:
192,192,59120,1,0,0:0:0:0:
320,192,59305,1,0,0:0:0:0:
192,192,60231,1,0,0:0:0:0:
320,192,60416,128,0,60694:0:0:0:0:
64,192,60416,1,0,0:0:0:0:
448,192,60786,1,0,0:0:0:0:
64,192,60786,1,0,0:0:0:0:
320,192,60786,1,0,0:0:0:0:
192,192,60972,1,0,0:0:0:0:
448,192,61157,1,0,0:0:0:0:
64,192,61157,1,0,0:0:0:0:
320,192,61342,128,0,61620:0:0:0:0:
64,192,61527,1,0,0:0:0:0:
320,192,61712,1,0,0:0:0:0:
448,192,61898,1,0,0:0:0:0:
64,192,61898,1,0,0:0:0:0:
192,192,62083,1,0,0:0:0:0:
320,192,62268,1,0,0:0:0:0:
64,192,62268,1,0,0:0:0:0:
320,192,62453,1,0,0:0:0:0:
448,192,62638,1,0,0:0:0:0:
64,192,62638,1,0,0:0:0:0:
320,192,62824,128,0,63101:0:0:0:0:
64,192,63009,1,0,0:0:0:0:
320,192,63194,1,0,0:0:0:0:
448,192,63379,1,0,0:0:0:0:
64,192,63379,1,0,0:0:0:0:
320,192,63564,1,0,0:0:0:0:
192,192,63749,1,0,0:0:0:0:
448,192,63749,1,0,0:0:0:0:
192,192,63935,1,0,0:0:0:0:
64,192,64120,1,0,0:0:0:0:
448,192,64120,1,0,0:0:0:0:
192,192,64305,128,0,64583:0:0:0:0:
448,192,64490,1,0,0:0:0:0:
192,192,64675,1,0,0:0:0:0:
64,192,64861,1,0,0:0:0:0:
448,192,64861,1,0,0:0:0:0:
320,192,65046,1,0,0:0:0:0:
192,192,65231,1,0,0:0:0:0:
448,192,65231,1,0,0:0:0:0:
192,192,65416,128,0,65601:0:0:0:0:
64,192,65601,1,0,0:0:0:0:
448,192,65601,1,0,0:0:0:0:
192,192,65786,128,0,66342:0:0:0:0:
448,192,65972,1,0,0:0:0:0:
320,192,66157,1,0,0:0:0:0:
64,192,66342,1,0,0:0:0:0:
448,192,66342,1,0,0:0:0:0:
192,192,66527,1,0,0:0:0:0:
320,192,66712,1,0,0:0:0:0:
64,192,66712,1,0,0:0:0:0:
448,192,66712,1,0,0:0:0:0:
320,192,66898,1,0,0:0:0:0:
64,192,67083,1,0,0:0:0:0:
448,192,67083,1,0,0:0:0:0:
320,192,67268,128,0,67546:0:0:0:0:
64,192,67453,1,0,0:0:0:0:
320,192,67638,1,0,0:0:0:0:
64,192,67824,1,0,0:0:0:0:
448,192,67824,1,0,0:0:0:0:
320,192,68009,1,0,0:0:0:0:
192,192,68194,1,0,0:0:0:0:
448,192,68194,1,0,0:0:0:0:
192,192,68379,1,0,0:0:0:0:
64,192,68564,1,0,0:0:0:0:
448,192,68564,1,0,0:0:0:0:
192,192,68749,128,0,69027:0:0:0:0:
448,192,68935,1,0,0:0:0:0:
192,192,69120,1,0,0:0:0:0:
64,192,69305,1,0,0:0:0:0:
448,192,69305,1,0,0:0:0:0:
192,192,69490,1,0,0:0:0:0:
320,192,69675,1,0,0:0:0:0:
64,192,69675,1,0,0:0:0:0:
320,192,69861,1,0,0:0:0:0:
64,192,70046,1,0,0:0:0:0:
448,192,70046,1,0,0:0:0:0:
320,192,70231,128,0,70509:0:0:0:0:
64,192,70416,1,0,0:0:0:0:
320,192,70601,1,0,0:0:0:0:
448,192,70786,1,0,0:0:0:0:
64,192,70786,1,0,0:0:0:0:
192,192,70972,1,0,0:0:0:0:
320,192,71157,1,0,0:0:0:0:
64,192,71157,1,0,0:0:0:0:
192,192,71342,1,0,0:0:0:0:
448,192,71527,1,0,0:0:0:0:
64,192,71527,1,0,0:0:0:0:
192,192,71712,1,0,0:0:0:0:
320,192,71898,1,0,0:0:0:0:
448,192,72083,1,0,0:0:0:0:
64,192,72268,1,0,0:0:0:0:
320,192,72268,128,0,72453:0:0:0:0:
448,192,72638,1,0,0:0:0:0:
64,192,72638,1,0,0:0:0:0:
320,192,72638,1,0,0:0:0:0:
192,192,72824,1,0,0:0:0:0:
448,192,73009,1,0,0:0:0:0:
64,192,73009,1,0,0:0:0:0:
320,192,73194,128,0,73472:0:0:0:0:
64,192,73379,1,0,0:0:0:0:
320,192,73564,1,0,0:0:0:0:
448,192,73749,1,0,0:0:0:0:
64,192,73749,1,0,0:0:0:0:
192,192,73935,1,0,0:0:0:0:
320,192,74120,1,0,0:0:0:0:
64,192,74120,1,0,0:0:0:0:
320,192,74305,1,0,0:0:0:0:
448,192,74490,1,0,0:0:0:0:
64,192,74490,1,0,0:0:0:0:
320,192,74675,128,0,74953:0:0:0:0:
64,192,74861,1,0,0:0:0:0:
320,192,75046,1,0,0:0:0:0:
448,192,75231,1,0,0:0:0:0:
64,192,75231,1,0,0:0:0:0:
320,192,75416,1,0,0:0:0:0:
192,192,75601,1,0,0:0:0:0:
448,192,75601,1,0,0:0:0:0:
192,192,75786,1,0,0:0:0:0:
64,192,75972,1,0,0:0:0:0:
448,192,75972,1,0,0:0:0:0:
192,192,76157,128,0,76435:0:0:0:0:
448,192,76342,1,0,0:0:0:0:
192,192,76527,1,0,0:0:0:0:
64,192,76712,1,0,0:0:0:0:
448,192,76712,1,0,0:0:0:0:
192,192,76898,1,0,0:0:0:0:
320,192,77083,1,0,0:0:0:0:
64,192,77083,1,0,0:0:0:0:
320,192,77268,1,0,0:0:0:0:
64,192,77453,1,0,0:0:0:0:
448,192,77453,1,0,0:0:0:0:
320,192,77638,128,0,77916:0:0:0:0:
64,192,77824,1,0,0:0:0:0:
320,192,78009,1,0,0:0:0:0:
64,192,78194,1,0,0:0:0:0:
448,192,78194,1,0,0:0:0:0:
320,192,78379,1,0,0:0:0:0:
192,192,78564,1,0,0:0:0:0:
448,192,78564,1,0,0:0:0:0:
192,192,78749,1,0,0:0:0:0:
64,192,78935,1,0,0:0:0:0:
448,192,78935,1,0,0:0:0:0:
192,192,79120,128,0,79398:0:0:0:0:
448,192,79305,1,0,0:0:0:0:
192,192,79490,1,0,0:0:0:0:
64,192,79675,1,0,0:0:0:0:
448,192,79675,1,0,0:0:0:0:
320,192,79861,1,0,0:0:0:0:
192,192,80046,128,0,80416:0:0:0:0:
448,192,80046,1,0,0:0:0:0:
64,192,80416,1,0,0:0:0:0:
448,192,80416,1,0,0:0:0:0:
192,192,80601,128,0,81157:0:0:0:0:
448,192,80786,1,0,0:0:0:0:
320,192,80972,1,0,0:0:0:0:
448,192,81157,1,0,0:0:0:0:
64,192,81157,1,0,0:0:0:0:
192,192,81342,1,0,0:0:0:0:
320,192,81527,1,0,0:0:0:0:
64,192,81527,1,0,0:0:0:0:
320,192,81712,1,0,0:0:0:0:
448,192,81898,5,0,0:0:0:0:
64,192,81898,1,0,0:0:0:0:
320,192,82083,128,0,82361:0:0:0:0:
64,192,82268,1,0,0:0:0:0:
320,192,82453,1,0,0:0:0:0:
64,192,82638,1,0,0:0:0:0:
320,192,82638,1,0,0:0:0:0:
448,192,82824,1,0,0:0:0:0:
192,192,83009,1,0,0:0:0:0:
320,192,83009,1,0,0:0:0:0:
64,192,83194,1,0,0:0:0:0:
448,192,83194,1,0,0:0:0:0:
320,192,83564,5,0,0:0:0:0:
192,192,83657,1,0,0:0:0:0:
448,192,83749,1,0,0:0:0:0:
64,192,83749,1,0,0:0:0:0:
192,192,83935,1,0,0:0:0:0:
320,192,84027,1,0,0:0:0:0:
448,192,84120,1,0,0:0:0:0:
64,192,84120,1,0,0:0:0:0:
192,192,84212,1,0,0:0:0:0:
320,192,84305,1,0,0:0:0:0:
192,192,84398,1,0,0:0:0:0:
448,192,84490,5,0,0:0:0:0:
64,192,84490,1,0,0:0:0:0:
320,192,84490,1,0,0:0:0:0:
192,192,84675,1,0,0:0:0:0:
64,192,84861,1,0,0:0:0:0:
448,192,84861,1,0,0:0:0:0:
320,192,85046,128,0,85324:0:0:0:0:
64,192,85231,1,0,0:0:0:0:
320,192,85416,1,0,0:0:0:0:
448,192,85601,1,0,0:0:0:0:
64,192,85601,1,0,0:0:0:0:
192,192,85786,1,0,0:0:0:0:
320,192,85972,1,0,0:0:0:0:
64,192,85972,1,0,0:0:0:0:
320,192,86157,1,0,0:0:0:0:
448,192,86342,1,0,0:0:0:0:
64,192,86342,1,0,0:0:0:0:
320,192,86527,128,0,86805:0:0:0:0:
64,192,86712,1,0,0:0:0:0:
320,192,86898,1,0,0:0:0:0:
448,192,87083,1,0,0:0:0:0:
64,192,87083,1,0,0:0:0:0:
320,192,87268,1,0,0:0:0:0:
192,192,87453,1,0,0:0:0:0:
448,192,87453,1,0,0:0:0:0:
192,192,87638,1,0,0:0:0:0:
448,192,87824,1,0,0:0:0:0:
64,192,87824,1,0,0:0:0:0:
192,192,88009,128,0,88286:0:0:0:0:
448,192,88194,1,0,0:0:0:0:
192,192,88379,1,0,0:0:0:0:
448,192,88564,1,0,0:0:0:0:
64,192,88564,1,0,0:0:0:0:
192,192,88749,1,0,0:0:0:0:
320,192,88935,1,0,0:0:0:0:
64,192,88935,1,0,0:0:0:0:
192,192,89120,128,0,89305:0:0:0:0:
448,192,89305,1,0,0:0:0:0:
64,192,89305,1,0,0:0:0:0:
192,192,89490,128,0,90046:0:0:0:0:
448,192,89675,1,0,0:0:0:0:
320,192,89861,1,0,0:0:0:0:
448,192,90046,1,0,0:0:0:0:
64,192,90046,1,0,0:0:0:0:
192,192,90231,1,0,0:0:0:0:
448,192,90416,1,0,0:0:0:0:
64,192,90416,1,0,0:0:0:0:
320,192,90416,1,0,0:0:0:0:
192,192,90601,1,0,0:0:0:0:
64,192,90786,1,0,0:0:0:0:
448,192,90786,1,0,0:0:0:0:
320,192,90972,128,0,91249:0:0:0:0:
64,192,91157,1,0,0:0:0:0:
320,192,91342,1,0,0:0:0:0:
448,192,91527,1,0,0:0:0:0:
64,192,91527,1,0,0:0:0:0:
192,192,91712,1,0,0:0:0:0:
320,192,91898,1,0,0:0:0:0:
64,192,91898,1,0,0:0:0:0:
320,192,92083,1,0,0:0:0:0:
448,192,92268,1,0,0:0:0:0:
64,192,92268,1,0,0:0:0:0:
320,192,92453,128,0,92731:0:0:0:0:
64,192,92638,1,0,0:0:0:0:
320,192,92824,1,0,0:0:0:0:
448,192,93009,1,0,0:0:0:0:
64,192,93009,1,0,0:0:0:0:
320,192,93194,1,0,0:0:0:0:
192,192,93379,1,0,0:0:0:0:
448,192,93379,1,0,0:0:0:0:
192,192,93564,1,0,0:0:0:0:
448,192,93749,1,0,0:0:0:0:
64,192,93749,1,0,0:0:0:0:
192,192,93935,128,0,94212:0:0:0:0:
448,192,94120,1,0,0:0:0:0:
192,192,94305,1,0,0:0:0:0:
64,192,94490,1,0,0:0:0:0:
448,192,94490,1,0,0:0:0:0:
320,192,94675,1,0,0:0:0:0:
448,192,94861,1,0,0:0:0:0:
192,192,94861,1,0,0:0:0:0:
320,192,95046,1,0,0:0:0:0:
448,192,95231,1,0,0:0:0:0:
64,192,95231,1,0,0:0:0:0:
320,192,95416,1,0,0:0:0:0:
192,192,95601,1,0,0:0:0:0:
64,192,95786,1,0,0:0:0:0:
192,192,95972,128,0,96157:0:0:0:0:
448,192,95972,1,0,0:0:0:0:
320,192,96157,1,0,0:0:0:0:
448,192,96342,1,0,0:0:0:0:
64,192,96342,1,0,0:0:0:0:
192,192,96342,1,0,0:0:0:0:
192,192,96527,1,0,0:0:0:0:
64,192,96712,1,0,0:0:0:0:
448,192,96712,1,0,0:0:0:0:
192,192,96898,128,0,97175:0:0:0:0:
448,192,97083,1,0,0:0:0:0:
192,192,97268,1,0,0:0:0:0:
448,192,97453,1,0,0:0:0:0:
64,192,97453,1,0,0:0:0:0:
192,192,97638,1,0,0:0:0:0:
320,192,97824,1,0,0:0:0:0:
64,192,97824,1,0,0:0:0:0:
320,192,98009,1,0,0:0:0:0:
448,192,98194,1,0,0:0:0:0:
64,192,98194,1,0,0:0:0:0:
320,192,98379,128,0,98657:0:0:0:0:
64,192,98564,1,0,0:0:0:0:
320,192,98749,1,0,0:0:0:0:
448,192,98935,1,0,0:0:0:0:
64,192,98935,1,0,0:0:0:0:
320,192,99120,1,0,0:0:0:0:
192,192,99305,1,0,0:0:0:0:
448,192,99305,1,0,0:0:0:0:
192,192,99490,1,0,0:0:0:0:
448,192,99675,1,0,0:0:0:0:
64,192,99675,1,0,0:0:0:0:
192,192,99861,128,0,100138:0:0:0:0:
448,192,100046,1,0,0:0:0:0:
192,192,100231,1,0,0:0:0:0:
448,192,100416,1,0,0:0:0:0:
64,192,100416,1,0,0:0:0:0:
192,192,100601,1,0,0:0:0:0:
320,192,100786,1,0,0:0:0:0:
64,192,100786,1,0,0:0:0:0:
192,192,100972,128,0,101157:0:0:0:0:
448,192,101157,1,0,0:0:0:0:
64,192,101157,1,0,0:0:0:0:
192,192,101342,128,0,101898:0:0:0:0:
448,192,101527,1,0,0:0:0:0:
320,192,101712,1,0,0:0:0:0:
448,192,101898,1,0,0:0:0:0:
64,192,101898,1,0,0:0:0:0:
192,192,102083,1,0,0:0:0:0:
320,192,102268,1,0,0:0:0:0:
64,192,102268,1,0,0:0:0:0:
320,192,102453,1,0,0:0:0:0:
448,192,102638,1,0,0:0:0:0:
64,192,102638,1,0,0:0:0:0:
320,192,102824,128,0,103101:0:0:0:0:
64,192,103009,1,0,0:0:0:0:
320,192,103194,1,0,0:0:0:0:
64,192,103379,1,0,0:0:0:0:
448,192,103379,1,0,0:0:0:0:
192,192,103564,1,0,0:0:0:0:
320,192,103749,1,0,0:0:0:0:
64,192,103749,1,0,0:0:0:0:
320,192,103935,1,0,0:0:0:0:
64,192,104120,1,0,0:0:0:0:
448,192,104120,1,0,0:0:0:0:
320,192,104305,128,0,104583:0:0:0:0:
64,192,104490,1,0,0:0:0:0:
320,192,104675,1,0,0:0:0:0:
64,192,104861,1,0,0:0:0:0:
448,192,104861,1,0,0:0:0:0:
320,192,105046,1,0,0:0:0:0:
192,192,105231,1,0,0:0:0:0:
448,192,105231,1,0,0:0:0:0:
192,192,105416,1,0,0:0:0:0:
64,192,105601,1,0,0:0:0:0:
448,192,105601,1,0,0:0:0:0:
192,192,105786,128,0,106064:0:0:0:0:
448,192,105972,1,0,0:0:0:0:
192,192,106157,1,0,0:0:0:0:
64,192,106342,1,0,0:0:0:0:
448,192,106342,1,0,0:0:0:0:
192,192,106527,1,0,0:0:0:0:
320,192,106712,1,0,0:0:0:0:
64,192,106712,1,0,0:0:0:0:
192,192,106898,1,0,0:0:0:0:
448,192,106898,1,0,0:0:0:0:
320,192,107268,1,0,0:0:0:0:
192,192,107361,1,0,0:0:0:0:
64,192,107453,1,0,0:0:0:0:
448,192,107453,1,0,0:0:0:0:
320,192,107638,1,0,0:0:0:0:
192,192,107731,1,0,0:0:0:0:
448,192,107824,1,0,0:0:0:0:
64,192,107916,1,0,0:0:0:0:
448,192,108009,1,0,0:0:0:0:
64,192,108101,1,0,0:0:0:0:
192,192,108194,1,0,0:0:0:0:
320,192,108194,128,0,108749:0:0:0:0:
448,192,108564,1,0,0:0:0:0:
64,192,108564,1,0,0:0:0:0:
192,192,108749,128,0,109305:0:0:0:0:
448,192,108749,1,0,0:0:0:0:
320,192,109120,1,0,0:0:0:0:
448,192,109305,128,0,109675:0:0:0:0:
64,192,109305,1,0,0:0:0:0:
64,192,109675,128,0,110231:0:0:0:0:
320,192,109675,1,0,0:0:0:0:
320,192,109861,1,0,0:0:0:0:
448,192,110046,1,0,0:0:0:0:
192,192,110046,1,0,0:0:0:0:
448,192,110231,128,0,110786:0:0:0:0:
320,192,110231,1,0,0:0:0:0:
192,192,110601,1,0,0:0:0:0:
64,192,110786,128,0,111157:0:0:0:0:
320,192,110786,1,0,0:0:0:0:
320,192,111157,128,0,111712:0:0:0:0:
192,192,111157,1,0,0:0:0:0:
64,192,111527,1,0,0:0:0:0:
448,192,111527,1,0,0:0:0:0:
448,192,111712,1,0,0:0:0:0:
192,192,111712,128,0,112268:0:0:0:0:
320,192,112083,1,0,0:0:0:0:
448,192,112268,128,0,112638:0:0:0:0:
64,192,112268,1,0,0:0:0:0:
64,192,112638,128,0,113194:0:0:0:0:
320,192,112638,1,0,0:0:0:0:
320,192,112824,1,0,0:0:0:0:
448,192,113009,1,0,0:0:0:0:
192,192,113009,1,0,0:0:0:0:
448,192,113194,128,0,114120:0:0:0:0:
320,192,113564,1,0,0:0:0:0:
192,192,113749,1,0,0:0:0:0:
64,192,113749,1,0,0:0:0:0:
320,192,114120,128,0,114675:0:0:0:0:
64,192,114120,1,0,0:0:0:0:
448,192,114490,1,0,0:0:0:0:
64,192,114490,1,0,0:0:0:0:
192,192,114675,128,0,115231:0:0:0:0:
448,192,114675,1,0,0:0:0:0:
320,192,115046,1,0,0:0:0:0:
64,192,115231,1,0,0:0:0:0:
448,192,115231,128,0,115601:0:0:0:0:
192,192,115416,1,0,0:0:0:0:
320,192,115601,1,0,0:0:0:0:
64,192,115601,128,0,116157:0:0:0:0:
320,192,115786,1,0,0:0:0:0:
192,192,115972,1,0,0:0:0:0:
448,192,115972,1,0,0:0:0:0:
448,192,116157,128,0,116712:0:0:0:0:
320,192,116527,1,0,0:0:0:0:
64,192,116712,128,0,117083:0:0:0:0:
192,192,116712,1,0,0:0:0:0:
448,192,116898,1,0,0:0:0:0:
320,192,117083,128,0,117453:0:0:0:0:
192,192,117083,1,0,0:0:0:0:
448,192,117453,1,0,0:0:0:0:
64,192,117453,1,0,0:0:0:0:
192,192,117638,128,0,118379:0:0:0:0:
320,192,117638,1,0,0:0:0:0:
320,192,118009,1,0,0:0:0:0:
448,192,118194,1,0,0:0:0:0:
64,192,118194,1,0,0:0:0:0:
448,192,118564,128,0,118935:0:0:0:0:
192,192,118564,1,0,0:0:0:0:
64,192,118749,1,0,0:0:0:0:
320,192,118935,1,0,0:0:0:0:
192,192,118935,1,0,0:0:0:0:
64,192,119120,128,0,119861:0:0:0:0:
320,192,119120,1,0,0:0:0:0:
320,192,119490,1,0,0:0:0:0:
448,192,119675,1,0,0:0:0:0:
192,192,119675,1,0,0:0:0:0:
320,192,119861,1,0,0:0:0:0:
64,192,120046,1,0,0:0:0:0:
320,192,120046,128,0,120601:0:0:0:0:
448,192,120046,1,0,0:0:0:0:
192,192,120046,1,0,0:0:0:0:
448,192,120416,1,0,0:0:0:0:
64,192,120416,1,0,0:0:0:0:
192,192,120601,128,0,121157:0:0:0:0:
448,192,120601,1,0,0:0:0:0:
64,192,120786,1,0,0:0:0:0:
320,192,120972,1,0,0:0:0:0:
448,192,121157,128,0,121527:0:0:0:0:
64,192,121157,1,0,0:0:0:0:
64,192,121527,128,0,122083:0:0:0:0:
320,192,121527,1,0,0:0:0:0:
320,192,121712,1,0,0:0:0:0:
448,192,121898,1,0,0:0:0:0:
192,192,121898,1,0,0:0:0:0:
448,192,122083,128,0,122638:0:0:0:0:
320,192,122083,1,0,0:0:0:0:
64,192,122268,1,0,0:0:0:0:
192,192,122453,1,0,0:0:0:0:
64,192,122638,128,0,123009:0:0:0:0:
320,192,122638,1,0,0:0:0:0:
320,192,123009,128,0,123564:0:0:0:0:
192,192,123009,1,0,0:0:0:0:
64,192,123379,1,0,0:0:0:0:
448,192,123379,1,0,0:0:0:0:
448,192,123564,1,0,0:0:0:0:
192,192,123564,128,0,124120:0:0:0:0:
64,192,123749,1,0,0:0:0:0:
320,192,123935,1,0,0:0:0:0:
448,192,124120,128,0,124490:0:0:0:0:
64,192,124120,1,0,0:0:0:0:
64,192,124490,128,0,125046:0:0:0:0:
320,192,124490,1,0,0:0:0:0:
320,192,124675,1,0,0:0:0:0:
448,192,124861,1,0,0:0:0:0:
192,192,124861,1,0,0:0:0:0:
448,192,125046,128,0,125601:0:0:0:0:
64,192,125231,1,0,0:0:0:0:
192,192,125416,1,0,0:0:0:0:
64,192,125601,128,0,125972:0:0:0:0:
320,192,125601,1,0,0:0:0:0:
320,192,125972,128,0,126527:0:0:0:0:
192,192,125972,1,0,0:0:0:0:
448,192,126342,1,0,0:0:0:0:
64,192,126342,1,0,0:0:0:0:
448,192,126527,1,0,0:0:0:0:
192,192,126527,128,0,127083:0:0:0:0:
64,192,126712,1,0,0:0:0:0:
320,192,126898,1,0,0:0:0:0:
448,192,127083,128,0,127453:0:0:0:0:
64,192,127083,1,0,0:0:0:0:
192,192,127268,1,0,0:0:0:0:
320,192,127453,1,0,0:0:0:0:
64,192,127453,128,0,128009:0:0:0:0:
320,192,127638,1,0,0:0:0:0:
192,192,127824,5,0,0:0:0:0:
448,192,127824,1,0,0:0:0:0:
448,192,128009,128,0,128564:0:0:0:0:
320,192,128009,1,0,0:0:0:0:
192,192,128194,1,0,0:0:0:0:
64,192,128379,1,0,0:0:0:0:
320,192,128564,1,0,0:0:0:0:
192,192,128564,1,0,0:0:0:0:
320,192,128935,5,0,0:0:0:0:
64,192,128935,1,0,0:0:0:0:
448,192,129120,1,0,0:0:0:0:
192,192,129120,1,0,0:0:0:0:
192,192,129490,1,0,0:0:0:0:
64,192,129490,1,0,0:0:0:0:
320,192,129675,1,0,0:0:0:0:
448,192,129675,1,0,0:0:0:0:
320,192,130046,1,0,0:0:0:0:
192,192,130046,1,0,0:0:0:0:
64,192,130231,1,0,0:0:0:0:
448,192,130231,1,0,0:0:0:0:
448,192,130601,1,0,0:0:0:0:
192,192,130601,1,0,0:0:0:0:
320,192,130786,1,0,0:0:0:0:
64,192,130786,1,0,0:0:0:0:
320,192,130972,1,0,0:0:0:0:
448,192,131157,1,0,0:0:0:0:
64,192,131157,1,0,0:0:0:0:
320,192,131342,1,0,0:0:0:0:
192,192,131435,1,0,0:0:0:0:
64,192,131527,1,0,0:0:0:0:
192,192,131620,1,0,0:0:0:0:
320,192,131712,128,0,138009:0:0:0:0:
64,192,131712,128,0,138009:0:0:0:0:
448,192,131712,128,0,138009:0:0:0:0:
