osu file format v14

[General]
AudioFilename: audio.mp3
AudioLeadIn: 0
PreviewTime: 88445
Countdown: 1
SampleSet: Soft
StackLeniency: 0.7
Mode: 0
LetterboxInBreaks: 0
WidescreenStoryboard: 1

[Editor]
Bookmarks: 12631,37894,50526,65945,75789,88421
DistanceSpacing: 1
BeatDivisor: 4
GridSize: 8
TimelineZoom: 0.9

[Metadata]
Title:Stay Alive
TitleUnicode:Stay Alive
Artist:BEXEY feat. Fat Nick
ArtistUnicode:BEXEY feat. Fat Nick
Creator:jamesjan3
Version:Normal
Source:
Tags:
BeatmapID:1957011
BeatmapSetID:936824

[Difficulty]
HPDrainRate:3
CircleSize:2.5
OverallDifficulty:4
ApproachRate:4
SliderMultiplier:1
SliderTickRate:1

[Events]
//Background and Video events
0,0,"stayy.jpg",0,0
//Break Periods
//Storyboard Layer 0 (Background)
//Storyboard Layer 1 (Fail)
//Storyboard Layer 2 (Pass)
//Storyboard Layer 3 (Foreground)
//Storyboard Sound Samples

[TimingPoints]
24,394.736842105263,4,2,0,30,1,0
24,-100,4,2,0,30,0,0
12655,-100,4,2,0,30,0,1
18971,-100,4,2,0,30,0,0
25287,-100,4,2,0,30,0,1
31602,-100,4,2,0,30,0,0

[Colours]
Combo1 : 255,128,255
Combo2 : 40,84,236
Combo3 : 133,31,118
Combo4 : 128,255,255

[HitObjects]
192,330,12655,6,0,B|240:343|240:343|290:343,1,100
389,336,13444,1,0,0:0:0:0:
333,253,13839,1,0,0:0:0:0:
271,174,14234,2,0,B|222:160|222:160|172:160,1,100
78,132,15022,1,0,0:3:0:0:
100,228,15417,1,0,0:3:0:0:
133,322,15813,6,0,L|229:347,2,100
186,237,16996,1,0,0:0:0:0:
247,157,17392,2,0,L|150:129,1,100
52,111,18180,1,0,0:0:0:0:
52,111,18575,1,0,0:0:0:0:
124,41,18971,6,0,P|186:46|229:75,1,100
281,141,19760,1,0,0:0:0:0:
347,66,20155,2,0,P|376:106|383:155,2,100,8|0|0,0:0|0:0|0:0,0:0:0:0:
248,51,21339,1,0,0:0:0:0:
281,141,21734,1,0,0:0:0:0:
181,137,22129,6,0,P|188:186|217:226,1,100
315,243,22918,1,0,0:0:0:0:
251,319,23313,2,0,P|297:339|346:336,1,100
433,288,24102,1,0,0:0:0:0:
467,193,24497,1,0,0:0:0:0:
439,96,24892,1,0,0:0:0:0:
439,96,25287,6,0,L|328:80,1,100
241,64,26076,1,0,0:0:0:0:
259,162,26471,1,0,0:0:0:0:
358,178,26866,2,0,L|456:192,1,100
445,291,27655,1,0,0:0:0:0:
345,303,28050,1,0,0:0:0:0:
245,312,28445,6,0,B|194:320|194:320|137:308,2,100
195,225,29629,1,0,0:0:0:0:
145,138,30023,2,0,B|196:130|196:130|253:142,1,100
341,159,30813,1,0,0:0:0:0:
341,159,31208,1,0,0:0:0:0:
364,61,31602,6,0,P|302:66|261:95,1,100
192,148,32392,1,0,0:0:0:0:
179,48,32787,2,0,P|122:74|95:116,1,100
105,203,33576,1,0,0:0:0:0:
169,279,33971,1,0,0:0:0:0:
267,296,34366,1,0,0:0:0:0:
366,288,34760,6,0,P|342:230|301:200,1,100
222,165,35550,1,0,0:0:0:0:
303,106,35945,2,0,P|251:70|201:67,1,100
115,72,36734,1,0,0:0:0:0:
59,153,37129,1,0,0:0:0:0:
61,256,37523,1,0,0:0:0:0:
61,256,37918,6,0,P|133:260|177:250,1,100
256,227,38708,1,0,0:0:0:0:
95,86,39892,6,0,P|133:54|179:36,1,100
279,32,40681,1,0,0:0:0:0:
237,123,41076,2,0,P|198:154|152:172,1,100
51,173,41866,1,0,0:0:0:0:
283,362,43050,6,0,P|325:335|356:296,1,100
385,200,43839,1,0,0:0:0:0:
287,220,44234,2,0,P|244:193|213:154,1,100
176,61,45023,1,0,0:0:0:0:
40,329,46208,6,0,P|25:282|56:227,1,100
132,190,46997,1,0,0:0:0:0:
217,241,47392,2,0,P|236:286|220:332,1,100
132,378,48181,1,0,0:0:0:0:
390,225,49366,6,0,P|380:170|361:128,1,100
298,56,50155,1,0,0:0:0:0:
199,42,50550,6,0,L|88:55,1,100
0,65,51339,1,0,0:0:0:0:
60,144,51734,2,0,L|115:227,1,100
177,305,52523,2,0,L|288:292,1,100
376,282,53312,1,0,0:0:0:0:
316,203,53708,6,0,L|216:214,1,100
116,227,54497,1,0,0:0:0:0:
178,305,54892,1,0,0:0:0:0:
276,290,55287,1,0,0:0:0:0:
338,368,55681,2,0,L|437:356,1,100
477,264,56471,1,0,0:0:0:0:
420,181,56866,6,0,L|365:98,2,100
383,273,58050,1,0,0:0:0:0:
193,210,58839,2,0,P|247:188|248:127,1,100
228,55,59629,1,0,0:0:0:0:
129,73,60023,6,0,P|75:95|74:156,1,100
104,223,60813,1,0,0:0:0:0:
197,257,61208,1,0,0:0:0:0:
292,227,61602,1,0,0:0:0:0:
355,149,61997,1,0,0:0:0:0:
397,239,62392,1,0,0:0:0:0:
397,239,62787,1,0,0:0:0:0:
493,262,63181,6,0,P|510:182|505:145,1,100
488,66,63971,2,0,L|388:54,2,100
418,151,65155,1,0,0:0:0:0:
340,214,65550,1,0,0:0:0:0:
258,271,65945,1,0,0:0:0:0:
172,321,66339,5,0,0:0:0:0:
108,131,67129,2,0,L|207:142,2,100
50,49,68313,1,0,0:0:0:0:
149,44,68708,1,0,0:0:0:0:
248,40,69102,1,0,0:0:0:0:
348,37,69497,5,0,0:0:0:0:
159,117,70287,2,0,L|147:216,2,100
242,171,71471,1,0,0:0:0:0:
323,228,71866,1,0,0:0:0:0:
404,286,72260,1,0,0:0:0:0:
496,345,72655,5,0,0:0:0:0:
480,125,73445,2,0,L|491:25,2,100
397,68,74629,1,0,0:0:0:0:
297,64,75023,1,0,0:0:0:0:
197,59,75418,1,0,0:0:0:0:
197,59,75813,6,0,P|183:96|182:259,1,200,0|0,0:0|0:0,0:0:0:0:
449,250,77787,6,0,P|405:288|358:307,1,100
267,309,78576,1,0,0:0:0:0:
180,254,78971,2,0,P|171:155|197:59,1,200
475,96,80945,6,0,P|431:58|384:39,1,100
293,33,81734,1,0,0:0:0:0:
196,59,82129,2,0,P|171:155|180:254,1,200
31,52,84102,6,0,P|75:90|122:109,1,100
213,111,84891,1,0,0:0:0:0:
213,111,86076,1,0,0:0:0:0:
256,192,86273,12,0,87655,0:0:0:0:
228,293,88445,6,0,B|276:306|276:306|326:306,1,100
425,299,89234,1,0,0:0:0:0:
472,211,89629,1,0,0:0:0:0:
385,160,90024,2,0,B|336:146|336:146|286:146,1,100
187,151,90812,1,0,0:3:0:0:
87,162,91207,1,0,0:3:0:0:
145,243,91603,6,0,L|120:339,2,100
244,255,92786,1,0,0:0:0:0:
342,270,93181,2,0,L|367:366,1,100
454,317,93970,1,0,0:0:0:0:
454,317,94365,1,0,0:0:0:0:
430,219,94760,6,0,P|382:178|333:170,1,100
246,172,95550,1,0,0:0:0:0:
239,271,95945,2,0,P|191:256|155:222,2,100
330,233,97129,1,0,0:0:0:0:
383,148,97523,1,0,0:0:0:0:
425,57,97918,6,0,P|362:52|317:74,1,100
277,152,98708,1,0,0:0:0:0:
330,233,99102,2,0,P|282:247|233:238,1,100
145,191,99892,1,0,0:0:0:0:
80,114,100287,1,0,0:0:0:0:
53,17,100681,1,0,0:0:0:0:
53,17,101076,6,0,L|149:42,1,100
247,66,101866,1,0,0:0:0:0:
343,93,102260,1,0,0:0:0:0:
336,192,102655,2,0,L|240:217,1,100
142,241,103445,1,0,0:0:0:0:
46,268,103839,1,0,0:0:0:0:
119,336,104234,6,0,B|168:350|168:350|218:350,2,100
22,362,105418,1,0,0:0:0:0:
46,268,105813,2,0,L|71:172,1,100
97,74,106602,1,0,0:0:0:0:
97,74,106997,1,0,0:0:0:0:
169,143,107392,6,0,P|231:138|274:109,1,100
316,35,108181,1,0,0:0:0:0:
360,124,108576,2,0,P|336:181|295:213,1,100
214,240,109366,1,0,0:0:0:0:
114,229,109760,1,0,0:0:0:0:
41,159,110155,1,0,0:0:0:0:
15,62,110550,6,0,P|76:67|120:95,2,100
41,159,111734,2,0,P|85:181|134:182,1,100
226,142,112523,1,0,0:0:0:0:
280,58,112918,1,0,0:0:0:0:
280,58,113313,1,0,0:0:0:0:
379,66,113708,5,0,0:0:0:0:
