osu file format v14

[General]
AudioFilename: audio.mp3
AudioLeadIn: 0
PreviewTime: 88445
Countdown: 1
SampleSet: Soft
StackLeniency: 0.7
Mode: 0
LetterboxInBreaks: 0
WidescreenStoryboard: 1

[Editor]
Bookmarks: 12631,37894,50526,75789,88421
DistanceSpacing: 1.3
BeatDivisor: 4
GridSize: 8
TimelineZoom: 1.4

[Metadata]
Title:Stay Alive
TitleUnicode:Stay Alive
Artist:BEXEY feat. Fat Nick
ArtistUnicode:BEXEY feat. Fat Nick
Creator:jamesjan3
Version:Insane
Source:
Tags:
BeatmapID:1957010
BeatmapSetID:936824

[Difficulty]
HPDrainRate:6
CircleSize:3.5
OverallDifficulty:8
ApproachRate:9
SliderMultiplier:1.4
SliderTickRate:1

[Events]
//Background and Video events
0,0,"stayy.jpg",0,0
//Break Periods
2,76013,85476
//Storyboard Layer 0 (Background)
//Storyboard Layer 1 (Fail)
//Storyboard Layer 2 (Pass)
//Storyboard Layer 3 (Foreground)
//Storyboard Sound Samples

[TimingPoints]
24,394.736842105263,4,2,0,30,1,0
24,-100,4,2,0,30,0,0
12655,-66.6666666666667,4,2,0,30,0,1
18576,-100,4,2,0,30,0,1
18971,-100,4,2,0,30,0,0
24892,-76.9230769230769,4,2,0,30,0,0
25089,-58.8235294117647,4,2,0,30,0,0
25287,-66.6666666666667,4,2,0,30,0,1
31208,-100,4,2,0,30,0,1
31602,-100,4,2,0,30,0,0
37918,-133.333333333333,4,2,0,30,0,0
50550,-100,4,2,0,30,0,0
88445,-66.6666666666667,4,2,0,30,0,1
94366,-100,4,2,0,30,0,1
94760,-100,4,2,0,30,0,0
101076,-66.6666666666667,4,2,0,30,0,1
106997,-100,4,2,0,30,0,1
107392,-100,4,2,0,30,0,0

[Colours]
Combo1 : 255,128,255
Combo2 : 40,84,236
Combo3 : 133,31,118
Combo4 : 128,255,255

[HitObjects]
51,117,24,6,0,P|40:151|38:186,1,70
109,263,418,1,0,0:0:0:0:
118,244,517,1,0,0:0:0:0:
123,223,616,1,0,0:0:0:0:
129,203,714,2,0,P|129:178|127:165,1,35
319,319,1208,5,0,0:0:0:0:
325,303,1306,1,0,0:0:0:0:
327,285,1405,2,0,P|324:250|314:216,1,70
224,180,1800,1,0,0:0:0:0:
218,200,1898,1,0,0:0:0:0:
215,220,1997,1,0,0:0:0:0:
159,294,2195,1,0,0:0:0:0:
153,273,2293,1,0,0:0:0:0:
395,79,2787,6,0,P|384:112|382:147,1,70
384,167,3083,1,0,0:0:0:0:
388,187,3181,2,0,P|398:220|417:249,1,70
486,87,3576,1,0,0:0:0:0:
486,65,3675,1,0,0:0:0:0:
426,5,3872,1,0,0:0:0:0:
207,41,4366,5,0,0:0:0:0:
197,59,4464,1,0,0:0:0:0:
191,79,4563,1,0,0:0:0:0:
192,164,4760,1,0,0:0:0:0:
290,220,4958,6,0,P|300:186|302:151,1,70
303,130,5254,1,0,0:0:0:0:
300,109,5352,1,0,0:0:0:0:
294,88,5451,1,0,0:0:0:0:
66,51,5945,5,0,0:0:0:0:
55,69,6043,1,0,0:0:0:0:
47,88,6142,2,0,P|41:114|39:133,2,35
136,114,6537,1,0,0:0:0:0:
211,177,6734,1,0,0:0:0:0:
222,159,6833,1,0,0:0:0:0:
228,139,6932,1,0,0:0:0:0:
229,119,7030,1,0,0:0:0:0:
46,355,7523,5,0,0:0:0:0:
40,339,7621,1,0,0:0:0:0:
38,321,7720,2,0,P|41:286|51:252,1,70
141,216,8115,1,0,0:0:0:0:
147,236,8213,1,0,0:0:0:0:
150,256,8312,1,0,0:0:0:0:
206,330,8510,1,0,0:0:0:0:
212,309,8608,1,0,0:0:0:0:
476,234,9102,5,0,0:0:0:0:
487,252,9200,1,0,0:0:0:0:
495,271,9299,2,0,P|501:297|503:316,2,35
406,297,9694,1,0,0:0:0:0:
331,360,9891,1,0,0:0:0:0:
320,342,9990,1,0,0:0:0:0:
275,275,10187,1,0,0:0:0:0:
366,136,10681,5,0,0:0:0:0:
366,136,10780,1,0,0:0:0:0:
366,136,10879,1,0,0:0:0:0:
256,192,11076,12,0,12260,0:0:0:0:
136,204,12655,6,0,P|144:268|152:284,1,52.5000020027161
185,333,12852,1,0,0:0:0:0:
230,172,13050,1,0,0:0:0:0:
207,136,13148,1,0,0:0:0:0:
170,114,13247,1,0,0:0:0:0:
128,108,13346,1,0,0:0:0:0:
86,116,13445,2,0,P|46:152|33:204,1,105.000004005432
241,262,13839,5,0,0:0:0:0:
361,129,14037,1,0,0:0:0:0:
417,300,14234,2,0,P|387:296|366:287,1,52.5000020027161
302,198,14431,1,0,0:0:0:0:
417,60,14629,1,0,0:0:0:0:
439,92,14727,1,0,0:0:0:0:
461,127,14826,1,0,0:0:0:0:
484,161,14925,1,0,0:0:0:0:
502,198,15024,2,0,L|398:222,1,105.000004005432
232,160,15418,5,0,0:0:0:0:
280,334,15616,1,0,0:0:0:0:
103,356,15813,2,0,P|113:328|129:307,1,52.5000020027161
193,250,16010,1,0,0:0:0:0:
321,319,16208,1,0,0:0:0:0:
280,334,16306,1,0,0:0:0:0:
237,330,16405,1,0,0:0:0:0:
199,310,16504,1,0,0:0:0:0:
171,279,16603,2,0,P|159:226|179:176,1,105.000004005432
327,50,16997,5,0,0:0:0:0:
291,225,17195,1,0,0:0:0:0:
446,146,17392,2,0,P|414:130|386:127,1,52.5000020027161
308,138,17589,1,0,0:0:0:0:
369,317,17787,1,0,0:0:0:0:
409,312,17885,1,0,0:0:0:0:
451,307,17984,1,0,0:0:0:0:
493,304,18083,2,0,B|465:324|465:324|438:381,1,52.5000020027161
297,343,18379,1,0,0:0:0:0:
297,343,18576,6,0,L|197:352,1,70
370,232,18971,2,0,B|360:256|360:256|269:261,1,105
251,234,19366,1,0,0:0:0:0:
228,350,19563,1,0,0:0:0:0:
274,118,19760,1,0,0:0:0:0:
178,4,19958,1,0,0:0:0:0:
132,236,20155,1,0,0:0:0:0:
155,120,20352,2,0,L|55:129,2,70
297,2,20945,5,0,0:0:0:0:
274,118,21142,1,0,0:0:0:0:
489,230,21339,1,0,0:0:0:0:
512,114,21536,1,0,0:0:0:0:
370,232,21734,2,0,L|349:329,1,70
155,120,22129,6,0,B|165:96|165:96|256:91,1,105
274,118,22523,2,0,L|253:215,1,70
178,4,22918,1,0,0:0:0:0:
297,2,23116,1,0,0:0:0:0:
393,116,23313,1,0,0:0:0:0:
370,232,23510,2,0,L|384:163,1,70
489,230,23905,5,0,0:0:0:0:
347,338,24102,1,0,0:0:0:0:
251,234,24300,1,0,0:0:0:0:
109,352,24497,1,0,0:0:0:0:
363,350,24695,1,0,0:0:0:0:
238,220,24893,1,0,0:0:0:0:
376,364,25089,1,0,0:0:0:0:
412,154,25287,6,0,P|384:212|372:225,1,52.5000020027161
325,263,25484,1,0,0:0:0:0:
355,79,25682,1,0,0:0:0:0:
393,63,25780,1,0,0:0:0:0:
436,66,25879,1,0,0:0:0:0:
473,88,25978,1,0,0:0:0:0:
503,117,26077,2,0,P|514:169|494:219,1,105.000004005432
306,170,26471,5,0,0:0:0:0:
123,216,26668,1,0,0:0:0:0:
255,352,26866,2,0,P|257:288|251:270,1,52.5000020027161
221,213,27063,1,0,0:0:0:0:
34,188,27260,1,0,0:0:0:0:
38,228,27358,1,0,0:0:0:0:
45,268,27457,1,0,0:0:0:0:
51,308,27556,1,0,0:0:0:0:
62,349,27655,2,0,L|170:330,1,105.000004005432
352,297,28050,5,0,0:0:0:0:
398,114,28247,1,0,0:0:0:0:
495,271,28445,2,0,P|442:264|423:255,1,52.5000020027161
376,204,28642,1,0,0:0:0:0:
420,24,28839,1,0,0:0:0:0:
457,42,28937,1,0,0:0:0:0:
480,77,29036,1,0,0:0:0:0:
489,117,29135,1,0,0:0:0:0:
484,158,29234,2,0,P|448:197|396:210,1,105.000004005432
216,160,29629,5,0,0:0:0:0:
104,313,29826,1,0,0:0:0:0:
113,124,30023,2,0,P|149:85|168:75,1,52.5000020027161
240,59,30220,1,0,0:0:0:0:
301,238,30418,1,0,0:0:0:0:
306,278,30516,1,0,0:0:0:0:
311,320,30615,1,0,0:0:0:0:
315,361,30714,2,0,B|282:350|282:350|238:304,1,52.5000020027161
122,218,31010,1,0,0:0:0:0:
122,218,31208,6,0,L|195:246,1,70
333,202,31602,2,0,B|330:176|330:176|245:143,1,105
224,134,31997,1,0,0:0:0:0:
326,50,32195,1,0,0:0:0:0:
99,89,32392,1,0,0:0:0:0:
201,5,32589,1,0,0:0:0:0:
451,95,32787,1,0,0:0:0:0:
326,50,32984,2,0,L|261:25,2,70
224,134,33576,5,0,0:0:0:0:
349,179,33773,1,0,0:0:0:0:
122,218,33971,1,0,0:0:0:0:
145,347,34168,1,0,0:0:0:0:
247,263,34366,2,0,L|320:291,1,70
35,280,34760,6,0,B|38:306|38:306|123:339,1,105
145,347,35155,1,0,0:0:0:0:
122,218,35352,1,0,0:0:0:0:
349,179,35550,1,0,0:0:0:0:
224,134,35747,1,0,0:0:0:0:
122,218,35945,1,0,0:0:0:0:
247,263,36142,2,0,L|181:237,1,70
99,89,36537,5,0,0:0:0:0:
201,5,36734,1,0,0:0:0:0:
122,218,36931,1,0,0:0:0:0:
349,179,37129,1,0,0:0:0:0:
206,23,37326,1,0,0:0:0:0:
135,215,37523,1,0,0:0:0:0:
214,43,37721,1,0,0:0:0:0:
90,83,37918,6,0,P|60:117|26:176,1,105.000004005432
9,244,38510,1,0,0:0:0:0:
191,110,38708,2,0,P|223:119|255:142,1,52.5000020027161
342,180,39102,2,0,P|340:232|330:283,1,105.000004005432
284,348,39695,1,0,0:0:0:0:
175,331,39892,2,0,P|225:346|264:351,1,78.7500030040742
284,348,40287,2,0,L|239:287,1,52.5000020027161
199,227,40681,1,0,0:0:0:0:
139,153,40879,1,0,0:0:0:0:
106,243,41076,6,0,P|78:295|47:338,1,105.000004005432
123,364,41668,1,0,0:0:0:0:
36,170,41866,2,0,P|43:137|54:118,2,52.5000020027161
17,246,42458,1,0,0:0:0:0:
148,204,42655,6,0,P|158:152|161:106,1,78.7500030040742
158,100,43050,2,0,L|254:89,1,78.7500030040742
262,90,43445,1,0,0:0:0:0:
342,81,43642,1,0,0:0:0:0:
394,175,43839,2,0,L|315:183,1,78.7500030040742
290,190,44234,6,0,L|277:300,1,105.000004005432
272,373,44826,1,0,0:0:0:0:
376,269,45023,1,0,0:0:0:0:
402,343,45221,1,0,0:0:0:0:
454,284,45418,2,0,P|465:246|467:211,1,52.5000020027161
467,154,45813,5,0,0:0:0:0:
459,75,46010,1,0,0:0:0:0:
350,178,46208,2,0,P|318:192|276:152,1,78.7500030040742
269,134,46602,2,0,L|277:67,1,52.5000020027161
153,41,46997,1,0,0:0:0:0:
156,54,47195,1,0,0:0:0:0:
160,67,47392,6,0,P|101:79|100:130,1,105.000004005432
169,182,47984,1,0,0:0:0:0:
52,309,48181,1,0,0:0:0:0:
81,235,48379,1,0,0:0:0:0:
129,296,48576,2,0,P|167:308|192:308,1,52.5000020027161
258,307,48971,5,0,0:0:0:0:
334,289,49168,1,0,0:0:0:0:
221,181,49366,2,0,P|178:180|149:185,1,52.5000020027161
52,309,49760,1,0,0:0:0:0:
81,235,49958,1,0,0:0:0:0:
129,296,50155,2,0,P|167:308|192:308,1,52.5000020027161
363,280,50550,6,0,P|379:216|366:190,1,70
348,127,50945,1,0,0:0:0:0:
439,146,51142,1,0,0:0:0:0:
199,198,51339,1,0,0:0:0:0:
288,216,51537,1,0,0:0:0:0:
153,127,51734,2,0,P|116:190|134:253,1,140
217,283,52326,5,0,0:0:0:0:
238,116,52523,1,0,0:0:0:0:
199,198,52721,1,0,0:0:0:0:
360,94,52918,1,0,0:0:0:0:
323,181,53116,1,0,0:0:0:0:
497,55,53313,1,0,0:0:0:0:
345,76,53510,1,0,0:0:0:0:
451,244,53708,6,0,P|439:307|374:351,1,140
297,334,54300,1,0,0:0:0:0:
323,181,54497,1,0,0:0:0:0:
368,266,54695,1,0,0:0:0:0:
327,155,54892,1,0,0:0:0:0:
257,248,55090,1,0,0:0:0:0:
166,239,55287,5,0,0:0:0:0:
82,230,55484,1,0,0:0:0:0:
242,85,55681,1,0,0:0:0:0:
151,96,55879,1,0,0:0:0:0:
284,8,56076,1,0,0:0:0:0:
291,168,56273,1,0,0:0:0:0:
291,168,56471,2,0,P|291:211|321:248,1,70
485,229,56866,6,0,P|445:184|372:191,1,105
368,188,57260,1,0,0:0:0:0:
405,271,57458,1,0,0:0:0:0:
212,226,57655,1,0,0:0:0:0:
213,318,57853,1,0,0:0:0:0:
293,360,58050,2,0,P|338:357|375:331,1,70
306,264,58445,6,0,L|286:185,1,70
223,45,58839,1,0,0:0:0:0:
222,137,59037,1,0,0:0:0:0:
415,92,59234,1,0,0:0:0:0:
378,175,59432,1,0,0:0:0:0:
322,9,59629,1,0,0:0:0:0:
289,196,59826,1,0,0:0:0:0:
138,83,60023,5,0,0:0:0:0:
64,158,60221,1,0,0:0:0:0:
140,124,60418,5,0,0:0:0:0:
124,228,60616,1,0,0:0:0:0:
289,196,60813,5,0,0:0:0:0:
337,289,61011,1,0,0:0:0:0:
327,206,61208,5,0,0:0:0:0:
421,254,61406,1,0,0:0:0:0:
368,188,61602,5,0,0:0:0:0:
472,171,61800,1,0,0:0:0:0:
296,71,61997,1,0,0:0:0:0:
400,88,62195,1,0,0:0:0:0:
205,105,62392,1,0,0:0:0:0:
422,86,62589,1,0,0:0:0:0:
281,59,62787,1,0,0:0:0:0:
444,84,62984,1,0,0:0:0:0:
265,47,63181,6,0,P|206:39|113:58,1,140
49,100,63773,1,0,0:0:0:0:
208,143,63971,1,0,0:0:0:0:
141,204,64168,1,0,0:0:0:0:
147,295,64366,2,0,P|166:338|213:364,1,70
273,343,64760,6,0,P|254:300|207:274,1,70
135,147,65155,1,0,0:0:0:0:
187,216,65352,1,0,0:0:0:0:
339,234,65550,1,0,0:0:0:0:
284,159,65747,1,0,0:0:0:0:
439,223,65945,1,0,0:0:0:0:
305,325,66142,1,0,0:0:0:0:
386,127,66339,6,0,P|438:143|489:235,1,140
481,301,66931,1,0,0:0:0:0:
307,200,67129,1,0,0:0:0:0:
393,226,67326,1,0,0:0:0:0:
394,316,67523,2,0,P|362:351|309:361,1,70
260,322,67917,6,0,P|291:286|344:276,1,70
480,341,68313,1,0,0:0:0:0:
479,250,68510,1,0,0:0:0:0:
313,187,68708,1,0,0:0:0:0:
312,278,68905,1,0,0:0:0:0:
477,159,69102,2,0,P|476:109|452:72,1,70
251,83,69497,6,0,P|226:135|222:249,1,140
229,306,70089,1,0,0:0:0:0:
309,161,70287,1,0,0:0:0:0:
312,251,70484,1,0,0:0:0:0:
387,200,70681,2,0,P|419:167|430:138,1,70
421,54,71076,5,0,0:0:0:0:
333,77,71273,1,0,0:0:0:0:
220,221,71471,2,0,P|171:247|121:219,1,105
124,185,71866,1,0,0:0:0:0:
202,139,72063,1,0,0:0:0:0:
223,327,72260,1,0,0:0:0:0:
35,236,72458,1,0,0:0:0:0:
255,209,72655,6,0,P|239:233|136:217,1,140
112,138,73247,1,0,0:0:0:0:
289,119,73445,1,0,0:0:0:0:
196,88,73642,1,0,0:0:0:0:
285,74,73839,2,0,P|323:86|373:120,1,70
424,49,74234,6,0,P|462:61|512:95,1,70
389,218,74629,1,0,0:0:0:0:
304,184,74826,1,0,0:0:0:0:
216,308,75023,1,0,0:0:0:0:
286,166,75221,1,0,0:0:0:0:
415,215,75418,1,0,0:0:0:0:
273,152,75616,1,0,0:0:0:0:
441,215,75813,5,0,0:0:0:0:
305,216,86076,6,0,B|366:262|309:334|267:294|267:294,1,140
256,192,86570,12,0,88050,0:0:0:0:
