osu file format v14

[General]
AudioFilename: audio.mp3
AudioLeadIn: 0
PreviewTime: 88445
Countdown: 1
SampleSet: Soft
StackLeniency: 0.7
Mode: 0
LetterboxInBreaks: 0
WidescreenStoryboard: 0

[Editor]
Bookmarks: 12631,37894,50526,75789,88421,113708
DistanceSpacing: 1.2
BeatDivisor: 4
GridSize: 8
TimelineZoom: 1.3

[Metadata]
Title:Stay Alive
TitleUnicode:Stay Alive
Artist:BEXEY feat. Fat Nick
ArtistUnicode:BEXEY feat. Fat Nick
Creator:jamesjan3
Version:Dead
Source:
Tags:
BeatmapID:1957008
BeatmapSetID:936824

[Difficulty]
HPDrainRate:7
CircleSize:4
OverallDifficulty:8
ApproachRate:9.2
SliderMultiplier:1.5
SliderTickRate:1

[Events]
//Background and Video events
0,0,"stayy.jpg",0,0
//Break Periods
2,86670,87875
//Storyboard Layer 0 (Background)
//Storyboard Layer 1 (Fail)
//Storyboard Layer 2 (Pass)
//Storyboard Layer 3 (Foreground)
//Storyboard Sound Samples

[TimingPoints]
24,394.736842105263,4,2,0,30,1,0
24,-76.9230769230769,4,2,0,30,0,0
12655,-50,4,2,0,30,0,1
18379,-100,4,2,0,30,0,1
18971,-100,4,2,0,30,0,0
24892,-74.0740740740741,4,2,0,30,0,0
25089,-58.8235294117647,4,2,0,30,0,0
25287,-50,4,2,0,30,0,1
31208,-100,4,2,0,30,0,1
31602,-100,4,2,0,30,0,0
37918,-133.333333333333,4,2,0,30,0,0
50550,-83.3333333333333,4,2,0,30,0,0
75813,-133.333333333333,4,2,0,30,0,0
86076,-133.333333333333,4,2,0,30,0,0
88445,-50,4,2,0,30,0,1
94366,-100,4,2,0,30,0,1
94760,-100,4,2,0,30,0,0
100681,-74.0740740740741,4,2,0,30,0,0
100879,-58.8235294117647,4,2,0,30,0,0
101076,-50,4,2,0,30,0,1
106997,-100,4,2,0,30,0,1
107392,-100,4,2,0,30,0,0

[Colours]
Combo1 : 255,128,255
Combo2 : 40,84,236
Combo3 : 133,31,118
Combo4 : 128,255,255

[HitObjects]
117,157,24,6,0,P|158:154|195:171,1,48.7499977684022
193,223,221,1,0,0:0:0:0:
71,220,418,2,0,L|62:299,2,48.7499977684022
43,152,714,1,0,0:0:0:0:
394,31,1208,6,0,P|376:68|342:91,1,48.7499977684022
308,111,1405,1,0,0:0:0:0:
232,177,1602,2,0,P|273:180|310:163,1,48.7499977684022
354,176,1800,1,0,0:0:0:0:
415,254,1997,2,0,L|406:333,2,48.7499977684022
426,181,2293,1,0,0:0:0:0:
197,297,2787,6,0,P|238:294|275:311,1,48.7499977684022
273,363,2984,1,0,0:0:0:0:
151,232,3181,2,0,L|72:223,1,48.7499977684022
75,295,3379,1,0,0:0:0:0:
228,222,3576,1,0,0:0:0:0:
233,173,3675,1,0,0:0:0:0:
247,27,3872,1,0,0:0:0:0:
493,57,4366,6,0,L|484:136,1,48.7499977684022
414,115,4563,2,0,L|419:66,1,48.7499977684022
342,100,4760,1,0,0:0:0:0:
356,221,4958,2,0,P|331:219|308:211,1,48.7499977684022
251,165,5155,2,0,L|260:86,2,48.7499977684022
240,238,5451,1,0,0:0:0:0:
449,368,5945,6,0,P|473:366|496:358,1,48.7499977684022
507,285,6142,2,0,P|482:286|459:294,1,48.7499977684022
338,329,6339,2,0,P|362:327|385:319,1,48.7499977684022
396,246,6536,2,0,P|371:247|348:255,1,48.7499977684022
266,348,6734,1,0,0:0:0:0:
212,340,6833,1,0,0:0:0:0:
95,330,7030,1,0,0:0:0:0:
25,131,7523,6,0,P|49:129|72:121,1,48.7499977684022
140,92,7721,2,0,L|145:140,1,48.7499977684022
158,212,7918,1,0,0:0:0:0:
211,75,8116,2,0,P|235:76|258:84,1,48.7499977684022
316,129,8313,2,0,L|307:208,2,48.7499977684022
327,56,8609,1,0,0:0:0:0:
12,337,9102,6,0,P|32:349|55:356,1,48.7499977684022
112,276,9300,2,0,L|63:281,1,48.7499977684022
35,213,9497,2,0,L|83:207,1,48.7499977684022
137,155,9695,2,0,P|116:141|93:135,1,48.7499977684022
61,71,9892,1,0,0:0:0:0:
110,66,9991,1,0,0:0:0:0:
257,48,10188,1,0,0:0:0:0:
257,48,10681,6,0,L|266:127,1,48.7499977684022
251,169,10879,2,0,L|242:248,1,48.7499977684022
256,192,11076,12,0,12458,0:0:0:0:
129,195,12655,6,0,P|89:250|89:273,1,75
127,327,12852,2,0,P|167:272|167:249,1,75
14,268,13050,1,0,0:0:0:0:
56,346,13148,1,0,0:0:0:0:
135,384,13247,1,0,0:0:0:0:
221,368,13346,1,0,0:0:0:0:
281,304,13445,2,0,P|297:266|307:209,1,75
458,44,13839,6,0,L|376:53,1,75
340,133,14037,2,0,L|414:124,1,75
499,241,14234,2,0,P|444:281|421:281,1,75
367,243,14431,2,0,P|422:203|445:203,1,75
512,339,14629,1,0,0:0:0:0:
425,362,14727,1,0,0:0:0:0:
341,329,14826,1,0,0:0:0:0:
292,252,14925,1,0,0:0:0:0:
297,160,15023,2,0,P|306:118|331:67,1,75
379,20,15221,1,0,0:0:0:0:
186,130,15418,6,0,L|176:55,1,75
98,12,15616,2,0,L|106:86,1,75
125,254,15813,2,0,P|123:219|116:179,1,75
37,136,16010,2,0,P|39:171|45:210,1,75
74,336,16208,1,0,0:0:0:0:
150,383,16306,1,0,0:0:0:0:
239,376,16405,1,0,0:0:0:0:
306,318,16504,1,0,0:0:0:0:
326,231,16602,2,0,P|329:189|321:132,1,75
501,246,16997,6,0,L|491:327,1,75
413,364,17195,2,0,L|421:289,1,75
511,83,17392,2,0,B|515:124|501:164,1,75
425,200,17589,2,0,B|421:159|434:118,1,75
507,52,17787,1,0,0:0:0:0:
457,126,17885,1,0,0:0:0:0:
373,156,17984,1,0,0:0:0:0:
287,130,18083,2,0,B|275:163|275:163|277:187|277:187|266:198,1,75
152,333,18379,1,0,0:0:0:0:
152,333,18576,6,0,L|95:263,1,75
328,363,18971,2,0,B|297:320|263:344,1,75
431,346,19366,2,0,L|451:307,1,37.5
481,245,19563,1,0,0:0:0:0:
358,68,19760,2,0,L|321:146,1,75
482,2,20155,2,0,L|460:45,1,37.5
372,229,20352,2,0,L|404:161,2,75
267,61,20945,5,0,0:0:0:0:
51,9,21142,2,0,L|51:46,1,37.5
64,190,21339,1,0,0:0:0:0:
207,284,21537,2,0,L|172:268,1,37.5
47,195,21734,2,0,L|130:141,1,75
434,34,22129,6,0,B|383:17|370:56,2,75
242,38,22721,2,0,L|261:78,1,37.5
412,179,22918,2,0,L|460:273,1,75
296,137,23313,2,0,L|315:177,1,37.5
398,360,23510,2,0,L|365:292,1,75
190,376,23905,5,0,0:0:0:0:
134,162,24102,2,0,L|139:118,1,37.5
224,79,24300,2,0,L|220:128,1,37.5
195,360,24497,1,0,0:0:0:0:
297,178,24695,2,0,L|303:131,1,37.5
226,66,24892,2,0,L|221:118,1,50.6250001931191
201,342,25089,2,0,L|268:353,1,63.7500012159348
348,354,25287,6,0,P|414:334|436:312,1,75
366,198,25484,2,0,P|363:267|377:294,1,75
496,292,25681,1,0,0:0:0:0:
511,203,25780,1,0,0:0:0:0:
459,128,25879,1,0,0:0:0:0:
369,110,25977,1,0,0:0:0:0:
292,159,26076,2,0,P|263:189|235:240,1,75
142,312,26471,6,0,L|138:199,1,75
298,295,26668,2,0,L|225:318,1,75
75,373,26866,2,0,P|61:304|71:274,1,75
212,290,27063,2,0,P|146:312|115:308,1,75
26,224,27260,1,0,0:0:0:0:
65,145,27359,1,0,0:0:0:0:
147,116,27458,1,0,0:0:0:0:
226,152,27556,1,0,0:0:0:0:
257,232,27655,2,0,P|254:272|237:328,1,75
199,383,27852,1,0,0:0:0:0:
356,328,28050,6,0,L|430:343,1,75
496,281,28248,2,0,L|424:266,1,75
257,232,28445,2,0,P|291:240|332:247,1,75
397,185,28642,2,0,P|364:177|325:170,1,75
267,313,28839,1,0,0:0:0:0:
356,328,28938,1,0,0:0:0:0:
431,276,29037,1,0,0:0:0:0:
449,186,29135,1,0,0:0:0:0:
400,109,29234,2,0,P|370:80|319:52,1,75
276,238,29629,6,0,L|266:311,1,75
187,355,29827,2,0,L|194:280,1,75
215,113,30024,2,0,P|213:147|207:186,1,75
126,232,30221,2,0,P|127:195|133:156,1,75
260,32,30418,1,0,0:0:0:0:
193,93,30517,1,0,0:0:0:0:
105,112,30616,1,0,0:0:0:0:
18,90,30714,2,0,B|15:109|15:109|21:140|21:140|0:186,1,75
100,321,31010,1,0,0:0:0:0:
100,321,31208,6,0,L|49:403,1,75
280,321,31602,2,0,B|319:368|290:384,1,75
392,168,31997,2,0,L|372:207,1,37.5
332,263,32194,1,0,0:0:0:0:
234,75,32392,2,0,L|271:153,1,75
110,9,32787,2,0,L|132:52,1,37.5
220,240,32984,2,0,L|187:172,2,75
155,109,33576,5,0,0:0:0:0:
46,273,33773,2,0,L|84:297,1,37.5
204,357,33971,1,0,0:0:0:0:
307,242,34168,2,0,L|278:279,1,37.5
199,373,34366,2,0,L|183:264,1,75
497,351,34760,6,0,B|450:312|434:341,2,75
343,361,35353,2,0,L|351:308,1,37.5
367,163,35550,2,0,L|379:77,1,75
281,258,35945,2,0,L|287:214,1,37.5
312,21,36142,2,0,L|301:95,1,75
484,19,36537,5,0,0:0:0:0:
466,156,36734,2,0,L|427:179,1,37.5
286,221,36931,2,0,L|294:168,1,37.5
304,83,37128,1,0,0:0:0:0:
153,4,37326,2,0,L|144:49,1,37.5
127,139,37523,2,0,L|169:165,1,37.5
285,234,37721,2,0,L|276:289,1,37.5
260,370,37918,6,0,P|187:376|144:369,1,112.500004291535
96,318,38510,1,0,0:0:0:0:
209,226,38708,1,0,0:0:0:0:
125,239,38905,1,0,0:0:0:0:
73,175,39102,2,0,P|55:153|45:127,1,56.2500021457673
37,54,39497,5,0,0:0:0:0:
104,83,39695,1,0,0:0:0:0:
219,32,39892,2,0,P|245:94|251:134,1,84.3750032186509
246,153,40287,1,0,0:0:0:0:
316,176,40484,1,0,0:0:0:0:
400,66,40681,2,0,P|401:99|397:119,1,28.1250010728836
446,172,40879,2,0,P|427:200|412:213,1,28.1250010728836
443,292,41076,6,0,P|376:319|334:326,1,112.500004291535
263,323,41668,1,0,0:0:0:0:
123,265,41866,1,0,0:0:0:0:
190,236,42063,1,0,0:0:0:0:
132,193,42260,1,0,0:0:0:0:
65,222,42458,1,0,0:0:0:0:
141,121,42655,6,0,P|158:99|168:73,1,56.2500021457673
331,67,43050,2,0,P|305:129|281:162,1,84.3750032186509
263,170,43445,1,0,0:0:0:0:
322,212,43642,1,0,0:0:0:0:
397,138,43839,2,0,P|413:203|412:244,1,84.3750032186509
430,54,44234,6,0,P|476:90|516:134,1,112.500004291535
486,203,44826,1,0,0:0:0:0:
386,297,45023,1,0,0:0:0:0:
454,323,45221,1,0,0:0:0:0:
314,307,45418,2,0,P|297:285|287:259,1,56.2500021457673
271,186,45813,5,0,0:0:0:0:
274,113,46010,1,0,0:0:0:0:
185,239,46208,2,0,L|106:278,1,84.3750032186509
76,288,46602,1,0,0:0:0:0:
69,214,46800,1,0,0:0:0:0:
71,72,46997,2,0,P|90:72|105:80,1,28.1250010728836
188,78,47195,2,0,P|203:92|216:123,1,28.1250010728836
290,124,47392,6,0,P|338:163|309:217,1,112.500004291535
296,285,47984,1,0,0:0:0:0:
413,150,48181,1,0,0:0:0:0:
407,264,48379,1,0,0:0:0:0:
509,213,48576,2,0,P|517:175|506:142,1,56.2500021457673
495,88,48971,5,0,0:0:0:0:
443,35,49168,1,0,0:0:0:0:
326,87,49366,2,0,P|300:148|294:189,1,84.3750032186509
296,201,49760,1,0,0:0:0:0:
399,265,49958,1,0,0:0:0:0:
501,214,50155,2,0,P|507:175|498:143,1,56.2500021457673
256,41,50550,6,0,P|208:42|159:56,1,89.9999972534181
124,66,50846,1,0,0:0:0:0:
85,88,50945,1,0,0:0:0:0:
29,210,51142,1,0,0:0:0:0:
163,198,51339,1,0,0:0:0:0:
107,320,51537,1,0,0:0:0:0:
264,175,51734,2,0,B|299:144|299:144|321:76,1,89.9999972534181
439,56,52129,6,0,L|410:150,1,89.9999972534181
372,280,52523,2,0,P|389:303|422:320,1,44.999998626709
491,330,52721,1,0,0:0:0:0:
312,350,52918,1,0,0:0:0:0:
385,185,53116,1,0,0:0:0:0:
206,205,53313,2,0,P|221:185|236:172,1,44.999998626709
307,116,53510,2,0,B|293:137|275:146,1,44.999998626709
125,175,53708,6,0,P|126:223|141:270,1,89.9999972534181
146,287,54004,1,0,0:0:0:0:
157,306,54103,1,0,0:0:0:0:
27,269,54300,1,0,0:0:0:0:
125,175,54497,1,0,0:0:0:0:
93,44,54695,1,0,0:0:0:0:
223,81,54892,1,0,0:0:0:0:
125,175,55089,1,0,0:0:0:0:
255,212,55287,6,0,L|357:250,1,89.9999972534181
465,291,55681,2,0,P|448:314|415:331,1,44.999998626709
345,340,55879,1,0,0:0:0:0:
431,183,56076,1,0,0:0:0:0:
353,20,56273,1,0,0:0:0:0:
251,169,56471,2,0,B|210:192|210:192|167:192,1,89.9999972534181
27,345,56866,6,0,P|72:358|123:360,1,89.9999972534181
159,362,57162,1,0,0:0:0:0:
203,352,57261,1,0,0:0:0:0:
308,267,57458,1,0,0:0:0:0:
435,316,57655,1,0,0:0:0:0:
414,182,57852,1,0,0:0:0:0:
287,133,58050,2,0,B|243:115|243:115|200:122,1,89.9999972534181
119,231,58445,6,0,L|220:216,1,89.9999972534181
284,303,58839,2,0,P|273:321|226:331,1,44.999998626709
188,344,59037,1,0,0:0:0:0:
302,205,59234,1,0,0:0:0:0:
365,373,59431,1,0,0:0:0:0:
479,235,59629,2,0,P|481:264|462:296,1,44.999998626709
448,366,59826,2,0,P|467:337|462:303,1,44.999998626709
396,159,60023,6,0,P|353:184|371:254,1,89.9999972534181,0|0,0:3|0:3,0:3:0:0:
358,260,60319,1,0,0:3:0:0:
377,298,60418,1,0,0:3:0:0:
338,149,60616,1,0,0:0:0:0:
274,290,60813,1,0,0:3:0:0:
259,136,61010,1,0,0:0:0:0:
134,226,61208,1,0,0:3:0:0:
198,86,61405,1,0,0:0:0:0:
45,101,61602,5,0,0:3:0:0:
171,12,61800,1,0,0:0:0:0:
259,136,61997,2,0,P|236:157|196:173,1,44.999998626709,0|0,2:0|2:0,2:0:0:0:
134,226,62195,1,0,0:0:0:0:
326,191,62392,1,0,0:0:0:0:
187,305,62589,1,0,0:0:0:0:
401,243,62787,2,0,B|387:268|358:290,1,44.999998626709
267,373,62984,1,0,0:0:0:0:
404,160,63181,6,0,P|417:78|339:14,1,179.999994506836
271,40,63773,1,0,0:0:0:0:
354,224,63971,1,0,0:0:0:0:
271,189,64168,1,0,0:0:0:0:
185,218,64366,2,0,L|86:255,1,89.9999972534181
93,159,64760,6,0,L|177:127,1,89.9999972534181
383,117,65155,2,0,P|356:136|320:154,1,44.999998626709,0|0,2:0|2:0,2:0:0:0:
256,154,65352,1,0,0:0:0:0:
353,1,65550,1,0,0:0:0:0:
437,161,65747,1,0,0:0:0:0:
328,308,65945,2,0,P|344:298|365:283,1,44.999998626709,0|0,2:0|2:0,2:0:0:0:
424,249,66142,2,0,P|404:260|386:273,1,44.999998626709,0|0,2:0|2:0,2:0:0:0:
237,325,66339,6,0,P|172:267|184:181,1,179.999994506836
259,131,66931,1,0,0:0:0:0:
333,276,67129,1,0,0:0:0:0:
391,207,67326,1,0,0:0:0:0:
478,228,67523,2,0,L|520:138,1,89.9999972534181
472,52,67918,6,0,L|433:133,1,89.9999972534181
318,221,68313,2,0,P|298:209|280:196,1,44.999998626709,0|0,2:0|2:0,2:0:0:0:
215,133,68510,1,0,0:0:0:0:
386,184,68708,1,0,0:0:0:0:
257,308,68905,1,0,0:0:0:0:
318,110,69102,2,0,B|358:88|358:88|422:83,1,89.9999972534181,0|0,2:0|2:0,2:0:0:0:
462,258,69497,6,0,P|428:333|346:348,1,134.999995880127
338,348,69892,1,0,0:0:0:0:
257,308,70089,1,0,0:0:0:0:
325,166,70287,1,0,0:0:0:0:
332,257,70484,1,0,0:0:0:0:
250,217,70681,2,0,L|153:173,1,89.9999972534181
93,230,71076,5,0,0:0:0:0:
174,267,71273,1,0,0:0:0:0:
156,87,71471,2,0,P|170:69|193:62,1,44.999998626709,0|0,2:0|2:0,2:0:0:0:
278,33,71668,1,0,0:0:0:0:
168,179,71866,1,0,0:0:0:0:
96,10,72063,1,0,0:0:0:0:
246,98,72260,2,0,P|222:105|201:96,1,44.999998626709,0|0,2:3|2:0,2:0:0:0:
111,85,72458,2,0,P|132:77|155:86,1,44.999998626709,0|0,2:3|2:0,2:0:0:0:
265,256,72655,6,0,P|297:333|221:373,1,179.999994506836
129,342,73247,1,0,0:0:0:0:
160,173,73445,1,0,0:0:0:0:
72,194,73642,1,0,0:0:0:0:
206,92,73839,2,0,P|261:81|321:98,1,89.9999972534181
334,167,74234,6,0,P|279:178|219:161,1,89.9999972534181
141,37,74629,2,0,P|170:16|207:11,1,44.999998626709
268,10,74826,1,0,0:0:0:0:
105,110,75023,1,0,0:0:0:0:
274,202,75221,1,0,0:0:0:0:
283,91,75418,2,0,P|262:100|245:114,1,44.999998626709
284,307,75616,1,0,0:0:0:0:
401,136,75813,6,0,B|368:207|466:247|398:329,1,196.875007510186
403,322,76602,1,0,0:0:0:0:
124,214,77787,6,0,P|122:158|146:110,1,84.3750032186509
131,131,78181,1,0,0:0:0:0:
380,53,78576,2,0,P|353:61|331:79,1,56.2500021457673
315,104,78971,6,0,P|371:182|307:193,1,196.875007510186
310,194,79760,1,0,0:0:0:0:
147,367,80945,6,0,P|91:369|43:345,1,84.3750032186509
65,359,81339,1,0,0:0:0:0:
205,311,81734,2,0,P|158:279|133:232,1,84.3750032186509
281,287,82129,6,0,P|243:185|259:82,1,196.875007510186
252,99,82918,1,0,0:0:0:0:
109,39,84102,6,0,P|62:70|37:117,1,84.3750032186509,0|0,0:3|0:3,0:3:0:0:
47,93,84496,1,0,0:3:0:0:
380,53,84892,2,0,P|353:61|331:79,1,56.2500021457673
332,79,86076,6,0,P|344:119|346:73,1,112.500004291535
179,155,88445,6,0,P|139:210|139:233,1,75
216,296,88642,2,0,P|216:227|202:209,1,75
68,180,88839,1,0,0:0:0:0:
78,269,88938,1,0,0:0:0:0:
160,304,89037,1,0,0:0:0:0:
231,250,89135,1,0,0:0:0:0:
221,161,89234,2,0,P|189:134|138:106,1,75
350,213,89629,6,0,L|389:126,1,75
482,158,89826,2,0,L|431:222,1,75
392,357,90023,2,0,P|391:288|405:270,1,75
504,265,90221,2,0,P|464:320|442:327,1,75
312,291,90418,1,0,0:0:0:0:
350,213,90517,1,0,0:0:0:0:
435,217,90616,1,0,0:0:0:0:
475,293,90714,1,0,0:0:0:0:
437,371,90813,2,0,P|395:374|338:366,1,75
272,371,91010,1,0,0:0:0:0:
124,348,91208,6,0,L|114:248,1,75
30,227,91405,2,0,L|37:301,1,75
197,238,91602,2,0,P|197:195|187:138,1,75
103,117,91800,2,0,P|103:160|113:217,1,75
177,67,91997,1,0,0:0:0:0:
96,28,92096,1,0,0:0:0:0:
22,78,92195,1,0,0:0:0:0:
29,167,92293,1,0,0:0:0:0:
107,192,92392,2,0,P|144:194|181:191,1,75
501,269,92787,6,0,L|400:258,1,75
424,171,92984,2,0,L|498:178,1,75
427,355,93181,2,0,P|383:355|326:345,1,75
352,257,93379,2,0,P|395:257|452:267,1,75
279,310,93576,1,0,0:0:0:0:
270,220,93675,1,0,0:0:0:0:
343,167,93773,1,0,0:0:0:0:
425,203,93872,2,0,B|452:226|452:226|464:222|464:222|496:254,1,75
389,43,94168,1,0,0:0:0:0:
389,43,94366,6,0,L|489:11,1,75
194,65,94760,2,0,B|233:18|204:2,1,75
97,172,95155,2,0,L|46:217,1,37.5
12,245,95352,1,0,0:0:0:0:
220,268,95550,2,0,L|290:194,1,75
27,376,95945,2,0,L|52:347,1,37.5
162,210,96142,2,0,L|113:267,2,75
220,268,96734,5,0,0:0:0:0:
229,113,96931,2,0,L|186:85,1,37.5
90,24,97129,1,0,0:0:0:0:
24,160,97326,2,0,L|42:112,1,37.5
84,6,97523,2,0,P|104:45|125:104,1,75
381,30,97918,6,0,B|334:69|318:40,2,75
238,62,98412,2,0,L|213:107,1,37.5
322,233,98708,2,0,L|279:332,1,75
208,176,99102,2,0,L|185:221,1,37.5
115,376,99300,2,0,L|144:307,1,75
306,384,99695,5,0,0:0:0:0:
444,302,99892,2,0,L|424:248,1,37.5
381,117,100089,2,0,L|355:167,1,37.5
292,301,100287,1,0,0:0:0:0:
144,307,100484,2,0,L|164:253,1,37.5
207,122,100681,2,0,L|232:174,1,50.6250001931191
292,301,100879,2,0,L|295:232,1,63.7500012159348
302,152,101076,6,0,P|341:96|363:89,1,75
435,108,101273,2,0,P|395:163|373:170,1,75
288,29,101471,1,0,0:0:0:0:
377,14,101570,1,0,0:0:0:0:
418,94,101668,1,0,0:0:0:0:
354,157,101767,1,0,0:0:0:0:
274,115,101866,2,0,P|259:80|249:44,1,75
67,265,102260,6,0,L|84:352,1,75
172,353,102458,2,0,L|156:279,1,75
81,142,102655,2,0,P|94:176|123:199,1,75
214,186,102852,2,0,P|199:151|170:129,1,75
67,265,103050,1,0,0:0:0:0:
156,280,103149,1,0,0:0:0:0:
197,200,103247,1,0,0:0:0:0:
133,137,103346,1,0,0:0:0:0:
53,179,103445,2,0,P|38:213|28:249,1,75
24,339,103642,1,0,0:0:0:0:
253,308,103839,6,0,L|266:234,1,75
345,193,104037,2,0,L|331:266,1,75
197,200,104234,2,0,P|201:160|210:126,1,75
289,85,104432,2,0,P|285:124|275:158,1,75
157,48,104629,1,0,0:0:0:0:
246,33,104728,1,0,0:0:0:0:
287,113,104826,1,0,0:0:0:0:
223,176,104925,1,0,0:0:0:0:
143,134,105024,2,0,P|128:99|118:63,1,75
177,359,105418,6,0,L|163:285,1,75
85,244,105616,2,0,L|98:317,1,75
156,207,105813,2,0,P|152:167|142:133,1,75
64,92,106011,2,0,P|68:131|77:165,1,75
204,85,106208,1,0,0:0:0:0:
133,26,106306,1,0,0:0:0:0:
54,75,106405,1,0,0:0:0:0:
77,165,106504,2,0,B|68:193|68:193|81:212|81:212|29:241,1,75
285,148,106800,1,0,0:0:0:0:
285,148,106997,6,0,L|358:100,1,75
247,325,107392,2,0,B|306:340|292:370,1,75
38,351,107787,2,0,L|24:297,1,37.5,0|0,0:3|0:3,0:3:0:0:
12,241,107984,1,0,0:3:0:0:
66,113,108181,2,0,L|87:197,1,75
142,15,108576,2,0,L|154:62,1,37.5
209,229,108773,2,0,L|184:150,2,75
346,272,109366,5,0,0:0:0:0:
466,320,109563,2,0,L|448:280,1,37.5
360,110,109760,1,0,0:0:0:0:
257,293,109958,2,0,L|275:253,1,37.5
363,83,110155,2,0,L|355:166,1,75
176,23,110550,6,0,B|143:74|119:51,2,75,0|0|0,0:0|0:0|3:0,3:0:0:0:
41,147,111142,2,0,L|50:202,1,37.5,0|0,0:3|0:3,0:3:0:0:
183,293,111339,2,0,L|199:390,1,75
248,143,111734,2,0,L|257:198,1,37.5,0|0,0:3|0:3,0:3:0:0:
289,384,111931,2,0,L|276:309,1,75
411,367,112326,5,0,0:0:0:0:
473,234,112523,2,0,L|480:183,1,37.5
420,62,112721,2,0,L|413:128,1,37.5
395,329,112918,1,0,0:0:0:0:
278,245,113116,2,0,L|257:196,1,37.5
275,65,113313,2,0,L|302:125,1,37.5
379,291,113510,2,0,L|372:249,1,37.5
362,183,113708,5,0,0:0:0:0:
