osu file format v14

[General]
AudioFilename: audio.mp3
AudioLeadIn: 0
PreviewTime: 55790
Countdown: 0
SampleSet: Soft
StackLeniency: 0.3
Mode: 0
LetterboxInBreaks: 0
EpilepsyWarning: 1
WidescreenStoryboard: 1

[Editor]
Bookmarks: 6212,18680,31147,43615,53062,53355,53452,53744,53842,54134,54231,54523,54913,56082,68550,81017,93485,105952,130888,143355,155823
DistanceSpacing: 0.6
BeatDivisor: 4
GridSize: 4
TimelineZoom: 3.299999

[Metadata]
Title:SHIBARI (Prod. Mikey The Magician)
TitleUnicode:SHIBARI (Prod. Mikey The Magician)
Artist:BEXEY & GHOSTEMANE
ArtistUnicode:BEXEY & GHOSTEMANE
Creator:Styxwater
Version:STYX X EMILIA
Source:
Tags:
BeatmapID:2225703
BeatmapSetID:1062884

[Difficulty]
HPDrainRate:5
CircleSize:4.2
OverallDifficulty:9
ApproachRate:9.2
SliderMultiplier:3.4
SliderTickRate:1

[Events]
//Background and Video events
0,0,"MOSHED-2019-10-31-0-25-58.jpg",0,0
//Break Periods
2,118618,124082
//Storyboard Layer 0 (Background)
//Storyboard Layer 1 (Fail)
//Storyboard Layer 2 (Pass)
//Storyboard Layer 3 (Foreground)
//Storyboard Layer 4 (Overlay)
//Storyboard Sound Samples

[TimingPoints]
-21.0519480519482,389.61038961039,4,2,1,60,1,0
4654,-71.4285714285714,4,2,1,60,0,0
4946,-35.7142857142857,4,2,1,60,0,0
5043,-71.4285714285714,4,2,1,60,0,0
5433,-71.4285714285714,4,2,1,60,0,0
5482,-71.4285714285714,4,2,1,5,0,0
6017,-100,4,2,1,60,0,0
6115,-100,4,2,1,5,0,0
6212,-40,4,2,1,60,0,0
6358,-40,4,2,1,5,0,0
6407,-222.222222222221,4,2,1,60,0,0
6504,-222.222222222221,4,2,1,5,0,0
6602,-100,4,2,1,60,0,0
6699,-100,4,2,1,5,0,0
6797,-222.222222222221,4,2,1,60,0,0
6894,-222.222222222221,4,2,1,5,0,0
6991,-50,4,2,1,60,0,0
7089,-50,4,2,1,5,0,0
7186,-100,4,2,1,60,0,0
7284,-100,4,2,1,5,0,0
7381,-41.6666666666667,4,2,1,60,0,0
7673,-41.6666666666667,4,2,1,5,0,0
7771,-100,4,2,1,60,0,0
7868,-100,4,2,1,5,0,0
7965,-50,4,2,1,60,0,0
8063,-50,4,2,1,5,0,0
8160,-285.714285714284,4,2,1,60,0,0
8258,-285.714285714284,4,2,1,5,0,0
8355,-285.714285714284,4,2,1,60,0,0
8452,-285.714285714284,4,2,1,5,0,0
8550,-285.714285714284,4,2,1,60,0,0
8745,-125,4,2,1,60,0,0
8842,-125,4,2,1,5,0,0
8939,-43.4782608695652,4,2,1,60,0,0
9086,-43.4782608695652,4,2,1,5,0,0
9134,-133.333333333333,4,2,1,60,0,0
9329,-38.4615384615385,4,2,1,60,0,0
9475,-38.4615384615385,4,2,1,5,0,0
9524,-200,4,2,1,60,0,0
9621,-200,4,2,1,5,0,0
9719,-66.6666666666667,4,2,1,60,0,0
9816,-66.6666666666667,4,2,1,5,0,0
9914,-250,4,2,1,60,0,0
10011,-250,4,2,1,5,0,0
10108,-83.3333333333333,4,2,1,60,0,0
10206,-83.3333333333333,4,2,1,5,0,0
10303,-83.3333333333333,4,2,1,60,0,0
10401,-83.3333333333333,4,2,1,5,0,0
10498,-50,4,2,1,60,0,0
10790,-50,4,2,1,5,0,0
10888,-66.6666666666667,4,2,1,60,0,0
10985,-66.6666666666667,4,2,1,5,0,0
11082,-40,4,2,1,60,0,0
11180,-40,4,2,1,5,0,0
11277,-133.333333333333,4,2,1,60,0,0
11375,-133.333333333333,4,2,1,5,0,0
11472,-50,4,2,1,60,0,0
11569,-50,4,2,1,5,0,0
11667,-50,4,2,1,60,0,0
11764,-50,4,2,1,5,0,0
11862,-40,4,2,1,60,0,0
11959,-40,4,2,1,5,0,0
12056,-1000,4,2,1,60,0,0
12349,-1000,4,2,1,5,0,0
12446,-50,4,2,1,60,0,0
12738,-50,4,2,1,5,0,0
12836,-500,4,2,1,60,0,0
12933,-500,4,2,1,5,0,0
13030,-500,4,2,1,60,0,0
13225,-33.3333333333333,4,2,1,60,0,0
13517,-33.3333333333333,4,2,1,5,0,0
13615,-25,4,2,1,60,0,0
13639,-25,4,2,1,5,0,0
14004,-50,4,2,1,60,0,0
14199,-50,4,2,1,5,0,0
14297,-181.818181818181,4,2,1,60,0,0
14589,-50,4,2,1,60,0,0
14784,-44.4444444444445,4,2,1,60,0,0
15173,-1000,4,2,1,60,0,0
15465,-1000,4,2,1,5,0,0
15563,-44.4444444444445,4,2,1,60,0,0
15855,-44.4444444444445,4,2,1,5,0,0
15952,-399.999999999997,4,2,1,60,0,0
16050,-399.999999999997,4,2,1,5,0,0
16147,-399.999999999997,4,2,1,60,0,0
16342,-33.3333333333333,4,2,1,60,0,0
16634,-33.3333333333333,4,2,1,5,0,0
16732,-25,4,2,1,60,0,0
16756,-25,4,2,1,5,0,0
17121,-55.5555555555556,4,2,1,60,0,0
17316,-285.714285714284,4,2,1,5,0,0
17414,-285.714285714284,4,2,1,60,0,0
17511,-285.714285714284,4,2,1,60,0,0
17608,-285.714285714284,4,2,1,5,0,0
17706,-66.6666666666667,4,2,1,60,0,0
17803,-66.6666666666667,4,2,1,5,0,0
17901,-50,4,2,1,60,0,0
17998,-50,4,2,1,5,0,0
18095,-50,4,2,1,60,0,0
18193,-50,4,2,1,5,0,0
18290,-133.333333333333,4,2,1,60,0,0
18680,-50,4,2,1,60,0,0
19069,-200,4,2,1,60,0,0
19264,-100,4,2,1,60,0,0
20238,-50,4,2,1,60,0,0
20433,-200,4,2,1,60,0,0
20628,-100,4,2,1,60,0,0
21212,-125,4,2,1,60,0,0
21407,-166.666666666667,4,2,1,60,0,0
21602,-125,4,2,1,60,0,0
21797,-50,4,2,1,60,0,0
21991,-100,4,2,1,60,0,0
22186,-200,4,2,1,60,0,0
22332,-100,4,2,1,60,0,0
22576,-50,4,2,1,60,0,0
22771,-100,4,2,1,60,0,0
22965,-66.6666666666667,4,2,1,60,0,0
23160,-50,4,2,1,60,0,0
23550,-200,4,2,1,60,0,0
23745,-58.8235294117647,4,2,1,60,0,0
23939,-50,4,2,1,60,0,0
24134,-100,4,2,1,60,0,0
24329,-66.6666666666667,4,2,1,60,0,0
24524,-200,4,2,1,60,0,0
24914,-50,4,2,1,60,0,0
25303,-66.6666666666667,4,2,1,60,0,0
25498,-200,4,2,1,60,0,0
25693,-100,4,2,1,60,0,0
26082,-400,4,2,1,60,0,0
26472,-100,4,2,1,60,0,0
27446,-66.6666666666667,4,2,1,60,0,0
27641,-50,4,2,1,60,0,0
28420,-66.6666666666667,4,2,1,60,0,0
28615,-200,4,2,1,60,0,0
28810,-66.6666666666667,4,2,1,60,0,0
29199,-400,4,2,1,60,0,0
29589,-100,4,2,1,60,0,0
29978,-50,4,2,1,60,0,0
30368,-200,4,2,1,60,0,0
30563,-100,4,2,1,60,0,0
31147,-125,4,2,1,60,0,0
31439,-125,4,2,1,5,0,0
31537,-57.1428571428571,4,2,1,60,0,0
31634,-57.1428571428571,4,2,1,5,0,0
31732,-57.1428571428571,4,2,1,60,0,0
31829,-57.1428571428571,4,2,1,5,0,0
31927,-55.5555555555556,4,2,1,60,0,0
32121,-222.222222222221,4,2,1,60,0,0
32316,-181.818181818181,4,2,1,60,0,0
32608,-181.818181818181,4,2,1,5,0,0
32706,-133.333333333333,4,2,1,60,0,0
32803,-133.333333333333,4,2,1,5,0,0
32901,-66.6666666666667,4,2,1,60,0,0
32998,-66.6666666666667,4,2,1,5,0,0
33095,-50,4,2,1,60,0,0
33388,-50,4,2,1,5,0,0
33485,-222.222222222221,4,2,1,60,0,0
33582,-222.222222222221,4,2,1,5,0,0
33680,-66.6666666666667,4,2,1,60,0,0
33777,-66.6666666666667,4,2,1,5,0,0
33875,-66.6666666666667,4,2,1,60,0,0
34167,-66.6666666666667,4,2,1,5,0,0
34264,-66.6666666666667,4,2,1,60,0,0
34362,-100,4,2,1,60,0,0
34556,-100,4,2,1,5,0,0
34654,-66.6666666666667,4,2,1,60,0,0
34751,-181.818181818181,4,2,1,60,0,0
35043,-66.6666666666667,4,2,1,60,0,0
35384,-66.6666666666667,4,2,1,5,0,0
35433,-66.6666666666667,4,1,1,60,0,0
35530,-50,4,2,1,60,0,0
35725,-50,4,2,1,5,0,0
35823,-71.4285714285714,4,2,1,60,0,0
36115,-71.4285714285714,4,2,1,5,0,0
36212,-50,4,2,1,60,0,0
36310,-50,4,2,1,5,0,0
36407,-50,4,2,1,60,0,0
36553,-50,4,2,1,5,0,0
36602,1558.44155844156,4,2,1,60,1,0
36602,-1000,4,2,1,40,0,0
36894,-1000,4,2,1,5,0,0
36991,-1000,4,2,1,40,0,0
37283,-1000,4,2,1,5,0,0
37381,389.61038961039,4,2,1,60,1,0
37381,-66.6666666666667,4,2,1,60,0,0
37527,-66.6666666666667,4,2,1,5,0,0
37575,-66.6666666666667,4,2,1,60,0,0
37673,-66.6666666666667,4,2,1,5,0,0
37770,-50,4,2,1,60,0,0
37965,-83.3333333333333,4,2,1,60,0,0
38062,-83.3333333333333,4,2,1,5,0,0
38160,-83.3333333333333,4,2,1,60,0,0
38452,-83.3333333333333,4,2,1,5,0,0
38549,-52.6315789473684,4,2,1,60,0,0
38842,-52.6315789473684,4,2,1,5,0,0
38939,-285.714285714287,4,2,1,60,0,0
39231,-285.714285714287,4,2,1,5,0,0
39329,-46.5116279069767,4,2,1,60,0,0
39621,-46.5116279069767,4,2,1,5,0,0
39718,-100,4,2,1,60,0,0
39816,-100,4,2,1,5,0,0
39913,-47.6190476190476,4,2,1,60,0,0
40010,-47.6190476190476,4,2,1,5,0,0
40108,-66.6666666666667,4,2,1,60,0,0
40254,-66.6666666666667,4,2,1,5,0,0
40303,-133.333333333333,4,2,1,60,0,0
40400,-133.333333333333,4,2,1,5,0,0
40497,-50,4,2,1,60,0,0
40643,-50,4,2,1,5,0,0
40692,-50,4,2,1,60,0,0
40790,-50,4,2,1,5,0,0
40887,-50,4,2,1,60,0,0
40984,-100,4,2,1,60,0,0
41082,-100,4,2,1,5,0,0
41277,-66.6666666666667,4,2,1,60,0,0
41423,-50,4,2,1,5,0,0
41471,-100,4,2,1,60,0,0
41569,-100,4,2,1,5,0,0
41666,-100,4,2,1,60,0,0
41764,-43.4782608695652,4,2,1,60,0,0
42007,-43.4782608695652,4,2,1,5,0,0
42056,-133.333333333333,4,2,1,60,0,0
42348,-133.333333333333,4,2,1,5,0,0
42445,-83.3333333333333,4,2,1,60,0,0
42543,-83.3333333333333,4,2,1,5,0,0
42640,-58.8235294117647,4,2,1,60,0,0
42786,-58.8235294117647,4,2,1,5,0,0
42835,-50,4,2,1,60,0,0
42932,-50,4,2,1,5,0,0
43030,-50,4,2,1,60,0,0
43127,-50,4,2,1,5,0,0
43225,-50,4,2,1,60,0,0
43760,-100,4,2,1,60,0,0
44101,-200,4,2,1,60,0,0
44523,-200,4,2,1,60,0,0
44881,-100,4,2,1,60,0,0
45173,-50,4,2,1,60,0,0
45952,-100,4,2,1,60,0,0
46147,-200,4,2,1,60,0,0
46342,-58.8235294117647,4,2,1,60,0,0
47121,-125,4,2,1,60,0,0
47608,-100,4,2,1,60,0,0
48484,-58.8235294117647,4,2,1,60,0,0
48679,-50,4,2,1,60,0,0
48874,-40,4,2,1,60,0,0
49069,-50,4,2,1,60,0,0
49264,-100,4,2,1,60,0,0
50043,-133.333333333333,4,2,1,60,0,0
50384,-66.6666666666667,4,2,1,60,0,0
51114,-50,4,2,1,60,0,0
51406,-40,4,2,1,60,0,0
52186,-100,4,2,1,60,0,0
52381,-200,4,2,1,50,0,0
52575,-200,4,2,1,40,0,0
52965,-1000,4,2,1,20,0,0
55303,-50,4,2,1,60,0,0
55351,-50,4,2,1,5,0,0
55692,-50,4,2,1,60,0,0
55741,-50,4,2,1,5,0,0
55838,-100,4,2,1,60,0,0
56033,-100,4,2,1,5,0,0
56082,-50,4,2,1,60,0,0
56228,-50,4,2,1,5,0,0
56277,-133.333333333333,4,2,1,60,0,0
56374,-133.333333333333,4,2,1,5,0,0
56471,-66.6666666666667,4,2,1,60,0,0
56569,-66.6666666666667,4,2,1,5,0,0
56666,-66.6666666666667,4,2,1,60,0,0
56764,-66.6666666666667,4,2,1,5,0,0
56861,-52.6315789473684,4,2,1,60,0,0
56958,-52.6315789473684,4,2,1,5,0,0
57056,-90.9090909090909,4,2,1,60,0,0
57153,-90.9090909090909,4,2,1,5,0,0
57251,-38.4615384615385,4,2,1,60,0,0
57543,-38.4615384615385,4,2,1,5,0,0
57640,-333.333333333333,4,2,1,60,0,0
57738,-333.333333333333,4,2,1,5,0,0
57835,-333.333333333333,4,2,1,60,0,0
57932,-333.333333333333,4,2,1,5,0,0
58030,-66.6666666666667,4,2,1,60,0,0
58127,-66.6666666666667,4,2,1,5,0,0
58225,-50,4,2,1,60,0,0
58322,-50,4,2,1,5,0,0
58419,-50,4,2,1,60,0,0
58614,-100,4,2,1,60,0,0
58712,-100,4,2,1,5,0,0
58809,-50,4,2,1,60,0,0
58955,-50,4,2,1,5,0,0
59004,-50,4,2,1,60,0,0
59101,-50,4,2,1,5,0,0
59199,-33.3333333333333,4,2,1,60,0,0
59393,-33.3333333333333,4,2,1,60,0,0
59491,-33.3333333333333,4,2,1,60,0,0
59588,-66.6666666666667,4,2,1,60,0,0
59686,-66.6666666666667,4,2,1,5,0,0
59783,-100,4,2,1,60,0,0
59881,-100,4,2,1,5,0,0
59978,-50,4,2,1,60,0,0
60075,-50,4,2,1,5,0,0
60173,-181.818181818181,4,2,1,60,0,0
60270,-181.818181818181,4,2,1,5,0,0
60368,-50,4,2,1,60,0,0
60660,-50,4,2,1,5,0,0
60757,-133.333333333333,4,2,1,60,0,0
60855,-133.333333333333,4,2,1,5,0,0
60952,-50,4,2,1,60,0,0
61049,-50,4,2,1,5,0,0
61147,-66.6666666666667,4,2,1,60,0,0
61244,-66.6666666666667,4,2,1,5,0,0
61327,-45.4545454545455,4,2,1,60,0,0
61439,-45.4545454545455,4,2,1,5,0,0
61536,-50,4,2,1,60,0,0
61634,-50,4,2,1,5,0,0
61731,-50,4,2,1,60,0,0
61829,-50,4,2,1,5,0,0
61926,-1000,4,2,1,60,0,0
62218,-1000,4,2,1,5,0,0
62316,-50,4,2,1,60,0,0
62608,-50,4,2,1,5,0,0
62656,-133.333333333333,4,2,1,60,0,0
62803,-133.333333333333,4,2,1,5,0,0
62900,-133.333333333333,4,2,1,60,0,0
63095,-33.3333333333333,4,2,1,60,0,0
63387,-33.3333333333333,4,2,1,5,0,0
63484,-25,4,2,1,60,0,0
63509,-25,4,2,1,5,0,0
63874,-66.6666666666667,4,2,1,60,0,0
64069,-66.6666666666667,4,2,1,5,0,0
64166,-66.6666666666667,4,2,1,60,0,0
64458,-66.6666666666667,4,2,1,60,0,0
64556,-66.6666666666667,4,2,1,5,0,0
64653,-66.6666666666667,4,2,1,60,0,0
64799,-66.6666666666667,4,2,1,5,0,0
64848,-66.6666666666667,4,2,1,60,0,0
64945,-66.6666666666667,4,2,1,5,0,0
65043,-66.6666666666667,4,2,1,60,0,0
65335,-66.6666666666667,4,2,1,5,0,0
65432,-50,4,2,1,60,0,0
65725,-50,4,2,1,5,0,0
65822,-133.333333333333,4,2,1,60,0,0
65919,-133.333333333333,4,2,1,5,0,0
66017,-133.333333333333,4,2,1,60,0,0
66212,-33.3333333333333,4,2,1,60,0,0
66504,-33.3333333333333,4,2,1,5,0,0
66601,-25,4,2,1,60,0,0
66626,-25,4,2,1,5,0,0
66991,-50,4,2,1,60,0,0
67283,-399.999999999997,4,2,1,60,0,0
67478,-399.999999999997,4,2,1,5,0,0
67575,-66.6666666666667,4,2,1,60,0,0
67673,-66.6666666666667,4,2,1,5,0,0
67770,-50,4,2,1,60,0,0
67868,-50,4,2,1,5,0,0
67965,-50,4,2,1,60,0,0
68062,-50,4,2,1,5,0,0
68160,-133.333333333333,4,2,1,60,0,0
68549,-50,4,2,1,60,0,0
68939,-200,4,2,1,60,0,0
69134,-100,4,2,1,60,0,0
70108,-50,4,2,1,60,0,0
70303,-200,4,2,1,60,0,0
70498,-100,4,2,1,60,0,0
71082,-125,4,2,1,60,0,0
71277,-166.666666666667,4,2,1,60,0,0
71471,-125,4,2,1,60,0,0
71666,-50,4,2,1,60,0,0
71861,-100,4,2,1,60,0,0
72056,-200,4,2,1,60,0,0
72202,-100,4,2,1,60,0,0
72445,-50,4,2,1,60,0,0
72640,-100,4,2,1,60,0,0
72835,-66.6666666666667,4,2,1,60,0,0
73030,-50,4,2,1,60,0,0
73419,-200,4,2,1,60,0,0
73614,-58.8235294117647,4,2,1,60,0,0
73809,-50,4,2,1,60,0,0
74004,-100,4,2,1,60,0,0
74199,-66.6666666666667,4,2,1,60,0,0
74393,-200,4,2,1,60,0,0
74783,-50,4,2,1,60,0,0
75173,-66.6666666666667,4,2,1,60,0,0
75368,-200,4,2,1,60,0,0
75952,-400,4,2,1,60,0,0
76342,-100,4,2,1,60,0,0
77316,-66.6666666666667,4,2,1,60,0,0
77510,-50,4,2,1,60,0,0
78290,-66.6666666666667,4,2,1,60,0,0
78484,-200,4,2,1,60,0,0
78679,-66.6666666666667,4,2,1,60,0,0
79069,-400,4,2,1,60,0,0
79458,-100,4,2,1,60,0,0
79848,-50,4,2,1,60,0,0
80238,-200,4,2,1,60,0,0
80432,-100,4,2,1,60,0,0
81017,-133.333333333333,4,2,1,40,0,0
81796,1558.44155844156,4,2,1,40,1,0
81796,-1000,4,2,1,40,0,0
82575,389.61038961039,4,2,1,40,1,0
82575,-133.333333333333,4,2,1,40,0,0
82964,-222.222222222221,4,2,1,40,0,0
83549,-1000,4,2,1,40,0,0
84133,389.61038961039,4,2,1,40,1,0
84133,-133.333333333333,4,2,1,40,0,0
84134,-133.333333333333,4,2,1,40,0,0
84230,-133.333333333333,4,2,1,5,0,0
84327,-133.333333333333,4,2,1,40,0,0
84425,-133.333333333333,4,2,1,40,0,0
84522,-133.333333333333,4,2,1,40,0,0
85107,-1000,4,2,1,40,0,0
85594,-1000,4,2,1,5,0,0
85692,-133.333333333333,4,2,1,40,0,0
86665,-1000,4,2,1,40,0,0
86762,-1000,4,2,1,5,0,0
86860,-250,4,2,1,40,0,0
86957,-250,4,2,1,5,0,0
87055,-250,4,2,1,40,0,0
87152,-250,4,2,1,5,0,0
87249,-250,4,2,1,40,0,0
88613,-125,4,2,1,40,0,0
88710,-125,4,2,1,5,0,0
88808,-142.857142857143,4,2,1,40,0,0
92704,-285.714285714284,4,2,1,50,0,0
92899,-66.6666666666667,4,2,1,50,0,0
93483,-100,4,2,1,60,0,0
95626,-1000,4,2,1,60,0,0
99717,-166.666666666667,4,2,1,60,0,0
100009,-100,4,2,1,60,0,0
100886,-66.6666666666667,4,2,1,60,0,0
101275,-125,4,2,1,60,0,0
101568,-100,4,2,1,60,0,0
102055,-166.666666666667,4,2,1,60,0,0
102249,-66.6666666666667,4,2,1,60,0,0
102639,-100,4,2,1,60,0,0
103126,-58.8235294117647,4,2,1,60,0,0
103418,-100,4,2,1,60,0,0
103905,-58.8235294117647,4,2,1,60,0,0
104197,-100,4,2,1,60,0,0
104392,-166.666666666667,4,2,1,60,0,0
104977,-58.8235294117647,4,2,1,60,0,0
105171,-100,4,2,1,60,0,0
105464,-58.8235294117647,4,2,1,60,0,0
105756,-100,4,2,1,60,0,0
105886,-100,4,2,1,5,0,0
105951,-100,4,2,1,60,0,0
106340,-111.111111111111,4,2,1,60,0,0
106438,-181.818181818181,4,2,1,5,0,0
106535,-50,4,2,1,60,0,0
106633,-50,4,2,1,5,0,0
106730,-25,4,2,1,60,0,1
106827,-25,4,2,1,5,0,0
107120,-133.333333333333,4,2,1,60,0,0
107217,-133.333333333333,4,2,1,5,0,0
107314,-25,4,2,1,60,0,1
107412,-25,4,2,1,5,0,0
107509,-181.818181818181,4,2,1,60,0,0
107607,-181.818181818181,4,2,1,5,0,0
107704,-55.5555555555556,4,2,1,60,0,0
107850,-55.5555555555556,4,2,1,5,0,0
107899,-50,4,2,1,60,0,0
107996,-50,4,2,1,5,0,0
108094,-100,4,2,1,60,0,0
108191,-100,4,2,1,5,0,0
108288,-25,4,2,1,60,0,1
108386,-25,4,2,1,5,0,0
108483,-66.6666666666667,4,2,1,60,0,0
108581,-66.6666666666667,4,2,1,5,0,0
108678,-66.6666666666667,4,2,1,60,0,0
108775,-66.6666666666667,4,2,1,5,0,0
108873,-25,4,2,1,60,0,1
108970,-25,4,2,1,5,0,0
109068,-25,4,2,1,60,0,0
109262,-285.714285714284,4,2,1,60,0,0
109360,-285.714285714284,4,2,1,5,0,0
109457,-66.6666666666667,4,2,1,60,0,0
109555,-66.6666666666667,4,2,1,5,0,0
109652,-41.6666666666667,4,2,1,60,0,0
109749,-41.6666666666667,4,2,1,5,0,0
109847,-25,4,2,1,60,0,1
109944,-25,4,2,1,5,0,0
110042,-25,4,2,1,60,0,0
110236,-50,4,2,1,60,0,0
110334,-50,4,2,1,5,0,0
110431,-25,4,2,1,60,0,1
110529,-25,4,2,1,5,0,0
110626,-100,4,2,1,60,0,0
110723,-100,4,2,1,5,0,0
110821,-50,4,2,1,60,0,0
110918,-50,4,2,1,5,0,0
111016,-50,4,2,1,60,0,0
111162,-50,4,2,1,5,0,0
111210,-37.037037037037,4,2,1,60,0,0
111308,-37.037037037037,4,2,1,5,0,0
111405,-25,4,2,1,60,0,1
111503,-25,4,2,1,5,0,0
111600,-399.999999999997,4,2,1,60,0,0
111697,-399.999999999997,4,2,1,5,0,0
111795,-399.999999999997,4,2,1,60,0,0
111941,-399.999999999997,4,2,1,5,0,0
111990,-399.999999999997,4,2,1,60,0,0
112136,-399.999999999997,4,2,1,5,0,0
112184,-399.999999999997,4,2,1,60,0,0
112379,-399.999999999997,4,2,1,60,0,0
112477,-399.999999999997,4,2,1,5,0,0
112574,-66.6666666666667,4,2,1,60,0,0
112671,-66.6666666666667,4,2,1,5,0,0
112769,-66.6666666666667,4,2,1,60,0,0
112866,-66.6666666666667,4,2,1,5,0,0
112964,-25,4,2,1,60,0,1
113061,-25,4,2,1,5,0,0
113158,-25,4,2,1,60,0,0
113353,-66.6666666666667,4,2,1,60,0,0
113645,-66.6666666666667,4,2,1,5,0,0
113743,-66.6666666666667,4,2,1,60,0,0
113840,-66.6666666666667,4,2,1,5,0,0
113938,-44.4444444444445,4,2,1,60,0,0
114035,-66.6666666666667,4,2,1,5,0,0
114133,-55.5555555555556,4,2,1,60,0,0
114230,-55.5555555555556,4,2,1,5,0,0
114327,-55.5555555555556,4,2,1,60,0,0
114473,-55.5555555555556,4,2,1,5,0,0
114522,-25,4,2,1,60,0,1
114620,-25,4,2,1,5,0,0
114717,-100,4,2,1,60,0,0
114814,-100,4,2,1,5,0,0
114912,-100,4,2,1,60,0,0
115058,-100,4,2,1,5,0,0
115107,-100,4,2,1,60,0,0
115204,-100,4,2,1,5,0,0
115301,-100,4,2,1,60,0,0
115447,-100,4,2,1,5,0,0
115496,-66.6666666666667,4,2,1,60,0,0
115594,-66.6666666666667,4,2,1,5,0,0
115691,-50,4,2,1,60,0,0
115788,-50,4,2,1,5,0,0
115886,-50,4,2,1,60,0,0
116032,-50,4,2,1,5,0,0
116081,-25,4,2,1,60,0,1
116178,-25,4,2,1,5,0,0
116275,-100,4,2,1,60,0,0
116373,-100,4,2,1,5,0,0
116470,-100,4,2,1,60,0,0
116616,-100,4,2,1,5,0,0
116665,-66.6666666666667,4,2,1,60,0,0
116811,-66.6666666666667,4,2,1,5,0,0
116860,-66.6666666666667,4,2,1,5,0,0
117055,-133.333333333333,4,2,1,60,0,0
117152,-133.333333333333,4,2,1,5,0,0
117249,-47.6190476190476,4,2,1,60,0,0
117347,-47.6190476190476,4,2,1,5,0,0
117444,-47.6190476190476,4,2,1,60,0,0
117542,-47.6190476190476,4,2,1,5,0,0
117639,-25,4,2,1,60,0,1
117736,-25,4,2,1,5,0,0
117834,-43.4782608695652,4,2,1,60,0,0
117964,-43.4782608695652,4,2,1,5,0,0
118029,-43.4782608695652,4,2,1,60,0,0
118418,-43.4782608695652,4,2,1,60,0,0
119197,-222.222222222221,4,2,1,60,0,0
124652,-222.222222222221,4,2,1,30,0,0
130107,-200,4,2,1,35,0,0
130301,-133.333333333333,4,2,1,44,0,0
130496,-100,4,2,1,52,0,0
130691,-76.9230769230769,4,2,1,60,0,0
130886,-50,4,2,1,60,0,0
131275,-200,4,2,1,60,0,0
131373,-200,4,2,1,5,0,0
131470,-100,4,2,1,60,0,0
131616,-100,4,2,1,5,0,0
131665,-50,4,2,1,60,0,0
132055,-66.6666666666667,4,2,1,60,0,0
132152,-66.6666666666667,4,2,1,5,0,0
132249,-100,4,2,1,60,0,0
132395,-100,4,2,1,5,0,0
132444,-50,4,2,1,60,0,0
132590,-50,4,2,1,5,0,0
132639,-200,4,2,1,60,0,0
132736,-200,4,2,1,5,0,0
132834,-50,4,2,1,60,0,0
132931,-50,4,2,1,5,0,0
133029,-200,4,2,1,60,0,0
133175,-200,4,2,1,5,0,0
133223,-66.6666666666667,4,2,1,60,0,0
133321,-66.6666666666667,4,2,1,5,0,0
133418,-125,4,2,1,60,0,0
133516,-125,4,2,1,5,0,0
133613,-166.666666666667,4,2,1,60,0,0
133710,-166.666666666667,4,2,1,5,0,0
133808,-250,4,2,1,60,0,0
133905,-250,4,2,1,5,0,0
134003,-50,4,2,1,60,0,0
134100,-50,4,2,1,5,0,0
134197,-100,4,2,1,60,0,0
134344,-100,4,2,1,5,0,0
134392,-200,4,2,1,60,0,0
134538,-100,4,2,1,60,0,0
134733,-100,4,2,1,5,0,0
134782,-50,4,2,1,60,0,0
134879,-50,4,2,1,5,0,0
134977,-100,4,2,1,60,0,0
135074,-100,4,2,1,5,0,0
135171,-66.6666666666667,4,2,1,60,0,0
135318,-66.6666666666667,4,2,1,5,0,0
135366,-50,4,2,1,60,0,0
135756,-200,4,2,1,60,0,0
135853,-200,4,2,1,5,0,0
135951,-58.8235294117647,4,2,1,60,0,0
136048,-58.8235294117647,4,2,1,5,0,0
136145,-50,4,2,1,60,0,0
136292,-50,4,2,1,5,0,0
136340,-100,4,2,1,60,0,0
136438,-100,4,2,1,5,0,0
136535,-66.6666666666667,4,2,1,60,0,0
136633,-66.6666666666667,4,2,1,5,0,0
136730,-200,4,2,1,60,0,0
136827,-200,4,2,1,5,0,0
136925,-100,4,2,1,60,0,0
137022,-100,4,2,1,5,0,0
137120,-50,4,2,1,60,0,0
137509,-66.6666666666667,4,2,1,60,0,0
137607,-66.6666666666667,4,2,1,5,0,0
137704,-200,4,2,1,60,0,0
137801,-200,4,2,1,5,0,0
137899,-50,4,2,1,60,0,0
137996,-50,4,2,1,5,0,0
138094,-50,4,2,1,60,0,0
138191,-50,4,2,1,5,0,0
138288,-400,4,2,1,60,0,0
138678,-100,4,2,1,60,0,0
139068,-500,4,2,1,60,0,0
139360,-500,4,2,1,5,0,0
139457,-50,4,2,1,60,0,0
139555,-50,4,2,1,5,0,0
139652,-66.6666666666667,4,2,1,60,0,0
139749,-66.6666666666667,4,2,1,5,0,0
139847,-500,4,2,1,60,0,0
140139,-500,4,2,1,5,0,0
140236,-50,4,2,1,60,0,0
140431,-50,4,2,1,5,0,0
140626,-66.6666666666667,4,2,1,60,0,0
140723,-66.6666666666667,4,2,1,5,0,0
140821,-200,4,2,1,60,0,0
140918,-200,4,2,1,5,0,0
141016,-50,4,2,1,60,0,0
141113,-50,4,2,1,5,0,0
141210,-50,4,2,1,60,0,0
141308,-50,4,2,1,5,0,0
141405,-400,4,2,1,60,0,0
141795,-100,4,2,1,60,0,0
142184,-50,4,2,1,60,0,0
142282,-50,4,2,1,5,0,0
142379,-50,4,2,1,60,0,0
142477,-50,4,2,1,5,0,0
142574,-200,4,2,1,60,0,0
142671,-200,4,2,1,5,0,0
142769,-100,4,2,1,60,0,0
142866,-100,4,2,1,5,0,0
142964,-100,4,2,1,60,0,0
143353,-153.846153846153,4,2,1,60,0,0
143743,-66.6666666666667,4,2,1,60,0,0
143938,-47.6190476190476,4,2,1,60,0,0
144197,-47.6190476190476,4,2,1,5,0,0
144262,-133.333333333333,4,2,1,60,0,0
144327,-133.333333333333,4,2,1,5,0,0
144392,-133.333333333333,4,2,1,60,0,0
144457,-133.333333333333,4,2,1,5,0,0
144522,-45.4545454545455,4,2,1,60,0,0
144717,-66.6666666666667,4,2,1,60,0,0
144912,-43.4782608695652,4,2,1,60,0,0
145107,-66.6666666666667,4,2,1,60,0,0
145886,-44.4444444444445,4,2,1,60,0,0
146081,-50,4,2,1,60,0,0
146275,-133.333333333333,4,2,1,60,0,0
146470,-50,4,2,1,60,0,0
146665,-79.9999999999999,4,2,1,60,0,0
146860,-37.593984962406,4,2,1,60,0,0
147055,-100,4,2,1,60,0,0
147249,-50,4,2,1,60,0,0
147444,-133.333333333333,4,2,1,60,0,0
147639,-50,4,2,1,60,0,0
148029,-133.333333333333,4,2,1,60,0,0
148418,-100,4,2,1,60,0,0
148613,-66.6666666666667,4,2,1,60,0,0
148808,-50,4,2,1,60,0,0
149003,-666.666666666658,4,2,1,60,0,0
149197,-133.333333333333,4,2,1,60,0,0
149587,-50,4,2,1,60,0,0
149879,-50,4,2,1,5,0,0
149977,-100,4,2,1,60,0,0
150074,-100,4,2,1,5,0,0
150171,-50,4,2,1,60,0,0
150269,-50,4,2,1,5,0,0
150366,-40,4,2,1,60,0,0
150431,-40,4,2,1,5,0,0
150496,-133.333333333333,4,2,1,60,0,0
150561,-133.333333333333,4,2,1,5,0,0
150626,-33.3333333333333,4,2,1,60,0,0
150691,-33.3333333333333,4,2,1,5,0,0
150756,-25,4,2,1,60,0,0
150780,-25,4,2,1,5,0,0
151145,-66.6666666666667,4,2,1,60,0,0
151925,-100,4,2,1,60,0,0
152120,-66.6666666666667,4,2,1,60,0,0
152314,-50,4,2,1,60,0,0
152996,-50,4,2,1,5,0,0
153094,-100,4,2,1,60,0,0
153191,-100,4,2,1,5,0,0
153288,-100,4,2,1,60,0,0
153483,-40,4,2,1,60,0,0
153775,-40,4,2,1,5,0,0
153873,-25,4,2,1,60,0,0
153897,-25,4,2,1,5,0,0
154262,-52.6315789473684,4,2,1,60,0,0
155042,-66.6666666666667,4,2,1,60,0,0
155431,-133.333333333333,4,2,1,60,0,0

[Colours]
Combo1 : 255,128,192
Combo2 : 64,0,128
Combo3 : 192,192,192
Combo4 : 192,192,192

[HitObjects]
0,301,4654,6,0,B|14:279|7:237|7:237|27:283|60:297|60:297|77:275|73:221|73:221|86:279|159:290,1,297.499990921021
186,276,4946,2,0,B|193:239|193:239|172:224|172:224|241:245,1,118.999996368408
260,308,5092,6,0,B|294:303|304:250|304:250|300:302|317:324|317:324|348:310|368:266|368:266|361:306|385:341,1,297.499990921021
440,283,5433,6,0,L|512:270,10,59.4999981842042
340,271,6017,38,0,B|356:248|356:248|314:353,1,85
512,384,6212,6,0,B|295:345|295:345|291:348|291:348|130:318,1,318.75,4|0,1:2|0:0,0:0:0:0:
199,330,6407,22,0,B|170:328|170:301|181:295|186:316,1,38.2499988327027
308,88,6602,6,0,L|201:112,1,85
144,226,6797,38,0,L|153:188,1,38.2499988327027,0|0,1:0|0:0,0:0:0:0:
163,0,6991,6,0,B|242:20|242:20|216:158,1,170,8|0,0:0|0:0,0:0:0:0:
67,154,7186,2,0,B|80:175|80:175|65:102,1,85
0,72,7381,38,0,B|-10:29|-10:29|235:40|238:277|238:277|9:226,1,611.999981323243,0|0,1:0|0:0,0:0:0:0:
73,240,7771,6,0,B|40:272|40:272|72:332,1,85
293,369,7965,2,0,L|109:327,1,170
57,306,8160,38,0,L|48:346,1,29.7499990921021,0|0,1:0|0:0,0:0:0:0:
127,331,8355,2,0,L|133:301,1,29.7499990921021
0,206,8550,5,8,0:0:0:0:
0,206,8745,38,0,L|92:188,1,68,0|0,1:0|0:0,0:0:0:0:
180,100,8939,6,0,B|75:129|75:129|118:351,1,293.2500055933,0|0,1:0|0:0,0:0:0:0:
166,185,9134,2,0,B|197:200|197:200|169:174,1,63.7500024318696
0,6,9329,38,0,B|187:26|187:26|189:30|189:30|355:51,1,331.499984825135,0|0,1:0|0:0,0:0:0:0:
326,47,9524,6,0,B|352:40|352:40|361:17,1,42.5
512,166,9719,2,0,L|370:141,1,127.500004863739
434,3,9914,38,0,L|429:38,1,34,0|0,1:0|0:0,0:0:0:0:
346,296,10108,6,0,B|385:283|381:240|381:240|373:265|344:272,1,101.999996887207,8|0,0:0|0:0,0:0:0:0:
512,384,10303,2,0,L|381:356,1,101.999996887207
132,170,10498,38,0,B|40:153|40:153|326:98|326:98|293:228,1,510,0|0,1:0|0:0,0:0:0:0:
295,220,10888,6,0,B|245:261|245:261|198:191,1,127.500004863739
254,1,11082,6,0,L|197:267,1,212.5
0,384,11277,22,0,L|66:364,1,63.7500024318696,0|0,1:0|0:0,0:0:0:0:
159,264,11472,6,0,B|132:295|138:347|138:347|124:297|48:276,1,170,0|0,1:0|0:0,0:0:0:0:
61,365,11667,38,0,L|97:158,1,170,8|0,0:0|0:0,0:0:0:0:
367,306,11862,6,0,L|130:258,1,212.5,0|0,1:0|0:0,0:0:0:0:
5,245,12056,6,0,L|0:221,1,25.5
2,264,12446,22,0,B|149:330|317:214|243:-54|158:-29|48:51|197:207|249:106,1,510,0|0,1:0|0:0,0:0:0:0:
119,176,12836,6,0,L|96:172,1,17
33,158,13030,1,0,1:0:0:0:
512,384,13225,38,0,B|275:395|178:67|357:-10|497:3|499:55|501:174|431:238|336:277,1,765.000029182435,8|0,0:0|0:0,0:0:0:0:
253,301,13615,6,0,B|228:327|228:327|242:374,12,85,0|0|0|0|0|0|0|0|0|0|0|0|0,1:0|0:0|0:0|0:0|0:0|0:0|0:0|0:0|0:0|0:0|0:0|0:0|0:0,0:0:0:0:
373,258,14004,38,0,B|97:295|97:295|60:213,1,340
142,134,14297,1,0,0:0:0:0:
146,124,14394,6,0,B|179:160|143:199|143:199|127:162|166:152,1,140.25000428009,0|0,1:0|0:0,0:0:0:0:
70,239,14784,38,0,B|101:264|92:332|92:332|117:276|204:271,1,191.250007295609,8|0,0:0|0:0,0:0:0:0:
187,0,14978,1,0,1:0:0:0:
93,333,15173,6,0,L|84:360,1,25.5,0|0,1:0|0:0,0:0:0:0:
98,315,15563,38,0,B|44:156|138:227|168:206|140:-71|32:-162|-110:-29|-110:105|85:219|127:128|116:64,1,573.750021886826,0|0,1:0|0:0,0:0:0:0:
158,255,15952,6,0,L|185:248,1,21.25,0|0,0:0|0:0,0:0:0:0:
250,265,16147,1,0,1:0:0:0:
512,0,16342,38,0,B|542:222|416:331|212:346|126:71|349:-15|465:-85|496:77|421:158|350:171,1,765.000029182435,8|0,0:0|0:0,0:0:0:0:
240,71,16732,6,0,B|220:30|220:30|270:-32,12,85,0|0|0|0|0|0|0|0|0|0|0|0|0,1:0|0:0|0:0|0:0|0:0|0:0|0:0|0:0|0:0|0:0|0:0|0:0|0:0,0:0:0:0:
387,155,17121,38,0,P|228:209|148:328,1,305.999990661621
92,160,17414,1,0,0:0:0:0:
100,169,17511,6,0,L|89:216,1,29.7499990921021,0|0,1:0|0:0,0:0:0:0:
36,242,17706,2,0,B|-15:200|-15:200|29:95,1,127.500004863739,0|0,1:0|0:0,0:0:0:0:
174,107,17901,38,0,L|-26:150,1,170,8|0,0:0|0:0,0:0:0:0:
54,363,18095,2,0,L|97:181,1,170,0|0,1:0|0:0,0:0:0:0:
139,0,18290,6,0,L|128:51,5,42.5000016212464,0|0|0|0|0|0,3:0|3:0|3:0|3:0|3:0|3:0,3:0:0:0:
218,182,18680,22,0,B|178:178|203:210|165:253|165:253|220:196|326:71|378:251|317:198,1,340,4|0,1:0|0:0,0:0:0:0:
325,204,19069,38,0,P|351:192|373:194,1,42.5
387,16,19264,2,0,B|425:82|451:32|490:102,1,127.5,0|0,1:0|0:0,0:0:0:0:
498,166,19459,6,0,P|506:136|499:167,2,113.333333333333,8|0|0,0:0|0:0|0:0,0:0:0:0:
489,356,19849,22,0,P|450:352|419:395,1,85,0|0,1:0|0:0,0:0:0:0:
232,281,20043,2,0,P|163:272|100:225,1,127.5
110,236,20238,22,0,B|100:270|71:307|57:253|2:348|38:381|38:381|36:325|68:294,1,255
38,216,20433,22,0,P|32:196|30:173,1,42.5
182,59,20628,21,0,0:0:0:0:
174,53,20693,1,0,0:0:0:0:
175,44,20758,1,0,0:0:0:0:
183,40,20823,1,0,0:0:0:0:
190,46,20888,1,0,0:0:0:0:
189,55,20952,1,0,0:0:0:0:
182,49,21017,22,0,P|122:31|87:27,1,85,8|0,0:0|0:0,0:0:0:0:
206,199,21212,22,0,P|158:229|135:262,1,68,0|0,1:0|0:0,0:0:0:0:
286,266,21407,22,0,P|287:314|301:350,1,50.9999984436036,0|0,1:0|0:0,0:0:0:0:
364,317,21602,22,0,P|377:335|396:351,2,34
345,149,21797,22,0,B|339:50|269:106|278:-33,1,170,0|0,1:0|0:0,0:0:0:0:
512,183,21991,22,0,B|522:213|522:213|415:189,1,127.5
419,196,22186,1,0,0:0:0:0:
194,373,22381,22,0,P|156:321|63:303,1,127.5,0|0,1:0|0:0,0:0:0:0:
92,303,22576,22,0,B|125:269|91:266|100:220|100:220|82:264|52:249|61:302,1,170,8|0,0:0|0:0,0:0:0:0:
0,180,22771,2,0,P|20:168|0:181,1,85
394,271,22965,22,0,B|385:291|385:291|446:320|446:320|491:259|491:259|465:235,1,191.250007295609,0|0,1:0|0:0,0:0:0:0:
467,237,23160,22,0,B|543:169|488:71|402:71|402:71|470:92|426:145|506:145,1,340
474,140,23550,22,0,P|498:127|523:127,1,42.5
192,12,23745,2,0,B|145:28|145:81|145:81|166:40|202:35,1,144.500002756119,0|0,1:0|0:0,0:0:0:0:
259,377,23939,2,0,P|254:230|147:126,1,255,0|0,1:0|0:0,0:0:0:0:
189,149,24134,22,0,B|213:154|213:154|213:157|213:157|213:154|213:154|300:172,1,85,8|0,0:0|0:0,0:0:0:0:
21,246,24329,2,0,B|45:240|45:240|45:237|45:237|45:240|45:240|151:217,1,127.500004863739,0|0,1:0|0:0,0:0:0:0:
266,165,24524,22,0,L|257:122,2,28.3333333333333
433,199,24719,2,0,L|486:210,1,42.5
305,233,24914,22,0,B|343:254|369:259|364:196|325:164|166:204|165:341|181:400,1,340,0|0,1:0|0:0,0:0:0:0:
177,384,25303,22,0,B|167:322|167:322|164:320|164:320|152:253,1,127.500004863739
24,193,25498,2,0,L|69:200,1,42.5,0|0,1:0|0:0,0:0:0:0:
45,306,25693,22,0,P|71:280|46:307,2,113.333333333333,8|0|0,0:0|0:0|0:0,0:0:0:0:
248,314,26082,22,0,L|303:304,1,42.5,0|0,1:0|0:0,0:0:0:0:
290,306,26472,2,0,B|290:337|263:329|251:369|251:369|250:278|350:280,1,170
504,172,26862,21,0,1:0:0:0:
496,166,26927,1,0,0:0:0:0:
497,157,26992,1,0,0:0:0:0:
505,153,27057,1,0,0:0:0:0:
512,159,27122,1,0,0:0:0:0:
511,168,27186,1,0,0:0:0:0:
503,161,27251,22,0,P|443:143|409:139,1,85,8|0,0:0|0:0,0:0:0:0:
273,0,27446,22,0,P|344:6|351:96,1,127.500004863739,0|0,1:0|0:0,0:0:0:0:
341,370,27641,22,0,B|278:362|190:261|250:167|250:167|318:167|335:99,1,340,0|0,1:0|0:0,0:0:0:0:
512,76,27901,21,0,0:0:0:0:
512,76,27965,1,0,0:0:0:0:
512,76,28030,2,0,B|363:56|363:56|357:58|357:58|134:28,1,340,0|0,1:0|0:0,0:0:0:0:
175,33,28420,22,0,B|151:109|124:67|104:150,1,127.500004863739
253,164,28615,2,0,P|268:191|282:203,1,42.5,0|0,1:0|0:0,0:0:0:0:
89,328,28810,22,0,B|92:310|92:310|24:295|24:295|-12:348|-12:348|16:380,2,170.000006484986,8|0|0,0:0|0:0|0:0,0:0:0:0:
207,342,29199,22,0,L|212:386,1,42.5,0|0,1:0|0:0,0:0:0:0:
211,384,29589,2,0,B|200:318|271:253|331:301|300:340|258:319,1,170
337,145,29978,22,0,B|308:116|321:64|321:64|301:126|211:119,1,170,0|0,1:0|0:0,0:0:0:0:
35,217,30173,2,0,P|152:159|225:167,1,170,0|0,1:0|0:0,0:0:0:0:
241,0,30368,22,0,L|247:41,1,42.5,8|0,0:0|0:0,0:0:0:0:
275,200,30563,2,0,L|261:116,1,85
457,92,30758,2,0,L|541:107,2,56.6666666666667,0|0|0,3:0|3:0|3:0,3:0:0:0:
449,95,30952,21,0,0:0:0:0:
136,245,31147,5,4,1:0:0:0:
11,290,31245,2,0,B|-24:309|-24:309|78:286,1,136
209,206,31537,6,0,B|240:120|159:141|199:41,1,148.750001418591
449,95,31732,2,0,L|266:130,1,148.750001418591,0|0,1:0|0:0,0:0:0:0:
194,306,31927,37,8,0:0:0:0:
194,306,32024,2,0,B|348:261|348:261|284:69,1,305.999990661621
481,20,32316,5,0,1:0:0:0:
481,0,32414,2,0,B|524:24|524:24|509:73,1,93.5000028533936
512,66,32706,38,0,B|444:42|381:69|359:187|459:145|421:111,1,191.250007295609
512,172,33095,6,0,B|464:278|279:283|173:137|208:-18|296:-47|398:16|317:110,1,510,0|0,1:0|0:0,0:0:0:0:
339,39,33485,38,0,L|333:81,1,38.2499988327027,8|0,0:0|0:0,0:0:0:0:
1,28,33680,6,0,B|63:57|63:57|103:-30,1,127.500004863739,0|0,1:0|0:0,0:0:0:0:
275,276,33875,2,0,B|185:290|123:382|123:382|165:266|98:167,1,382.500014591218,0|0,1:0|0:0,0:0:0:0:
38,191,34264,37,0,1:0:0:0:
241,87,34362,2,0,B|168:109|168:109|164:104|164:104|79:125,1,170
204,217,34654,5,0,0:0:0:0:
217,212,34751,2,0,L|239:150,1,46.7500014266968,0|0,0:0|1:0,0:0:0:0:
31,384,35044,37,8,0:0:0:0:
0,318,35141,2,0,P|127:251|274:367,1,318.750012159348
501,336,35433,5,0,0:0:0:0:
510,258,35530,2,0,B|408:156|299:310|385:384|431:388|495:324|443:224,1,340
432,153,35823,6,0,B|273:127|273:127|264:132|264:132|30:95,1,356.999989105225
0,190,36212,22,0,B|89:221|84:120|159:126,1,170
95,7,36407,2,0,B|-29:-4|-29:-4|17:134,1,255,0|0,1:0|0:0,0:0:0:0:
142,343,36602,6,0,L|149:345,1,6.375
154,264,36991,6,0,L|156:258,1,6.375
0,190,37381,22,0,P|80:189|159:284,1,191.250007295609,4|0,0:0|0:0,0:0:0:0:
73,384,37575,6,0,B|26:340|26:340|79:264,1,127.500004863739
327,152,37770,37,0,0:0:0:0:
342,164,37868,2,0,B|388:62|388:62|252:-11|252:-11|274:93,1,340
309,301,38160,5,8,0:0:0:0:
464,258,38257,2,0,B|506:216|506:216|349:252,1,203.999993774414
168,266,38549,5,0,0:0:0:0:
178,280,38647,2,0,P|139:333|119:198,1,322.99999137497
245,40,38939,22,0,B|217:34|223:-6|227:-12|252:-3|248:34,1,89.2499972763062
175,168,39329,6,0,B|206:76|270:-24|517:-42|583:118|491:138|381:146|361:77,1,548.250008365631
362,81,39718,6,0,P|348:41|364:2,1,85,8|0,0:0|0:0,0:0:0:0:
0,0,39913,22,0,B|88:22|88:22|65:106,1,178.499994552612,0|0,1:0|0:0,0:0:0:0:
28,384,40108,6,0,B|87:407|161:340|125:285|79:303|92:356,1,191.250007295609
66,106,40303,2,0,B|33:113|33:113|25:83,1,63.7500024318696
390,384,40497,6,0,B|370:307|370:307|164:268,1,255
59,182,40692,2,0,B|37:223|-8:233|-8:233|34:224|82:256,1,170
135,196,40887,21,0,0:0:0:0:
151,190,40984,2,0,L|168:99,1,85
91,354,41277,5,8,0:0:0:0:
0,384,41374,2,0,B|129:359|129:359|133:362|133:362|250:340,1,255
494,363,41666,5,0,0:0:0:0:
478,369,41764,2,0,B|436:399|360:395|322:301|355:205|331:148|252:154|196:157|166:264|351:277,1,488.750009322167
442,299,42056,22,0,B|492:264|505:210|479:179|431:214|418:255|429:278|447:281|470:268|477:250|466:230,1,191.250007295609
504,147,42445,6,0,B|526:124|526:124|441:150,1,101.999996887207
0,240,42640,38,0,B|51:261|77:314|77:314|70:256|106:210,1,216.750004134178
271,238,42835,6,0,L|102:212,1,170,8|0,0:0|0:0,0:0:0:0:
1,22,43030,38,0,B|97:2|97:2|120:95,1,170,0|0,1:0|0:0,0:0:0:0:
195,363,43225,5,0,3:0:0:0:
163,384,43290,1,0,3:0:0:0:
130,378,43355,1,0,3:0:0:0:
128,345,43419,1,0,3:0:0:0:
142,338,43484,1,0,3:0:0:0:
149,345,43549,1,0,3:0:0:0:
144,349,43614,21,0,1:0:0:0:
0,266,43760,2,0,B|-6:254|-6:254|1:247|1:247|109:268,1,127.5
278,365,44004,21,0,0:0:0:0:
271,356,44101,2,0,L|318:348,1,42.5,0|0,0:0|1:0,0:0:0:0:
487,364,44393,21,8,0:0:0:0:
512,279,44523,2,0,L|504:237,2,28.3333333333333,0|0|0,3:0|3:0|3:0,3:0:0:0:
459,23,44783,21,0,1:0:0:0:
510,80,44881,2,0,B|479:108|490:159|490:159|475:101|417:90,1,170
301,309,45173,22,0,B|382:351|445:297|424:232|424:232|428:259|407:284|411:269|347:309|411:387,1,340
183,21,45562,21,0,1:0:0:0:
238,42,45627,1,0,3:0:0:0:
270,82,45692,1,0,3:0:0:0:
283,122,45757,1,0,3:0:0:0:
279,157,45822,1,0,3:0:0:0:
270,182,45887,1,0,3:0:0:0:
260,197,45952,22,0,P|302:172|350:163,1,85,8|0,0:0|0:0,0:0:0:0:
127,104,46147,22,0,P|117:79|113:59,1,42.5,0|0,1:0|0:0,0:0:0:0:
226,384,46342,22,0,B|274:319|232:220|133:216|150:331|262:287,1,216.750004134178,0|0,1:0|0:0,0:0:0:0:
91,314,46536,1,0,3:0:0:0:
90,304,46601,1,0,3:0:0:0:
88,294,46666,1,0,3:0:0:0:
87,284,46731,21,0,1:0:0:0:
70,207,46829,2,0,B|20:213|52:245|5:281|5:281|68:283|49:166|136:169|190:209,1,289.000005512238
9,139,47121,21,0,0:0:0:0:
70,67,47218,2,0,P|34:44|71:66,1,136
360,310,47510,21,8,0:0:0:0:
369,235,47608,2,0,P|385:217|423:299,1,170
511,336,47900,1,0,1:0:0:0:
505,330,47965,22,0,P|405:329|316:389,1,198.333333333333
272,304,48290,22,0,B|265:284|286:268|286:268|301:295|270:315,1,85
138,352,48484,2,0,B|143:276|202:311|212:222,1,144.500002756119
0,1,48679,22,0,B|29:13|29:13|75:278,1,255,0|0,1:0|0:0,0:0:0:0:
67,233,48874,2,0,B|49:198|49:198|80:139|80:139|135:178|135:178|134:217,1,212.5
214,69,49069,22,0,B|220:32|190:-1|148:9|148:9|184:23|196:64,1,170,8|0,0:0|0:0,0:0:0:0:
347,234,49264,2,0,B|297:248|329:269|255:303,1,85,0|0,1:0|0:0,0:0:0:0:
311,71,49458,21,0,3:0:0:0:
364,95,49523,1,0,3:3:0:0:
412,87,49588,1,0,3:3:0:0:
453,70,49653,1,0,3:3:0:0:
475,42,49718,1,0,3:3:0:0:
486,18,49783,1,0,3:3:0:0:
489,0,49848,22,0,P|452:76|440:136,1,127.5
512,167,50043,2,0,B|495:175|495:175|504:229,1,63.7500024318696
414,324,50238,21,0,0:0:0:0:
500,378,50384,2,0,B|508:344|508:344|325:381,1,191.250007295609,0|0,1:0|0:0,0:0:0:0:
173,257,50627,21,8,0:0:0:0:
51,259,50725,2,0,B|39:273|5:282|-5:260|31:235|72:226|84:250|119:304|81:291|142:378|225:315,1,255.000009727478
370,44,51017,21,0,1:0:0:0:
206,0,51114,2,0,B|278:19|315:113|265:175|265:175|274:146|283:117|248:129|263:74|305:58,1,340
493,316,51406,21,0,0:0:0:0:
486,323,51455,2,0,B|467:350|349:331|454:197|388:177|388:177|353:240|518:290|384:440|278:382|300:295,1,531.25
186,156,51796,21,0,1:0:0:0:
178,150,51861,1,0,3:0:0:0:
179,141,51926,1,0,3:0:0:0:
187,137,51991,1,0,3:0:0:0:
194,143,52056,1,0,3:0:0:0:
193,152,52120,1,0,3:0:0:0:
186,146,52186,22,0,P|126:128|91:124,1,85,8|0,0:0|0:0,0:0:0:0:
303,82,52381,2,0,P|289:52|292:34,1,42.5
355,0,52575,1,0,0:0:0:0:
368,334,52965,22,0,B|368:326|368:326|393:326|393:326|393:318|393:318|420:318|420:318|420:326|420:326|442:326|442:326|442:333|442:333|473:333|473:333|475:366,1,170
475,366,55303,22,0,B|427:344|465:322|374:297,1,85
467,237,55692,2,0,B|480:185|508:219|517:125,1,85
432,48,55838,22,0,P|445:12|489:80,1,170
512,158,56082,6,4,B|491:104|391:36|308:140|383:205,1,255,4|0,1:0|0:0,1:0:0:0:
370,191,56277,6,0,P|328:211|299:198,1,63.7500024318696
298,0,56471,38,0,P|345:72|334:130,1,127.500004863739
213,366,56666,6,0,L|248:197,1,127.500004863739,0|0,1:0|0:0,0:0:0:0:
342,110,56861,38,0,B|265:137|265:137|244:40,1,161.499995687485,8|0,0:0|0:0,0:0:0:0:
59,283,57056,2,0,B|34:313|34:313|59:237,1,93.5000028533936
0,78,57251,6,0,B|79:125|147:26|147:26|140:42|140:42|284:130|88:410|-30:302|57:77|160:42,1,662.99996965027,0|0,1:0|0:0,0:0:0:0:
57,13,57640,38,0,L|12:2,1,25.4999992218018
248,58,57835,2,0,L|276:50,1,25.4999992218018
198,0,58030,6,0,B|150:24|150:24|171:115,1,127.5,0|0,1:0|0:0,0:0:0:0:
379,196,58225,2,0,L|168:146,1,170
57,13,58419,5,8,0:0:0:0:
57,13,58614,2,0,L|39:115,1,85,0|0,1:0|0:0,0:0:0:0:
14,217,58809,22,0,B|-6:123|-6:123|147:84,1,255,0|0,1:0|0:0,0:0:0:0:
248,58,59004,2,0,B|255:0|255:0|222:108,1,170
0,384,59199,22,0,B|74:167|291:177|417:262|241:404|184:350|165:267,1,510.000019454957,0|0,1:0|0:0,0:0:0:0:
91,177,59491,1,0,0:0:0:0:
82,163,59588,22,0,P|82:114|173:99,1,127.500004863739
512,362,59783,2,0,L|402:342,1,85,0|0,1:0|0:0,0:0:0:0:
321,384,59978,6,0,B|399:359|399:359|377:254,1,170,8|0,0:0|0:0,0:0:0:0:
507,280,60173,2,0,L|454:272,1,46.7500014266968
182,384,60368,38,0,B|97:271|116:106|292:75|350:164|316:294|207:320,1,510
234,309,60757,6,0,P|216:270|226:236,1,63.7500024318696
387,221,60952,6,0,L|197:255,1,170
0,384,61147,22,0,B|62:367|62:367|45:266,1,127.500004863739,0|0,1:0|0:0,0:0:0:0:
158,56,61342,2,0,B|164:0|164:0|92:181,1,187.000005706787,0|0,1:0|0:0,0:0:0:0:
42,140,61536,6,0,B|90:161|102:201|102:201|94:157|126:103,1,170,8|0,0:0|0:0,0:0:0:0:
349,129,61731,38,0,B|269:145|269:145|265:149|265:149|128:176,1,170
23,215,61926,6,0,L|20:242,1,25.5
0,350,62316,38,0,B|85:460|352:353|270:227|151:139|87:208|102:326|178:355,1,510,0|0,1:0|0:0,0:0:0:0:
300,384,62705,6,0,L|289:303,1,63.7500024318696
256,4,62900,1,0,1:0:0:0:
512,90,63095,38,0,B|414:333|165:329|36:154|33:45|332:-6|381:137|375:196,1,765.000029182435,8|0,0:0|0:0,0:0:0:0:
435,299,63484,6,0,B|462:336|462:336|439:391,14,85,0|0|0|0|0|0|0|0|0|0|0|0|0|0|0,1:0|0:0|0:0|0:0|0:0|0:0|0:0|0:0|0:0|0:0|0:0|0:0|0:0|0:0|0:0,0:0:0:0:
381,342,63874,6,0,L|431:67,1,255.000009727478
485,8,64166,2,0,B|419:35|419:35|429:111,1,127.500004863739,0|0,0:0|1:0,0:0:0:0:
238,384,64458,2,0,B|296:359|296:359|299:283,1,127.500004863739
206,119,64653,22,0,B|146:153|146:153|174:284,1,191.250007295609,8|0,0:0|0:0,0:0:0:0:
298,294,64848,6,0,L|165:272,1,127.500004863739,0|0,1:0|0:0,0:0:0:0:
0,199,65043,6,0,B|89:213|125:373|-7:445|-38:414|-46:291|20:265,1,382.500014591218,0|0,1:0|0:0,0:0:0:0:
244,190,65432,22,0,B|395:323|540:153|465:-24|343:-13|269:41|324:157|380:164,1,510,0|0,1:0|0:0,0:0:0:0:
512,311,65822,6,0,P|493:264|479:245,1,63.7500024318696
251,92,66017,1,0,0:0:0:0:
0,384,66212,38,0,B|159:354|228:268|249:75|180:15|96:6|73:78|30:186|-27:486|150:260|210:284|162:180,1,765.000029182435,8|0,0:0|0:0,0:0:0:0:
251,92,66601,6,0,B|246:43|246:43|165:3,14,85,0|0|0|0|0|0|0|0|0|0|0|0|0|0|0,1:0|0:0|0:0|0:0|0:0|0:0|0:0|0:0|0:0|0:0|0:0|0:0|0:0|0:0|0:0,0:0:0:0:
338,0,66991,38,0,L|-30:35,1,340
48,176,67283,1,0,0:0:0:0:
62,164,67381,6,0,L|62:142,1,21.25,0|0,1:0|0:0,0:0:0:0:
0,32,67575,2,0,L|68:152,1,127.500004863739,0|0,1:0|0:0,0:0:0:0:
314,177,67770,38,0,L|124:141,1,170,8|0,0:0|0:0,0:0:0:0:
71,384,67965,2,0,L|112:206,1,170,0|0,1:0|0:0,0:0:0:0:
160,31,68160,6,0,L|157:-9,7,31.8750012159348,0|0|0|0|0|0|0|0,3:0|3:0|3:0|3:0|3:0|3:0|3:0|3:0,3:0:0:0:
146,145,68549,22,0,B|136:109|198:40|200:111|265:23|265:23|222:94|254:61|273:113|237:163|186:130|224:86,1,340,0|0,1:0|0:0,0:0:0:0:
501,56,68939,22,0,P|472:47|450:32,1,42.5
360,276,69134,2,0,P|368:219|301:172,1,127.5
311,178,69329,21,8,3:2:0:0:
286,300,69458,21,0,3:2:0:0:
204,347,69588,21,0,3:2:0:0:
488,384,69718,22,0,B|440:365|457:342|407:330,1,85,0|0,1:0|0:0,0:0:0:0:
512,42,69913,2,0,B|505:98|505:98|500:103|500:103|489:182,1,127.5
493,174,70108,22,0,B|427:192|359:140|368:77|368:77|383:115|418:124,1,226.666666666667
334,13,70303,22,0,P|307:16|286:32,1,42.5
270,254,70497,21,0,3:0:0:0:
277,247,70562,1,0,3:0:0:0:
285,249,70627,1,0,3:0:0:0:
288,257,70692,1,0,3:0:0:0:
281,263,70757,1,0,3:0:0:0:
272,261,70821,1,0,3:0:0:0:
279,255,70886,22,0,P|310:204|313:161,1,85,8|0,0:0|0:0,0:0:0:0:
64,256,71082,22,0,P|104:252|134:236,1,68,0|0,1:0|0:0,0:0:0:0:
1,102,71277,22,0,P|37:130|61:138,1,50.9999984436036,0|0,1:0|0:0,0:0:0:0:
23,0,71471,22,0,P|34:28|50:46,3,34,0|0|0|0,3:0|3:0|3:0|3:0,3:0:0:0:
470,101,71666,22,0,B|478:123|478:123|304:95,1,170
286,377,71861,22,0,B|309:307|344:354|365:261,1,127.5
357,267,72056,1,0,0:0:0:0:
197,69,72251,22,0,B|195:54|223:46|226:98|201:138|130:124,1,127.5,0|0,1:0|0:0,0:0:0:0:
139,121,72445,22,0,B|93:80|131:73|109:25|64:25|64:25|88:45|92:80,1,170,8|0,0:0|0:0,0:0:0:0:
223,225,72640,2,0,B|219:243|219:243|234:262|234:262|236:238|236:238|224:224,1,85
366,28,72835,22,0,B|352:114|352:114|346:118|346:118|329:224,1,191.250007295609,0|0,1:0|0:0,0:0:0:0:
338,220,73030,22,0,B|350:297|267:382|195:362|195:362|254:367|250:319|294:318,1,340
288,318,73419,22,0,B|302:327|302:327|338:321,1,42.5
496,178,73614,22,0,B|482:166|482:166|487:113|487:113|514:158|514:158|499:195,1,144.500002756119,0|0,1:0|0:0,0:0:0:0:
265,103,73809,22,0,B|257:123|257:123|336:146|429:100|445:14,1,255,0|0,1:0|0:0,0:0:0:0:
442,24,74004,22,0,B|400:30|400:30|398:26|398:26|400:30|400:30|356:37,1,85,8|0,0:0|0:0,0:0:0:0:
406,184,74199,2,0,B|400:219|400:219|406:222|406:222|400:219|400:219|384:313,1,127.500004863739,0|0,1:0|0:0,0:0:0:0:
358,36,74393,22,0,L|310:43,2,28.3333333333333,0|0|0,3:0|3:0|3:0,3:0:0:0:
384,311,74588,2,0,L|374:366,1,42.5
288,156,74783,22,0,B|219:113|234:5|234:5|218:166|28:134,1,340,0|0,1:0|0:0,0:0:0:0:
140,132,75173,22,0,B|164:140|164:140|189:218|189:218|178:235,1,127.500004863739
37,191,75368,2,0,L|79:197,1,42.5
87,195,75562,21,8,3:2:0:0:
135,384,75692,21,0,3:0:0:0:
232,349,75822,21,0,3:0:0:0:
297,206,75952,22,0,L|248:210,1,42.5,0|0,1:0|0:0,0:0:0:0:
255,210,76342,2,0,B|271:112|338:169|350:50,1,170
460,263,76731,21,0,1:0:0:0:
422,277,76796,1,0,3:0:0:0:
386,272,76861,1,0,3:0:0:0:
362,259,76926,1,0,3:0:0:0:
348,241,76991,1,0,3:0:0:0:
341,224,77056,1,0,3:0:0:0:
340,213,77121,22,0,P|390:193|424:192,1,85,8|0,0:0|0:0,0:0:0:0:
238,384,77316,2,0,P|245:335|164:275,1,127.500004863739,0|0,1:0|0:0,0:0:0:0:
475,121,77510,2,0,B|511:142|478:162|509:205|509:205|408:149|514:60|366:-5,1,340,0|0,1:0|0:0,2:0:0:0:
326,58,77770,21,0,3:0:0:0:
326,58,77835,1,0,3:0:0:0:
326,58,77900,2,0,B|308:96|308:96|57:160|57:160|-2:107,1,340,0|0,1:0|0:0,0:0:0:0:
28,134,78290,22,0,B|35:182|71:196|71:196|84:238|19:236,1,127.500004863739
0,345,78484,2,0,P|14:302|27:286,1,42.5,0|0,1:0|0:0,0:0:0:0:
371,285,78679,22,0,B|384:252|384:252|128:216,1,255.000009727478,8|0,0:0|0:0,0:0:0:0:
403,42,79069,22,0,L|392:-11,1,42.5,0|0,1:0|0:0,0:0:0:0:
394,0,79458,2,0,B|400:44|448:88|503:73|503:73|484:27,1,170
409,251,79848,22,0,B|389:345|313:292|303:442,1,170,0|0,1:0|0:0,0:0:0:0:
283,152,80043,2,0,B|262:154|262:154|268:217|268:217|322:244|322:244|369:165,1,170,0|0,1:0|0:0,0:0:0:0:
451,258,80238,22,0,L|400:250,1,42.5,8|0,0:0|0:0,0:0:0:0:
181,221,80432,2,0,L|70:203,1,85,0|0,1:0|0:0,0:0:0:0:
15,18,80627,2,0,L|92:9,2,56.6666666666667,0|0|0,3:0|0:0|0:0,0:0:0:0:
4,20,80822,21,0,0:0:0:0:
4,20,81017,6,0,B|59:40|103:107|103:107|131:22|231:3|231:3|181:20|174:74,1,382.500014591218
250,75,81796,6,0,L|252:89,1,12.75,8|0,0:0|0:0,0:0:0:0:
317,133,82575,37,0,0:0:0:0:
380,81,82769,1,0,0:0:0:0:
313,211,82964,2,0,B|297:255|323:246|302:288,1,76.4999976654053
494,377,83354,5,8,0:0:0:0:
444,316,83549,2,0,L|425:321,1,17
494,256,83938,5,0,0:0:0:0:
365,368,84133,22,0,P|323:342|287:348,1,63.7500024318696
275,277,84327,2,0,P|242:294|222:330,1,63.7500024318696
236,334,84522,5,0,0:0:0:0:
375,272,84717,1,0,0:0:0:0:
104,169,84912,5,8,0:0:0:0:
160,122,85107,2,0,L|158:103,1,17
0,2,85496,22,0,L|8:0,1,8.5
34,14,85691,1,0,0:0:0:0:
0,308,85886,2,0,B|63:271|63:271|40:195,2,127.500004863739
3,164,86470,5,8,0:0:0:0:
57,103,86665,2,0,L|66:104,1,8.5
127,150,86860,6,0,L|168:137,1,34
268,2,87055,2,0,L|302:11,1,34
501,53,87249,21,0,2:0:0:0:
402,26,87444,1,0,2:0:0:0:
376,125,87639,1,0,2:0:0:0:
474,151,87834,1,0,2:0:0:0:
301,378,88029,5,8,3:2:0:0:
381,346,88158,5,0,3:2:0:0:
317,294,88288,21,0,3:2:0:0:
330,338,88418,5,0,3:2:0:0:
330,338,88613,2,0,L|240:327,1,68
8,302,88808,5,0,0:0:0:0:
216,139,89003,1,0,0:0:0:0:
62,81,89197,21,0,3:0:0:0:
74,73,89262,1,0,3:0:0:0:
88,75,89327,1,0,3:0:0:0:
118,94,89392,1,0,3:0:0:0:
135,97,89457,1,0,3:0:0:0:
145,91,89522,1,0,3:0:0:0:
163,62,89587,5,8,0:0:0:0:
114,0,89782,1,0,0:0:0:0:
316,17,89977,5,0,0:0:0:0:
490,111,90171,21,0,3:0:0:0:
482,120,90236,1,0,3:0:0:0:
485,131,90301,1,0,3:0:0:0:
481,162,90366,5,0,0:0:0:0:
413,377,90756,5,0,0:0:0:0:
483,340,90951,1,0,0:0:0:0:
465,262,91145,1,0,0:0:0:0:
387,286,91535,21,0,0:0:0:0:
465,262,91730,1,0,0:0:0:0:
227,8,91925,5,0,0:0:0:0:
277,75,92120,1,0,0:0:0:0:
356,45,92314,2,0,P|429:55|497:159,1,178.499994552612
492,132,92704,6,0,L|441:144,1,29.7499990921021
185,384,92899,2,0,B|115:351|115:351|140:274,1,127.500004863739
311,154,93094,21,0,0:0:0:0:
335,296,93223,1,0,0:0:0:0:
209,244,93353,1,0,0:0:0:0:
286,231,93483,5,4,1:0:0:0:
101,21,93613,21,0,0:0:0:0:
69,207,93742,1,0,0:0:0:0:
234,139,93872,1,0,0:0:0:0:
132,122,94003,21,0,0:0:0:0:
140,126,94068,1,0,1:0:0:0:
492,133,94262,21,8,0:0:0:0:
434,184,94360,1,0,0:0:0:0:
454,257,94457,1,0,0:0:0:0:
498,130,94652,21,0,1:0:0:0:
448,140,94749,1,0,0:0:0:0:
397,150,94847,1,0,0:0:0:0:
347,160,94944,1,0,0:0:0:0:
288,106,95042,21,0,0:0:0:0:
298,56,95139,1,0,0:0:0:0:
200,13,95236,21,0,0:0:0:0:
209,72,95334,1,0,0:0:0:0:
85,119,95431,21,0,1:0:0:0:
102,37,95529,1,0,0:0:0:0:
16,59,95626,22,0,L|32:64,1,17,0|8,0:0|0:0,0:0:0:0:
143,185,96016,1,0,1:0:0:0:
143,185,96210,1,0,1:0:0:0:
4,318,96503,1,0,0:0:0:0:
0,311,96600,21,0,1:0:0:0:
75,299,96697,1,0,0:0:0:0:
151,287,96795,1,0,0:0:0:0:
149,280,96990,21,0,0:0:0:0:
252,186,97184,1,0,1:0:0:0:
288,256,97282,1,0,0:0:0:0:
264,378,97379,21,8,0:0:0:0:
386,231,97574,21,0,0:0:0:0:
316,266,97672,1,0,0:0:0:0:
264,378,97769,21,0,1:0:0:0:
464,330,97964,21,0,0:0:0:0:
464,330,98061,1,0,0:0:0:0:
481,339,98158,21,0,0:0:0:0:
475,279,98256,1,0,0:0:0:0:
469,219,98353,1,0,0:0:0:0:
463,159,98451,1,0,0:0:0:0:
377,183,98548,21,0,1:0:0:0:
357,247,98645,1,0,0:0:0:0:
221,122,98743,21,0,1:0:0:0:
295,105,98840,1,0,0:0:0:0:
358,6,98938,22,0,L|339:1,1,17,8|0,0:0|1:0,0:0:0:0:
435,31,99327,1,0,0:0:0:0:
435,31,99522,1,0,0:0:0:0:
155,30,99717,22,0,P|125:27|81:-5,1,67.9999979248048,0|0,1:0|0:0,0:0:0:0:
8,141,100009,22,0,B|1:82|46:36|99:25|132:49|132:49|93:68|81:115,1,255,0|0,0:0|1:0,0:0:0:0:
161,118,100496,22,0,B|172:126|172:126|226:116,1,56.6666666666667,8|0,3:2|3:2,3:2:0:0:
161,118,100626,2,0,B|173:113|173:113|222:139,1,56.6666666666667,0|0,3:2|3:2,3:2:0:0:
289,143,100756,2,0,L|377:160,1,56.6666666666667,0|0,3:2|3:2,3:2:0:0:
506,73,100886,22,0,B|434:90|434:90|428:88|428:88|415:184|415:184|445:202|445:202|472:263,1,255.000009727478,0|0,1:0|0:0,0:0:0:0:
378,363,101275,22,0,B|353:336|316:344|316:344|352:327|349:278,1,136
267,230,101568,21,0,0:0:0:0:
267,230,101665,2,0,B|262:263|262:263|277:296,2,56.6666666666667,0|0|0,3:0|3:0|3:0,3:0:0:0:
455,384,101860,2,0,B|460:351|460:351|445:318,2,56.6666666666667,0|0|0,3:0|3:0|3:0,3:0:0:0:
512,254,102055,2,0,P|466:243|434:226,1,50.9999984436036,8|0,0:0|0:0,0:0:0:0:
301,123,102249,22,0,B|303:157|334:172|334:172|337:136|305:114,1,127.500004863739
289,363,102444,2,0,B|363:339|317:300|425:264,1,127.500004863739
222,160,102639,22,0,P|174:177|150:191,2,56.6666666666667,0|0|0,3:0|3:0|3:0,3:0:0:0:
60,38,102834,2,0,P|134:86|194:67,1,113.333333333333
248,327,103126,22,0,B|232:252|285:200|333:204|333:204|297:224|286:247|286:247|254:261|195:202,1,289.000005512238
106,369,103418,22,0,P|131:286|176:285,1,127.5
159,281,103613,2,0,B|165:303|165:303|-14:275,1,170,8|0,0:0|0:0,0:0:0:0:
440,354,103905,22,0,B|383:365|383:365|376:376|376:376|385:381|385:381|503:356|503:356|527:321|527:321|465:258,1,289.000005512238
218,226,104197,2,0,P|276:260|317:269,1,85
292,264,104392,22,0,P|307:223|343:215,1,67.9999979248048
173,373,104652,2,0,P|162:340|157:307,1,67.9999979248048
504,0,104977,22,0,P|470:235|457:280,1,216.750004134178
475,214,105171,22,0,B|463:135|391:112|355:144|378:180|413:163,1,170,8|0,0:0|0:0,0:0:0:0:
281,384,105464,22,0,B|303:299|350:343|357:243,1,144.500002756119
280,254,105626,21,0,3:0:0:0:
280,254,105691,1,0,3:0:0:0:
280,254,105756,2,0,P|346:296|383:303,1,113.333333333333,0|0,3:0|3:0,3:0:0:0:
454,287,105951,37,0,1:0:0:0:
454,287,106340,6,0,L|366:305,1,76.4999976654053
59,0,106535,2,0,L|240:110,1,170,0|0,1:0|0:0,0:0:0:0:
163,324,106730,38,0,B|214:157|214:157|209:146|209:146|275:-69,1,340,8|0,0:0|0:0,0:0:0:0:
253,0,107120,6,0,L|203:48,1,63.7500024318696,0|0,1:0|0:0,0:0:0:0:
0,101,107314,38,0,B|218:69|218:69|223:71|223:71|362:48,1,340
335,52,107509,6,0,L|326:0,1,46.7500014266968
435,32,107704,6,0,B|420:101|420:101|476:141|476:141|445:250,1,229.499992996216
347,151,107899,38,0,L|525:61,1,170,0|0,1:0|0:0,0:0:0:0:
451,227,108094,2,0,L|433:136,1,85
512,0,108288,38,0,B|489:178|489:178|482:182|482:182|458:360,1,340,8|0,0:0|0:0,0:0:0:0:
379,329,108483,6,0,B|381:361|381:361|352:380|352:380|374:300,1,127.500004863739,0|0,1:0|0:0,0:0:0:0:
158,116,108678,6,0,B|214:93|214:93|271:195,1,127.500004863739,0|0,1:0|0:0,0:0:0:0:
512,151,108873,22,0,B|331:175|331:175|326:172|326:172|148:196,1,340
102,175,109068,5,0,1:0:0:0:
102,175,109262,2,0,L|94:213,1,29.7499990921021
0,323,109457,6,0,L|137:279,1,127.500004863739
378,0,109652,2,0,B|362:89|362:89|334:115|334:115|314:254,1,203.999993774414,0|0,1:0|0:0,0:0:0:0:
269,381,109847,22,0,B|249:216|249:216|255:212|255:212|231:19,1,340,8|0,0:0|0:0,0:0:0:0:
234,46,110236,6,0,L|336:209,1,170
404,157,110431,38,0,B|167:110|167:110|163:114|163:114|21:85,1,340
146,32,110626,6,0,B|141:5|141:5|167:-2|167:-2|146:54,1,85
10,371,110821,2,0,B|83:347|83:347|112:216,1,170
36,184,111016,6,0,B|8:295|8:295|165:428,1,255,0|0,1:0|0:0,0:0:0:0:
322,188,111210,2,0,L|62:268,1,229.500000875473,0|0,1:0|0:0,0:0:0:0:
7,295,111405,22,0,B|169:313|169:313|173:321|173:321|368:340,1,340,8|0,0:0|0:0,0:0:0:0:
403,296,111600,6,0,L|427:292,1,21.25,0|0,1:0|0:0,0:0:0:0:
512,338,111795,2,0,B|508:324|508:324|485:335,1,31.875
491,318,111990,2,0,B|495:332|495:332|518:321,1,31.875
509,247,112184,5,0,1:0:0:0:
509,247,112379,2,0,L|483:240,1,21.25
496,43,112574,38,0,L|519:214,1,127.500004863739
437,384,112769,2,0,B|407:391|407:391|390:322|390:322|443:308,1,127.500004863739,0|0,1:0|0:0,0:0:0:0:
510,324,112964,38,0,B|326:276|326:276|322:278|322:278|155:235,1,340,8|0,0:0|0:0,0:0:0:0:
76,291,113158,5,0,0:0:0:0:
181,241,113353,6,0,B|86:235|25:282|-5:377|57:398|72:414|167:344|168:315|139:238,1,382.500014591218,0|0,1:0|0:0,0:0:0:0:
129,171,113743,38,0,L|-31:134,1,127.500004863739
363,12,113938,2,0,B|302:-36|241:-3|241:-3|274:16|279:75,1,191.250007295609
149,272,114133,6,0,L|195:79,1,152.999995330811,0|0,1:0|0:0,0:0:0:0:
199,54,114327,2,0,B|145:0|145:0|114:6|114:6|85:88|85:88|160:63,1,229.499992996216
439,182,114522,22,0,B|261:127|261:127|255:120|255:120|70:61,1,340,8|0,0:0|0:0,0:0:0:0:
5,295,114717,6,0,B|-22:262|-22:262|43:311,1,85,0|0,1:0|0:0,0:0:0:0:
407,0,114912,2,0,B|463:-18|463:-18|503:78,1,127.5,0|0,1:0|0:0,0:0:0:0:
489,46,115107,2,0,P|453:85|406:59,1,85
0,187,115301,6,0,B|54:223|54:223|79:156,1,127.5,0|0,1:0|0:0,0:0:0:0:
129,48,115496,38,0,B|145:110|145:110|208:77,1,127.5
308,137,115691,6,0,B|265:110|228:158|245:186|313:206|293:238|194:253|221:177,1,170
37,383,115886,2,0,B|63:280|182:300|182:300|117:301|113:393,1,255,0|0,1:0|0:0,0:0:0:0:
176,384,116081,22,0,B|151:219|151:219|153:216|153:216|129:48,1,340,8|0,0:0|0:0,0:0:0:0:
312,27,116275,6,0,L|223:-3,1,85
0,187,116470,2,0,B|-19:214|-19:214|-9:244|-9:244|18:220|18:220|18:166,1,127.5,0|0,1:0|0:0,0:0:0:0:
127,332,116665,2,0,B|169:253|169:253|37:288,1,191.250007295609
6,320,116860,5,0,0:0:0:0:
6,320,117055,2,0,B|-4:359|-4:359|15:329,1,63.7500024318696
88,0,117249,38,0,L|118:186,1,178.499994552612,0|0,1:0|0:0,0:0:0:0:
315,356,117444,2,0,L|158:245,1,178.499994552612,0|0,1:0|0:0,0:0:0:0:
0,107,117639,38,0,B|197:64|197:64|205:68|205:68|386:28,1,340,8|0,0:0|0:0,0:0:0:0:
466,124,117834,6,0,B|550:80|520:-26|462:-26|415:-8|379:58|421:119,1,260.666671638489,0|0,1:0|0:0,0:0:0:0:
362,237,118029,5,0,0:0:0:0:
392,238,118094,1,0,0:0:0:0:
406,224,118158,1,0,0:0:0:0:
400,206,118223,1,0,0:0:0:0:
387,212,118288,1,0,0:0:0:0:
393,217,118353,1,0,0:0:0:0:
381,225,118418,21,0,0:0:0:0:
10,37,124652,5,0,0:0:0:0:
23,42,124847,1,0,0:0:0:0:
37,35,125042,1,0,0:0:0:0:
110,0,125236,5,0,0:0:0:0:
393,227,125431,21,8,0:0:0:0:
472,148,125626,5,0,0:0:0:0:
452,146,125821,1,0,0:0:0:0:
439,157,126016,1,0,0:0:0:0:
362,150,126210,5,0,0:0:0:0:
463,371,126405,37,0,0:0:0:0:
485,351,126600,1,0,0:0:0:0:
483,320,126795,1,0,0:0:0:0:
205,382,126990,37,8,0:0:0:0:
403,318,127184,5,0,0:0:0:0:
326,294,127379,1,0,0:0:0:0:
283,360,127574,1,0,0:0:0:0:
0,384,127769,5,0,0:0:0:0:
225,26,127964,37,0,0:0:0:0:
104,79,128158,1,0,0:0:0:0:
147,198,128353,1,0,0:0:0:0:
0,0,128548,37,8,0:0:0:0:
250,254,128743,5,0,0:0:0:0:
512,137,128938,5,0,0:0:0:0:
384,60,129133,1,0,0:0:0:0:
500,277,129327,37,0,0:0:0:0:
460,194,129522,1,0,0:0:0:0:
495,384,129717,6,0,L|516:293,1,76.4999976654053
512,3,130107,38,0,P|506:-12|510:3,1,42.5
432,0,130301,6,0,P|425:-10|431:5,1,63.7500024318696
326,61,130496,38,0,P|307:77|334:65,1,85
312,210,130691,6,0,P|310:232|316:206,1,110.499994941712
450,309,130886,6,0,B|443:345|471:378|471:378|414:344|417:276|459:240|467:287|545:271|525:195|525:195|504:183,1,340,4|0,1:0|0:0,0:0:0:0:
345,321,131275,22,0,P|352:346|352:370,1,42.5
97,207,131470,2,0,B|109:138|169:168|174:83,1,127.5,0|0,1:0|0:0,0:0:0:0:
169,99,131665,22,0,B|111:87|111:87|103:76|103:76|114:70|114:70|247:96|247:96|274:64|274:64|260:27|260:27|163:-2,1,340,8|0,0:0|0:0,0:0:0:0:
382,384,132055,22,0,P|313:339|321:263,1,127.500004863739,0|0,1:0|0:0,0:0:0:0:
465,353,132249,2,0,P|473:284|521:242,1,127.5
499,159,132444,22,0,B|405:149|369:252|369:252|396:223|419:255|433:191,1,255
429,206,132639,22,0,P|417:175|416:150,1,42.5
512,1,132834,22,0,P|466:22|513:2,1,170,0|0,1:0|0:0,0:0:0:0:
174,32,133029,22,0,P|155:82|153:96,1,63.75
125,163,133223,22,0,B|109:176|94:197|94:197|136:160|195:164,1,127.500004863739,8|0,0:0|0:0,0:0:0:0:
4,19,133418,22,0,P|34:38|31:74,1,68,0|0,1:0|0:0,0:0:0:0:
122,337,133613,22,0,P|110:380|98:395,1,50.9999984436036,0|0,1:0|0:0,0:0:0:0:
262,168,133808,22,0,P|252:143|253:134,1,34
457,26,134003,22,0,B|495:7|495:7|410:72|437:164,1,170,0|0,1:0|0:0,0:0:0:0:
117,21,134197,22,0,B|111:11|111:11|117:5|117:5|228:18,1,127.5
230,24,134392,1,0,0:0:0:0:
512,245,134587,2,0,B|533:212|524:178|488:169|488:169|463:191|444:190,1,127.5,0|0,1:0|0:0,0:0:0:0:
455,194,134782,22,0,B|428:229|442:275|442:275|423:228|364:224,1,170,8|0,0:0|0:0,0:0:0:0:
243,384,134977,2,0,B|248:375|248:375|310:362|310:362|327:373,1,85
79,77,135171,22,0,B|145:78|166:144|166:144|125:164|128:209,1,191.250007295609,0|0,1:0|0:0,0:0:0:0:
124,207,135366,22,0,B|156:177|156:177|212:289|212:289|90:351|90:351|81:295,1,340
0,135,135756,22,0,P|26:146|54:148,1,42.5
318,285,135951,2,0,B|298:193|298:193|268:182|255:149,1,144.500002756119,0|0,1:0|0:0,0:0:0:0:
440,87,136145,2,0,B|501:47|506:27|446:-5|408:78|457:77|405:169|325:145|284:92,1,255,0|0,1:0|0:0,0:0:0:0:
324,120,136340,22,0,B|317:78|317:78|256:85,1,85,8|0,0:0|0:0,0:0:0:0:
459,315,136535,2,0,B|448:379|448:379|355:368,1,127.500004863739,0|0,1:0|0:0,0:0:0:0:
512,167,136730,22,0,L|463:160,1,42.5
175,108,136925,2,0,L|86:95,1,85
15,256,137120,22,0,B|-9:282|-11:318|-11:318|36:244|103:207|153:222|153:222|109:232|88:304,1,340,0|0,1:0|0:0,0:0:0:0:
172,303,137509,22,0,B|160:316|160:316|158:362|158:362|180:321|180:321|177:304,1,127.500004863739
90,95,137704,2,0,L|82:138,1,42.5,0|0,1:0|0:0,0:0:0:0:
271,4,137899,22,0,B|376:14|352:139|302:113|330:25,1,170,8|0,0:0|0:0,0:0:0:0:
82,137,138094,2,0,B|161:129|161:129|167:137|167:137|275:125,1,170
512,165,138288,22,0,L|464:158,1,42.5,0|0,1:0|0:0,0:0:0:0:
470,159,138678,2,0,B|478:133|460:103|460:103|462:173|403:200,1,170
173,296,139068,6,0,L|164:243,1,51,0|0,1:0|0:0,0:0:0:0:
164,245,139457,6,0,B|182:277|213:286|213:286|220:352|165:413,1,170,8|0,0:0|0:0,0:0:0:0:
0,195,139652,22,0,P|93:159|152:156,1,127.500004863739,0|0,1:0|0:0,0:0:0:0:
347,233,139847,2,0,P|329:265|310:270,1,51,0|0,1:0|0:0,0:0:0:0:
308,274,140236,22,0,B|241:204|295:103|385:87|385:87|340:112|378:123|344:181|271:177,1,340
335,159,140626,22,0,P|419:128|486:135,1,127.500004863739
300,0,140821,2,0,P|335:7|351:26,1,42.5,0|0,1:0|0:0,0:0:0:0:
512,203,141016,22,0,B|490:230|505:285|505:285|489:230|429:210,1,170,8|0,0:0|0:0,0:0:0:0:
330,362,141210,2,0,P|366:321|331:363,1,170
246,186,141405,22,0,L|254:140,1,42.5,0|0,1:0|0:0,0:0:0:0:
253,144,141795,2,0,B|266:207|266:207|208:244|231:318,1,170
195,5,142184,22,0,B|259:3|270:65|270:65|255:32|212:31,1,170,0|0,1:0|0:0,0:0:0:0:
17,253,142379,2,0,P|148:192|233:185,1,170,0|0,1:0|0:0,0:0:0:0:
348,221,142574,22,0,P|358:188|367:177,1,42.5,8|0,0:0|0:0,0:0:0:0:
512,309,142769,2,0,P|460:268|411:256,1,85,0|0,1:0|0:0,0:0:0:0:
167,14,142964,21,0,1:0:0:0:
224,26,143029,1,0,3:0:0:0:
262,60,143094,1,0,3:0:0:0:
281,98,143159,1,0,3:0:0:0:
283,133,143224,1,0,3:0:0:0:
278,159,143289,1,0,3:0:0:0:
268,175,143353,6,0,B|268:278|215:214|195:306|219:338,1,165.749992412568,4|0,1:0|0:0,0:0:0:0:
211,321,143743,6,0,B|246:334|258:363|258:363|252:325|310:271,1,127.500004863739
512,384,143938,6,0,B|423:367|423:367|422:369|422:369|320:347,1,178.499994552612
46,343,144133,22,0,B|109:306|109:306|92:208,1,118.999996368408,8|0,3:2|3:2,3:2:0:0:
96,234,144262,2,0,B|74:247|74:247|91:276,1,42.5000016212464,0|0,3:2|3:2,3:2:0:0:
140,287,144392,2,0,B|131:272|131:272|95:270,1,42.5000016212464,0|0,3:2|3:2,3:2:0:0:
4,271,144522,6,0,B|173:285|173:285|179:295|179:295|302:306,1,280.500008560181,0|0,1:0|0:0,0:0:0:0:
338,350,144717,2,0,P|397:311|347:220,1,127.500004863739
302,38,144912,38,0,B|332:0|354:-34|257:-28|212:65|213:139|314:208|363:68,1,293.2500055933
457,107,145107,6,0,B|424:114|406:144|406:144|418:112|397:69,1,127.500004863739
10,21,145301,5,0,1:0:0:0:
68,8,145366,1,0,3:0:0:0:
112,22,145431,1,0,3:0:0:0:
143,53,145496,1,0,3:0:0:0:
149,78,145561,1,0,3:0:0:0:
148,102,145626,1,0,3:0:0:0:
135,118,145691,22,0,B|101:118|79:144|79:144|89:97|30:59,1,127.500004863739,8|0,0:0|0:0,0:0:0:0:
1,139,145886,6,0,L|282:200,1,286.875010943413,0|0,1:0|0:0,0:0:0:0:
371,234,146081,6,0,B|325:241|297:278|297:278|310:218|250:162,1,170,0|0,1:0|0:0,0:0:0:0:
221,110,146275,2,0,L|232:174,2,42.5000016212464,0|0|0,3:0|3:0|3:0,3:0:0:0:
262,384,146470,21,0,1:0:0:0:
298,278,146665,6,0,B|326:237|326:237|306:333,1,106.25
262,384,146860,38,0,B|417:343|417:343|379:137,1,339.149986027451
384,167,147055,6,0,B|381:131|381:131|396:188,1,85,0|0,1:0|0:0,0:0:0:0:
0,153,147249,6,0,B|137:185|137:185|126:248,1,170,8|0,0:0|0:0,0:0:0:0:
56,265,147444,2,0,B|37:276|-5:266|-4:230,1,63.7500024318696
297,102,147639,22,0,B|315:-24|226:-24|215:-4|204:81|294:143|364:150|369:230|333:332|152:324|220:139,1,510
209,216,148029,6,0,P|207:178|225:151,1,63.7500024318696
357,2,148223,1,0,0:0:0:0:
357,2,148418,6,0,L|384:111,1,85,0|0,1:0|0:0,0:0:0:0:
512,196,148613,38,0,L|347:156,1,127.500004863739,0|0,1:0|0:0,0:0:0:0:
377,84,148808,38,0,B|444:96|465:168|465:168|447:94|516:13,1,255,8|0,0:0|0:0,0:0:0:0:
489,48,149003,6,0,L|476:45,1,12.7499996109009,0|0,1:0|0:0,0:0:0:0:
237,0,149197,6,0,L|256:51,2,42.5000016212464,0|0|0,3:0|3:0|3:0,3:0:0:0:
358,10,149392,2,0,B|317:7|317:7|338:24,1,63.7500024318696
0,132,149587,22,0,B|62:67|176:63|301:239|245:306|121:281|69:243|65:125,1,510,0|0,1:0|0:0,0:0:0:0:
107,0,149977,6,0,P|157:22|144:70,1,85
65,137,150171,2,0,L|244:100,1,170,0|0,1:0|0:0,0:0:0:0:
362,228,150366,38,0,B|301:150|301:150|337:57,1,141.666666666667,8|0,3:2|3:0,3:0:0:0:
417,112,150496,6,0,L|369:149,1,42.5000016212464,0|0,3:0|3:0,3:0:0:0:
159,46,150626,38,0,L|346:120,1,170.000006484986,0|0,3:0|3:0,3:0:0:0:
484,72,150756,22,0,B|498:28|498:28|439:-34,12,85
320,384,151145,22,0,B|347:347|402:287|404:428|517:312|505:249|505:249|455:328|415:241|427:371,1,382.500014591218
437,214,151535,5,0,1:0:0:0:
403,160,151600,1,0,3:0:0:0:
347,140,151665,1,0,3:0:0:0:
312,149,151730,1,0,3:0:0:0:
294,162,151795,1,0,3:0:0:0:
265,162,151860,1,0,3:0:0:0:
254,150,151925,38,0,L|225:28,1,85,8|0,0:0|0:0,0:0:0:0:
471,0,152120,6,0,L|321:41,1,127.500004863739
123,337,152314,2,0,B|53:297|53:297|72:139|72:139|206:104,1,340
151,200,152574,1,0,0:0:0:0:
151,200,152639,1,0,0:0:0:0:
151,200,152704,38,0,B|23:325|-73:109|-73:57|59:-105|139:-53|130:82|41:72,1,510,0|0,1:0|0:0,0:0:0:0:
168,113,153094,6,0,L|141:244,1,85
0,384,153288,1,0,1:0:0:0:
428,2,153483,38,0,B|533:61|570:208|511:358|257:327|216:53|308:-81|449:-111|429:220|186:160,1,637.5,8|0,0:0|0:0,0:0:0:0:
295,217,153873,6,0,B|252:230|252:230|206:160,12,85,0|0|0|0|0|0|0|0|0|0|0|0|0,1:0|0:0|0:0|0:0|0:0|0:0|0:0|0:0|0:0|0:0|0:0|0:0|0:0,0:0:0:0:
512,292,154262,38,0,B|408:266|408:266|393:167|393:167|250:129,1,322.99999137497
293,8,154555,6,0,B|239:67|239:67|286:147,1,161.499995687485,0|0,0:0|1:0,0:0:0:0:
0,175,154847,6,0,L|182:144,1,161.499995687485,0|0,1:0|0:0,0:0:0:0:
464,102,155042,38,0,L|329:72,1,127.500004863739,8|0,0:0|0:0,0:0:0:0:
154,227,155236,6,0,L|176:357,1,127.500004863739
512,41,155431,22,0,L|502:-11,2,42.5000016212464,0|0|0,3:0|3:0|3:0,3:0:0:0:
427,0,155626,5,0,0:0:0:0:
512,210,155821,5,0,0:0:0:0:
