osu file format v14

[General]
AudioFilename: Love Options - BESTie.mp3
AudioLeadIn: 0
PreviewTime: -1
Countdown: 1
SampleSet: Normal
StackLeniency: 0.7
Mode: 0
LetterboxInBreaks: 1
WidescreenStoryboard: 1

[Editor]
Bookmarks: 21976,37098,62342
DistanceSpacing: 1.2
BeatDivisor: 4
GridSize: 8
TimelineZoom: 1.7

[Metadata]
Title:Love Options
TitleUnicode:Love Options
Artist:BESTie
ArtistUnicode:BESTie
Creator:Bubba
Version:this
Source:
Tags:BESTie Love Options K-pop
BeatmapID:1549538
BeatmapSetID:734384

[Difficulty]
HPDrainRate:6.9
CircleSize:3.6
OverallDifficulty:8.1
ApproachRate:8
SliderMultiplier:1.4
SliderTickRate:1

[Events]
//Background and Video events
0,0,"bg.png",0,0
//Break Periods
2,161078,166958
//Storyboard Layer 0 (Background)
//Storyboard Layer 1 (Fail)
//Storyboard Layer 2 (Pass)
//Storyboard Layer 3 (Foreground)
//Storyboard Sound Samples

[TimingPoints]
9903,487.80487804878,4,1,0,100,1,0
49659,-133.333333333333,4,2,0,100,0,0
56488,-100,4,1,0,100,0,0
65268,-133.333333333333,4,2,0,100,0,0
72342,-100,4,1,0,100,0,0
80878,-100,4,1,0,100,0,1
96488,-100,4,1,0,100,0,0
127707,-133.333333333333,4,2,0,100,0,0
134537,-100,4,1,0,100,0,0
143317,-133.333333333333,4,2,0,100,0,0
150147,-100,4,1,0,100,0,0
167708,-133.333333333333,4,2,0,100,0,0
173927,-200,4,3,0,100,0,0
174537,-100,4,1,0,100,0,1
190391,-100,4,1,0,100,0,0

[HitObjects]
320,104,9903,6,0,P|384:160|368:176,1,140
64,320,10634,6,0,L|144:256,1,70
72,136,11122,1,0,0:0:0:0:
72,136,11244,2,0,L|40:160,1,35
288,128,11610,1,0,0:0:0:0:
288,128,11732,1,0,0:0:0:0:
288,128,11854,1,0,0:0:0:0:
208,288,12098,1,0,0:0:0:0:
208,288,12220,2,0,L|240:264,1,35
400,264,12586,6,0,L|464:208,1,70
256,176,13073,1,0,0:0:0:0:
0,200,13317,2,0,P|56:192|80:176,1,70
104,152,13683,1,0,0:0:0:0:
136,112,13805,1,0,0:0:0:0:
256,64,14049,1,0,0:0:0:0:
392,176,14293,1,0,0:0:0:0:
320,312,14537,2,0,L|272:288,1,35
128,304,14781,2,0,L|48:248,1,70
0,152,15147,2,0,L|40:128,1,35
160,128,15512,2,0,P|207:146|251:123,1,70
256,128,15878,1,0,0:0:0:0:
288,96,16000,1,0,0:0:0:0:
320,64,16122,1,0,0:0:0:0:
288,32,16244,1,0,0:0:0:0:
32,128,16488,2,0,L|128:120,1,70
464,64,17220,5,0,0:0:0:0:
0,64,17708,1,0,0:0:0:0:
0,64,18195,2,0,P|56:8|120:8,1,140
256,192,19171,6,0,L|320:136,1,70
344,112,19537,1,0,0:0:0:0:
384,80,19659,1,0,0:0:0:0:
296,272,19903,1,0,0:0:0:0:
160,80,20147,1,0,0:0:0:0:
48,264,20391,1,0,0:0:0:0:
16,80,20634,2,0,L|56:72|96:88,1,70
184,168,21122,1,0,0:0:0:0:
312,56,21366,1,0,0:0:0:0:
312,56,21488,1,0,0:0:0:0:
312,56,21610,1,0,0:0:0:0:
416,264,21854,5,0,0:0:0:0:
448,336,22098,2,0,P|384:328|384:312,1,70
40,88,22586,2,0,P|103:97|103:113,1,70
80,280,23073,2,0,L|128:224,1,70
152,192,23439,1,0,0:0:0:0:
184,152,23561,1,0,0:0:0:0:
408,80,23805,1,0,0:0:0:0:
480,112,24049,2,0,P|456:144|400:160,1,70
128,352,24537,1,0,0:0:0:0:
61,195,24781,1,0,0:0:0:0:
212,143,25025,1,0,0:0:0:0:
294,305,25269,1,0,0:0:0:0:
294,305,25391,1,0,0:0:0:0:
294,305,25512,1,0,0:0:0:0:
288,32,25756,1,0,0:0:0:0:
464,232,26000,2,0,P|480:152|432:120,1,140
88,32,26976,5,0,0:0:0:0:
320,104,27220,1,0,0:0:0:0:
320,104,27342,1,0,0:0:0:0:
320,104,27464,1,0,0:0:0:0:
256,312,27708,1,0,0:0:0:0:
24,240,27952,1,0,0:0:0:0:
96,56,28195,1,0,0:0:0:0:
448,80,28439,6,0,P|476:106|459:113,1,70
344,192,28927,1,0,0:0:0:0:
128,192,29171,1,0,0:0:0:0:
344,192,29415,2,0,P|381:207|386:185,1,70
448,192,29903,2,0,P|400:272|336:264,1,140
64,280,30634,5,0,0:0:0:0:
48,160,30878,1,0,0:0:0:0:
88,144,31000,1,0,0:0:0:0:
120,112,31121,1,0,0:0:0:0:
144,72,31243,1,0,0:0:0:0:
160,32,31365,1,0,0:0:0:0:
40,56,31610,2,0,L|0:56,2,35
408,40,32098,5,0,0:0:0:0:
256,120,32342,1,0,0:0:0:0:
384,232,32586,1,0,0:0:0:0:
288,312,32830,1,0,0:0:0:0:
245,318,32952,1,0,0:0:0:0:
201,307,33073,1,0,0:0:0:0:
160,286,33195,1,0,0:0:0:0:
126,259,33317,1,0,0:0:0:0:
392,288,33561,1,0,0:0:0:0:
416,240,33683,1,0,0:0:0:0:
392,192,33805,1,0,0:0:0:0:
48,296,34293,6,0,P|80:248|80:216,1,77.5
64,192,34659,1,0,0:0:0:0:
40,152,34781,1,0,0:0:0:0:
72,24,35025,1,0,0:0:0:0:
184,104,35269,1,0,0:0:0:0:
288,192,35512,1,0,0:0:0:0:
259,233,35634,1,0,0:0:0:0:
212,238,35756,1,0,0:0:0:0:
376,264,36000,1,0,0:0:0:0:
192,312,36244,6,0,P|168:344|152:328,1,70
48,232,36732,1,0,0:0:0:0:
176,176,36976,1,0,0:0:0:0:
392,288,37220,6,0,P|347:324|315:328,1,77.5
296,304,37586,1,0,0:0:0:0:
264,272,37708,1,0,0:0:0:0:
104,72,37952,1,0,0:0:0:0:
120,288,38195,2,0,P|164:336|189:332,1,70,0|0,0:3|0:3,0:3:0:0:
400,320,38683,1,0,0:0:0:0:
104,160,38927,1,0,0:0:0:0:
376,64,39171,2,0,P|331:15|306:19,1,70,0|0,0:3|0:3,0:3:0:0:
88,48,39659,1,0,0:0:0:0:
296,240,39903,1,0,0:0:0:0:
480,192,40147,2,0,P|434:239|409:234,1,70
168,280,40634,1,0,0:0:0:0:
64,192,40878,1,0,0:0:0:0:
168,104,41122,1,0,0:0:0:0:
416,40,41366,5,0,0:0:0:0:
416,40,41488,1,0,0:0:0:0:
416,40,41610,2,0,P|464:48|488:72,1,70
312,216,42098,1,0,0:0:0:0:
384,104,42342,1,0,0:0:0:0:
408,248,42586,1,0,0:0:0:0:
472,136,42830,1,0,0:0:0:0:
200,312,43073,6,0,P|159:271|152:239,1,77.5
160,224,43439,1,0,0:0:0:0:
168,184,43561,1,0,0:0:0:0:
256,184,43805,1,0,0:0:0:0:
168,184,44049,1,0,0:0:0:0:
352,184,44293,1,0,0:0:0:0:
256,104,44537,1,0,0:0:0:0:
336,296,44781,1,0,0:0:0:0:
176,296,45025,1,0,0:0:0:0:
48,40,45269,5,0,0:0:0:0:
48,40,45391,1,0,0:0:0:0:
48,40,45512,2,0,L|72:128,1,70
128,288,46000,1,0,0:0:0:0:
224,224,46244,1,0,0:0:0:0:
112,176,46488,1,0,0:0:0:0:
216,120,46732,1,0,0:0:0:0:
440,64,46976,2,0,P|416:144|360:184,1,140
168,40,47708,1,0,0:0:0:0:
376,176,47952,1,0,0:0:0:0:
224,80,48195,1,0,0:0:0:0:
440,216,48439,1,0,0:0:0:0:
280,120,48683,1,0,0:0:0:0:
192,208,48927,1,0,0:0:0:0:
168,248,49049,1,0,0:0:0:0:
144,288,49171,1,0,0:0:0:0:
120,328,49293,1,0,0:0:0:0:
88,360,49415,2,0,P|48:360|48:328,1,70
360,240,49902,6,0,P|416:224|448:176,1,105.000004005432
288,32,50634,1,0,0:0:0:0:
136,104,50878,2,0,P|104:128|96:144,1,52.5000020027161
408,344,51366,2,0,P|384:304|368:296,1,52.5000020027161
104,344,51854,2,0,P|128:304|144:296,1,52.5000020027161
24,160,52342,2,0,P|88:80|104:72,1,105.000004005432
368,152,53073,1,0,0:0:0:0:
80,24,53317,2,0,P|176:40|184:48,1,105.000004005432
216,304,54049,1,0,0:0:0:0:
96,144,54293,2,0,P|64:120|56:104,1,52.5000020027161
160,248,54781,1,0,0:0:0:0:
256,192,55025,1,0,0:0:0:0:
160,128,55269,1,0,0:0:0:0:
160,248,55512,1,0,0:0:0:0:
440,152,55756,2,0,P|470:249|464:264,1,105.000004005432
256,128,56488,5,0,0:0:0:0:
176,128,56732,1,0,0:0:0:0:
336,128,56976,1,0,0:0:0:0:
176,208,57220,1,0,0:0:0:0:
336,208,57464,1,0,0:0:0:0:
72,128,57708,2,0,L|136:96,1,70
460,44,58195,2,0,L|504:-4,2,35
367,172,58683,1,0,0:0:0:0:
236,80,58927,1,0,0:0:0:0:
144,211,59171,1,0,0:0:0:0:
276,304,59415,1,0,0:0:0:0:
416,122,59659,2,0,L|360:178,1,70
96,344,60147,6,0,L|48:384,2,35
312,160,60634,1,0,0:0:0:0:
392,264,60878,1,0,0:0:0:0:
312,352,61122,1,0,0:0:0:0:
464,264,61366,1,0,0:0:0:0:
288,264,61610,2,0,L|200:264,1,70
218,264,62098,5,0,0:0:0:0:
24,208,62342,2,0,P|64:192|96:168,1,70
120,144,62708,1,0,0:0:0:0:
152,104,62830,1,0,0:0:0:0:
176,64,62952,1,0,0:0:0:0:
192,16,63073,1,0,0:0:0:0:
400,80,63317,1,0,0:0:0:0:
432,216,63561,1,0,0:0:0:0:
328,304,63805,1,0,0:0:0:0:
176,280,64049,1,0,0:0:0:0:
144,248,64171,1,0,0:0:0:0:
120,208,64293,1,0,0:0:0:0:
104,168,64415,1,0,0:0:0:0:
96,128,64537,1,0,0:0:0:0:
104,88,64659,1,0,0:0:0:0:
120,48,64781,1,0,0:0:0:0:
216,312,65025,1,0,0:0:0:0:
384,80,65269,5,0,0:0:0:0:
160,344,65512,2,0,P|240:360|280:344,1,105.000004005432
432,168,66244,1,0,0:0:0:0:
272,168,66488,6,0,L|195:171,1,52.5000020027161
432,168,66976,1,0,0:0:0:0:
272,168,67220,1,0,0:0:0:0:
16,80,67463,2,0,B|48:48|72:32|112:40,1,105.000004005432
128,192,68195,1,0,0:0:0:0:
368,312,68439,2,0,L|424:352,2,52.5000020027161
208,176,69171,1,0,0:0:0:0:
208,24,69415,2,0,P|112:48|104:64,1,105.000004005432
240,192,70147,1,0,0:0:0:0:
72,256,70391,2,0,L|16:208,1,52.5000020027161
248,256,70878,2,0,L|304:208,1,52.5000020027161
104,112,71366,2,0,L|56:64,2,52.5000020027161
24,344,72342,6,0,L|24:256,1,70
128,160,72830,1,0,0:0:0:0:
192,312,73073,1,0,0:0:0:0:
400,48,73317,2,0,L|456:120,1,70
200,240,73805,6,0,L|152:272,2,35
312,24,74293,1,0,0:0:0:0:
400,120,74537,1,0,0:0:0:0:
256,144,74781,1,0,0:0:0:0:
312,24,75025,1,0,0:0:0:0:
456,184,75269,2,0,L|440:256,1,70
136,296,75756,2,0,L|96:296,2,35
320,328,76244,6,0,L|384:296,1,70
480,248,76732,1,0,0:0:0:0:
368,192,76976,1,0,0:0:0:0:
184,48,77220,2,0,P|264:80|264:128,1,140
32,160,77952,6,0,L|120:160,1,70
472,160,78439,1,0,0:0:0:0:
472,160,78561,1,0,0:0:0:0:
472,160,78683,1,0,0:0:0:0:
256,320,78927,1,0,0:0:0:0:
120,192,79171,1,0,0:0:0:0:
256,192,79415,1,0,0:0:0:0:
128,64,79659,1,0,0:0:0:0:
160,96,79781,1,0,0:0:0:0:
192,128,79903,1,0,0:0:0:0:
224,160,80025,1,0,0:0:0:0:
248,192,80147,1,0,0:0:0:0:
272,232,80269,1,0,0:0:0:0:
248,272,80390,1,0,0:0:0:0:
208,296,80512,1,0,0:0:0:0:
152,296,80634,1,0,0:0:0:0:
64,144,80878,6,0,L|88:112,1,35
192,64,81122,2,0,L|280:56,1,70
336,168,81610,2,0,L|376:136,1,35
360,240,81854,2,0,L|440:184,1,70
456,208,82220,1,0,0:0:0:0:
448,248,82342,1,0,0:0:0:0:
424,288,82464,1,0,0:0:0:0:
392,312,82586,1,0,0:0:0:0:
224,320,82830,2,0,L|264:288,1,35
120,272,83073,2,0,L|160:240,1,35
16,224,83317,2,0,L|56:192,2,35
128,48,83805,1,0,0:0:0:0:
296,48,84049,1,0,0:0:0:0:
240,192,84293,2,0,L|296:192,1,35
344,344,84537,2,0,L|392:344,1,35
432,184,84781,2,0,L|472:184,2,35
160,120,85269,5,0,0:0:0:0:
160,296,85512,1,0,0:0:0:0:
408,168,85756,2,0,L|336:240,1,70
328,248,86122,1,0,0:0:0:0:
288,240,86244,1,0,0:0:0:0:
256,216,86366,1,0,0:0:0:0:
232,184,86488,1,0,0:0:0:0:
192,56,86732,1,0,0:0:0:0:
232,184,86976,1,0,0:0:0:0:
96,184,87220,1,0,0:0:0:0:
352,32,87464,1,0,0:0:0:0:
384,56,87586,1,0,0:0:0:0:
408,88,87708,1,0,0:0:0:0:
432,120,87830,1,0,0:0:0:0:
448,160,87952,1,0,0:0:0:0:
256,40,88195,1,0,0:0:0:0:
288,80,88317,1,0,0:0:0:0:
320,120,88439,1,0,0:0:0:0:
96,144,88683,6,0,L|64:168,1,35
160,32,88927,2,0,L|120:64,1,35
288,56,89171,2,0,L|320:24,1,35
320,160,89415,2,0,L|360:120,1,35
320,272,89659,2,0,L|360:232,1,35
104,336,89903,2,0,L|64:368,2,35
192,360,90269,2,0,L|240:328,1,35
192,192,90634,6,0,L|240:160,1,35
328,192,90878,2,0,L|368:160,1,35
320,88,91122,2,0,L|360:64,1,35
192,96,91366,2,0,L|232:64,1,35
64,176,91610,2,0,L|64:136,1,35
128,256,91854,2,0,L|192:256,1,35
219,74,92098,1,0,0:0:0:0:
384,72,92342,1,0,0:0:0:0:
296,232,92586,6,0,L|240:264,1,35
384,272,92830,2,0,L|392:328,1,35
384,184,93073,2,0,L|416:144,1,35
272,112,93317,2,0,L|232:88,1,35
144,144,93561,2,0,L|96:144,1,35
40,200,93805,2,0,L|8:240,2,35
88,264,94171,2,0,L|48:320,1,35
224,200,94537,6,0,L|312:200,1,70
176,272,95025,2,0,L|264:272,1,70
280,248,95391,1,0,0:0:0:0:
320,224,95512,1,0,0:0:0:0:
360,248,95634,1,0,0:0:0:0:
392,280,95756,1,0,0:0:0:0:
432,88,96000,1,0,0:0:0:0:
400,112,96122,1,0,0:0:0:0:
368,136,96244,1,0,0:0:0:0:
112,288,96488,2,0,L|64:320,2,35
64,56,96976,1,0,0:0:0:0:
192,160,97220,1,0,0:0:0:0:
224,184,97342,1,0,0:0:0:0:
256,208,97464,1,0,0:0:0:0:
280,240,97586,1,0,0:0:0:0:
272,272,97708,1,0,0:0:0:0:
264,304,97830,1,0,0:0:0:0:
256,336,97952,2,0,P|304:336|320:320,1,70
344,144,98439,6,0,L|360:112,1,35
352,216,98683,2,0,L|392:240,1,35
184,264,98927,2,0,L|184:224,1,35
168,80,99171,2,0,L|88:80,1,70
80,104,99537,1,0,0:0:0:0:
64,128,99659,1,0,0:0:0:0:
48,160,99781,1,0,0:0:0:0:
96,168,99903,1,0,0:0:0:0:
128,200,100025,1,0,0:0:0:0:
160,232,100147,1,0,0:0:0:0:
456,192,100391,5,0,0:0:0:0:
456,192,100512,1,0,0:0:0:0:
456,192,100634,1,0,0:0:0:0:
248,40,100878,1,0,0:0:0:0:
248,40,101000,1,0,0:0:0:0:
248,40,101122,1,0,0:0:0:0:
248,344,101366,1,0,0:0:0:0:
248,344,101488,1,0,0:0:0:0:
248,344,101610,1,0,0:0:0:0:
168,192,101854,2,0,L|80:192,1,70
98,192,102220,1,0,0:0:0:0:
98,192,102342,1,0,0:0:0:0:
392,304,102586,6,0,L|424:232,1,70
120,80,103073,2,0,L|88:152,1,70
80,184,103439,1,0,0:0:0:0:
64,224,103561,1,0,0:0:0:0:
328,344,103805,2,0,L|376:384,2,35
280,104,104293,1,0,0:0:0:0:
280,144,104415,1,0,0:0:0:0:
280,184,104537,1,0,0:0:0:0:
104,336,104781,6,0,P|160:336|184:320,1,70
200,304,105147,1,0,0:0:0:0:
224,272,105269,1,0,0:0:0:0:
200,240,105391,1,0,0:0:0:0:
224,208,105512,1,0,0:0:0:0:
200,168,105634,1,0,0:0:0:0:
224,136,105756,1,0,0:0:0:0:
200,104,105878,1,0,0:0:0:0:
224,72,106000,1,0,0:0:0:0:
56,160,106244,6,0,L|136:136,1,70
152,216,106732,2,0,L|72:240,1,70
104,320,107220,1,0,0:0:0:0:
144,304,107342,1,0,0:0:0:0:
176,336,107464,1,0,0:0:0:0:
208,304,107586,1,0,0:0:0:0:
232,336,107708,2,0,L|280:336,2,35
336,144,108195,6,0,L|416:96,1,70
392,192,108683,2,0,L|472:144,1,70
392,64,109171,1,0,0:0:0:0:
422,91,109293,1,0,0:0:0:0:
448,125,109415,1,0,0:0:0:0:
463,162,109537,1,0,0:0:0:0:
467,202,109659,1,0,0:0:0:0:
460,245,109781,1,0,0:0:0:0:
426,271,109903,2,0,L|358:253,1,70
112,72,110391,5,0,0:0:0:0:
112,72,110512,1,0,0:0:0:0:
240,240,110756,1,0,0:0:0:0:
240,240,110878,1,0,0:0:0:0:
256,32,111122,1,0,0:0:0:0:
88,224,111366,2,0,L|168:184,1,70
150,192,111732,1,0,0:0:0:0:
150,192,111854,1,0,0:0:0:0:
380,131,112098,1,0,0:0:0:0:
336,272,112342,6,0,P|376:240|376:208,1,70
376,184,112708,1,0,0:0:0:0:
352,144,112830,1,0,0:0:0:0:
152,32,113073,1,0,0:0:0:0:
176,272,113317,2,0,P|136:240|136:208,1,70
128,184,113683,1,0,0:0:0:0:
152,144,113805,1,0,0:0:0:0:
360,32,114049,1,0,0:0:0:0:
392,280,114293,2,0,L|392:200,1,70
152,192,114781,1,0,0:0:0:0:
264,328,115025,1,0,0:0:0:0:
112,328,115269,2,0,L|64:264,1,70
48,240,115634,1,0,0:0:0:0:
24,208,115756,1,0,0:0:0:0:
352,40,116000,6,0,L|331:116,1,70
440,56,116488,1,0,0:0:0:0:
416,152,116732,1,0,0:0:0:0:
168,336,116976,2,0,L|189:260,1,70
80,320,117464,1,0,0:0:0:0:
112,232,117708,1,0,0:0:0:0:
277,131,117952,2,0,L|299:55,1,70
384,80,118440,1,0,0:0:0:0:
352,168,118684,1,0,0:0:0:0:
384,80,118927,1,0,0:0:0:0:
88,136,119171,2,0,L|168:80,1,70
184,72,119537,1,0,0:0:0:0:
216,48,119659,1,0,0:0:0:0:
392,312,119903,6,0,L|320:248,1,70
304,360,120391,1,0,0:0:0:0:
256,280,120634,1,0,0:0:0:0:
208,360,120878,1,0,0:0:0:0:
96,216,121122,2,0,L|168:272,1,70
151,258,121488,1,0,0:0:0:0:
151,258,121610,1,0,0:0:0:0:
352,192,121854,5,0,0:0:0:0:
144,192,122098,1,0,0:0:0:0:
352,192,122342,1,0,0:0:0:0:
144,192,122586,1,0,0:0:0:0:
56,96,122830,1,0,0:0:0:0:
32,232,123073,2,0,L|112:208,1,70
104,288,123439,2,0,L|144:272,1,35
376,232,123805,6,0,L|424:208,2,35
192,336,124293,1,0,0:0:0:0:
40,112,124537,2,0,L|40:32,1,70
160,120,125025,1,0,0:0:0:0:
296,120,125269,1,0,0:0:0:0:
96,224,125512,2,0,L|176:280,1,70
416,224,126000,1,0,0:0:0:0:
320,352,126244,1,0,0:0:0:0:
192,256,126488,1,0,0:0:0:0:
128,128,126732,1,0,0:0:0:0:
256,192,126976,1,0,0:0:0:0:
280,152,127098,1,0,0:0:0:0:
312,112,127220,1,0,0:0:0:0:
352,96,127342,1,0,0:0:0:0:
392,120,127463,2,0,P|386:165|344:160,1,70
424,192,127951,6,0,P|424:248|368:248,1,105.000004005432
448,320,128683,1,0,0:0:0:0:
296,320,128927,2,0,L|224:320,1,52.5000020027161
176,104,129415,1,0,0:0:0:0:
320,104,129659,1,0,0:0:0:0:
432,192,129903,2,0,L|392:256,1,52.5000020027161
72,64,130391,2,0,P|135:88|160:136,1,105.000004005432
80,144,131122,1,0,0:0:0:0:
88,240,131366,6,0,L|160:216,1,52.5000020027161
432,120,131854,1,0,0:0:0:0:
400,248,132098,1,0,0:0:0:0:
432,120,132342,1,0,0:0:0:0:
304,176,132586,1,0,0:0:0:0:
112,248,132830,2,0,L|152:184,1,52.5000020027161
32,216,133317,1,0,0:0:0:0:
192,288,133561,1,0,0:0:0:0:
448,184,133805,2,0,P|384:104|368:104,1,105.000004005432
240,272,134537,1,0,0:0:0:0:
64,200,134781,5,0,0:0:0:0:
64,200,135025,1,0,0:0:0:0:
256,64,135269,1,0,0:0:0:0:
256,64,135512,1,0,0:0:0:0:
376,136,135756,2,0,L|456:136,1,70
160,304,136244,2,0,L|208:296,2,35
32,192,136732,2,0,P|64:160|112:160,1,70
368,288,137220,2,0,P|336:320|288:320,1,70
296,248,137708,2,0,L|376:208,1,70
48,184,138195,2,0,L|112:184,2,35
16,88,138683,5,0,0:0:0:0:
136,88,138927,1,0,0:0:0:0:
136,192,139171,1,0,0:0:0:0:
256,192,139415,1,0,0:0:0:0:
16,288,139659,2,0,L|160:288,1,140
445,298,140391,2,0,P|409:242|442:184,1,140
256,328,141366,5,0,0:0:0:0:
296,128,141610,1,0,0:0:0:0:
296,128,141854,1,0,0:0:0:0:
96,136,142098,1,0,0:0:0:0:
120,168,142220,1,0,0:0:0:0:
152,200,142342,1,0,0:0:0:0:
184,224,142463,1,0,0:0:0:0:
224,240,142586,1,0,0:0:0:0:
264,240,142707,1,0,0:0:0:0:
304,232,142830,1,0,0:0:0:0:
344,216,142952,1,0,0:0:0:0:
376,192,143073,1,0,0:0:0:0:
328,328,143317,1,0,0:0:0:0:
176,48,143561,6,0,P|243:31|280:56,1,105.000004005432
312,168,144293,1,0,0:0:0:0:
392,168,144537,1,0,0:0:0:0:
232,168,144781,1,0,0:0:0:0:
472,168,145025,1,0,0:0:0:0:
152,168,145269,1,0,0:0:0:0:
168,296,145512,2,0,L|208:232,1,52.5000020027161
472,256,146000,2,0,P|419:298|360:296,1,105.000004005432
16,152,146732,5,0,0:0:0:0:
72,72,146976,1,0,0:0:0:0:
168,64,147220,1,0,0:0:0:0:
72,208,147464,2,0,P|150:141|160:144,1,105.000004005432
152,224,148195,1,0,0:0:0:0:
384,128,148439,2,0,L|440:80,1,52.5000020027161
456,192,148927,2,0,L|400:232,1,52.5000020027161
168,144,149415,1,0,0:0:0:0:
32,224,149659,2,0,L|64:160,1,52.5000020027161
176,104,150147,1,0,0:0:0:0:
120,312,150391,1,0,0:0:0:0:
120,312,150634,1,0,0:0:0:0:
384,208,150878,1,0,0:0:0:0:
384,208,151122,1,0,0:0:0:0:
144,96,151366,2,0,L|240:72,1,70
416,56,151854,2,0,L|464:16,2,35
304,304,152342,5,0,0:0:0:0:
304,304,152586,1,0,0:0:0:0:
128,176,152830,1,0,0:0:0:0:
128,176,153073,1,0,0:0:0:0:
320,80,153317,2,0,L|224:104,1,70
32,104,153805,2,0,L|-24:72,2,35
88,296,154293,6,0,P|120:328|168:328,1,70
376,152,154781,1,0,0:0:0:0:
376,152,155025,1,0,0:0:0:0:
240,296,155269,2,0,L|384:272,1,140
64,56,156000,2,0,L|136:48,1,70
168,80,156366,1,0,0:0:0:0:
152,120,156488,1,0,0:0:0:0:
120,152,156610,1,0,0:0:0:0:
104,112,156732,1,0,0:0:0:0:
256,192,156976,1,0,0:0:0:0:
256,192,157220,1,0,0:0:0:0:
256,328,157464,5,0,0:0:0:0:
256,40,157708,1,0,0:0:0:0:
256,40,157829,1,0,0:0:0:0:
256,40,157952,1,0,0:0:0:0:
256,64,158073,1,0,0:0:0:0:
256,104,158195,5,0,0:0:0:0:
256,152,158317,5,0,0:0:0:0:
256,208,158439,5,0,0:0:0:0:
256,272,158561,5,0,0:0:0:0:
256,344,158683,5,0,0:0:0:0:
256,192,159171,12,0,160878,0:0:0:0:
248,152,167708,5,0,0:0:0:0:
160,96,167952,1,0,0:0:0:0:
352,160,168195,1,0,0:0:0:0:
304,304,168439,1,0,0:0:0:0:
144,264,168683,2,0,P|176:208|224:184,1,105.000004005432
232,280,169415,5,0,0:0:0:0:
328,228,169659,1,0,0:0:0:0:
248,156,169903,1,0,0:0:0:0:
324,76,170147,1,0,0:0:0:0:
404,156,170391,1,0,0:0:0:0:
248,280,170634,2,0,P|288:232|272:184,1,105.000004005432
384,312,171366,5,0,0:0:0:0:
384,160,171610,1,0,0:0:0:0:
256,96,171854,1,0,0:0:0:0:
128,160,172098,1,0,0:0:0:0:
128,304,172342,1,0,0:0:0:0:
256,200,172586,2,0,L|328:192,2,52.5000020027161
408,352,173317,1,0,0:0:0:0:
408,48,173561,1,0,0:0:0:0:
224,32,173805,1,0,0:0:0:0:
224,32,173927,1,0,0:0:0:0:
224,32,174049,2,0,L|184:64,1,35
104,128,174537,6,0,L|136:104,1,35
32,224,174781,2,0,L|128:208,1,70
304,272,175269,2,0,L|264:288,1,35
352,32,175512,2,0,L|392:16,1,35
120,80,175756,1,0,0:0:0:0:
104,120,175878,1,0,0:0:0:0:
88,160,176000,1,0,0:0:0:0:
72,200,176122,1,0,0:0:0:0:
56,240,176244,1,0,0:0:0:0:
168,192,176488,6,0,L|216:176,1,35
456,232,176732,2,0,L|408:208,1,35
256,240,176976,2,0,L|296:224,1,35
424,136,177220,2,0,L|360:112,1,35
136,280,177464,2,0,L|184:296,1,35
80,176,177708,2,0,L|160:136,1,70
152,64,178195,1,0,0:0:0:0:
352,336,178439,5,0,0:0:0:0:
320,272,178561,1,0,0:0:0:0:
296,200,178683,2,0,L|384:184,1,70
80,112,179171,2,0,L|168:96,1,70
440,136,179659,1,0,0:0:0:0:
408,96,179781,1,0,0:0:0:0:
376,56,179903,1,0,0:0:0:0:
344,96,180025,1,0,0:0:0:0:
320,144,180147,1,0,0:0:0:0:
288,328,180391,6,0,L|248:248,1,70
160,80,180878,1,0,0:0:0:0:
248,232,181122,1,0,0:0:0:0:
248,184,181244,1,0,0:0:0:0:
248,136,181366,1,0,0:0:0:0:
248,88,181488,1,0,0:0:0:0:
248,40,181610,1,0,0:0:0:0:
176,40,181732,1,0,0:0:0:0:
176,88,181854,1,0,0:0:0:0:
176,136,181976,1,0,0:0:0:0:
176,184,182098,1,0,0:0:0:0:
200,248,182342,6,0,L|232:224,1,35
48,232,182586,2,0,L|128:192,1,70
376,104,183073,1,0,0:0:0:0:
112,320,183317,1,0,0:0:0:0:
152,280,183439,1,0,0:0:0:0:
184,240,183561,1,0,0:0:0:0:
216,200,183683,1,0,0:0:0:0:
248,160,183805,1,0,0:0:0:0:
280,120,183927,1,0,0:0:0:0:
312,80,184049,1,0,0:0:0:0:
104,176,184293,2,0,P|48:208|48:216,1,70
72,240,184658,1,0,0:0:0:0:
112,248,184780,1,0,0:0:0:0:
432,304,185025,1,0,0:0:0:0:
368,168,185269,5,0,0:0:0:0:
408,104,185391,1,0,0:0:0:0:
400,32,185512,2,0,P|352:32|336:56,1,70
256,248,186000,5,0,0:0:0:0:
112,48,186244,1,0,0:0:0:0:
24,296,186488,2,0,L|72:224,1,70
248,48,186976,1,0,0:0:0:0:
368,184,187220,1,0,0:0:0:0:
336,208,187342,1,0,0:0:0:0:
368,232,187464,1,0,0:0:0:0:
320,248,187586,1,0,0:0:0:0:
360,272,187708,1,0,0:0:0:0:
312,288,187830,1,0,0:0:0:0:
352,312,187952,1,0,0:0:0:0:
448,120,188195,6,0,L|448:216,1,70
184,64,188683,1,0,0:0:0:0:
176,336,188927,1,0,0:0:0:0:
208,296,189049,1,0,0:0:0:0:
240,256,189171,1,0,0:0:0:0:
272,216,189293,1,0,0:0:0:0:
312,176,189415,1,0,0:0:0:0:
344,152,189537,1,0,0:0:0:0:
384,136,189659,1,0,0:0:0:0:
424,136,189781,1,0,0:0:0:0:
464,144,189903,1,0,0:0:0:0:
48,48,190147,6,0,P|96:48|80:72,1,70
