osu file format v14

[General]
AudioFilename: Love Options - BESTie.mp3
AudioLeadIn: 0
PreviewTime: -1
Countdown: 1
SampleSet: None
StackLeniency: 0.7
Mode: 0
LetterboxInBreaks: 1
WidescreenStoryboard: 1

[Editor]
Bookmarks: 37098,62342
DistanceSpacing: 1.2
BeatDivisor: 4
GridSize: 8
TimelineZoom: 1.7

[Metadata]
Title:Love Options
TitleUnicode:Love Options
Artist:BESTie
ArtistUnicode:BESTie
Creator:Bubba
Version:????
Source:
Tags:BESTie Love Options K-pop
BeatmapID:1549537
BeatmapSetID:734384

[Difficulty]
HPDrainRate:7
CircleSize:4
OverallDifficulty:8
ApproachRate:8
SliderMultiplier:1.4
SliderTickRate:1

[Events]
//Background and Video events
0,0,"bg.png",0,0
//Break Periods
2,160103,166732
//Storyboard Layer 0 (Background)
//Storyboard Layer 1 (Fail)
//Storyboard Layer 2 (Pass)
//Storyboard Layer 3 (Foreground)
//Storyboard Sound Samples

[TimingPoints]
10878.8437780101,487.80487804878,4,1,0,100,1,0
49903,-100,4,1,0,100,0,0
80878,-100,4,1,0,100,0,1
96488,-100,4,1,0,100,0,0
127952,-100,4,1,0,100,0,0
174537,-100,4,1,0,100,0,1
190391,-100,4,1,0,100,0,0

[HitObjects]
256,64,10878,6,0,P|368:96|368:104,1,140
96,320,11854,1,0,0:0:0:0:
416,64,12342,1,0,0:0:0:0:
416,320,12830,1,0,0:0:0:0:
96,64,13317,1,0,0:0:0:0:
448,192,13805,1,0,0:0:0:0:
64,192,14293,1,0,0:0:0:0:
256,320,14781,6,0,P|144:288|144:280,1,140
448,192,15756,1,0,0:0:0:0:
64,192,16244,1,0,0:0:0:0:
448,192,16732,1,0,0:0:0:0:
256,192,17220,1,0,0:0:0:0:
0,64,17708,1,0,0:0:0:0:
0,64,18195,2,0,P|56:8|120:8,1,140
256,192,19171,6,0,L|320:136,1,70
336,120,19537,1,0,0:0:0:0:
368,96,19659,1,0,0:0:0:0:
328,256,19903,1,0,0:0:0:0:
184,128,20147,1,0,0:0:0:0:
184,256,20391,1,0,0:0:0:0:
16,80,20634,2,0,L|56:72|96:64,1,70
200,256,21122,1,0,0:0:0:0:
312,56,21366,1,0,0:0:0:0:
312,56,21488,1,0,0:0:0:0:
312,56,21610,1,0,0:0:0:0:
80,56,21854,1,0,0:0:0:0:
168,312,22098,6,0,P|80:296|88:272,1,140
192,112,22830,1,0,0:0:0:0:
288,248,23073,1,0,0:0:0:0:
384,112,23317,1,0,0:0:0:0:
384,112,23439,1,0,0:0:0:0:
384,112,23561,2,0,P|424:144|424:176,1,70
424,344,24049,5,0,0:0:0:0:
216,264,24293,1,0,0:0:0:0:
136,232,24537,1,0,0:0:0:0:
136,152,24781,1,0,0:0:0:0:
216,120,25025,1,0,0:0:0:0:
320,280,25269,1,0,0:0:0:0:
320,280,25391,1,0,0:0:0:0:
320,280,25512,1,0,0:0:0:0:
296,120,25756,1,0,0:0:0:0:
464,232,26000,2,0,P|480:152|432:120,1,140
96,48,26976,5,0,0:0:0:0:
288,112,27220,1,0,0:0:0:0:
288,112,27342,1,0,0:0:0:0:
288,112,27464,1,0,0:0:0:0:
216,280,27708,1,0,0:0:0:0:
48,280,27952,1,0,0:0:0:0:
48,80,28195,1,0,0:0:0:0:
216,80,28439,6,0,P|240:48|256:64,1,70
368,192,28927,1,0,0:0:0:0:
216,192,29171,1,0,0:0:0:0:
440,64,29415,2,0,P|464:96|480:80,1,70
408,208,29903,2,0,P|360:288|312:272,1,140
64,280,30634,5,0,0:0:0:0:
48,160,30878,1,0,0:0:0:0:
72,160,31000,1,0,0:0:0:0:
96,160,31121,1,0,0:0:0:0:
120,160,31243,1,0,0:0:0:0:
144,160,31365,1,0,0:0:0:0:
96,72,31610,2,0,L|56:72,2,35
416,80,32098,5,0,0:0:0:0:
336,152,32342,1,0,0:0:0:0:
416,224,32586,1,0,0:0:0:0:
288,320,32830,1,0,0:0:0:0:
264,320,32952,1,0,0:0:0:0:
240,320,33073,1,0,0:0:0:0:
216,320,33195,1,0,0:0:0:0:
192,320,33317,1,0,0:0:0:0:
368,288,33561,1,0,0:0:0:0:
368,264,33683,1,0,0:0:0:0:
368,240,33805,1,0,0:0:0:0:
72,288,34293,6,0,P|104:240|104:208,1,77.5
96,192,34659,1,0,0:0:0:0:
80,152,34781,1,0,0:0:0:0:
48,56,35025,1,0,0:0:0:0:
184,56,35269,1,0,0:0:0:0:
256,152,35512,1,0,0:0:0:0:
256,192,35634,1,0,0:0:0:0:
256,232,35756,1,0,0:0:0:0:
392,152,36000,1,0,0:0:0:0:
168,304,36244,6,0,P|144:336|128:320,1,70
48,232,36732,1,0,0:0:0:0:
168,208,36976,1,0,0:0:0:0:
392,288,37220,6,0,P|347:324|315:328,1,77.5
296,312,37586,1,0,0:0:0:0:
264,280,37708,1,0,0:0:0:0:
120,120,37952,1,0,0:0:0:0:
120,288,38195,2,0,P|164:336|189:332,1,70,0|0,0:3|0:3,0:3:0:0:
328,328,38683,1,0,0:0:0:0:
328,120,38927,1,0,0:0:0:0:
392,96,39171,2,0,P|347:47|322:51,1,70,0|0,0:3|0:3,0:3:0:0:
200,248,39659,1,0,0:0:0:0:
288,160,39903,1,0,0:0:0:0:
480,192,40147,2,0,P|434:239|409:234,1,70
168,240,40634,1,0,0:0:0:0:
88,192,40878,1,0,0:0:0:0:
168,144,41122,1,0,0:0:0:0:
360,48,41366,5,0,0:0:0:0:
360,48,41488,1,0,0:0:0:0:
360,48,41610,2,0,P|408:56|432:80,1,70
432,176,42098,1,0,0:0:0:0:
328,176,42342,1,0,0:0:0:0:
328,280,42586,1,0,0:0:0:0:
432,280,42830,1,0,0:0:0:0:
120,280,43073,6,0,P|79:239|72:207,1,77.5
80,192,43439,1,0,0:0:0:0:
88,152,43561,1,0,0:0:0:0:
256,192,43805,1,0,0:0:0:0:
160,192,44049,1,0,0:0:0:0:
352,192,44293,1,0,0:0:0:0:
256,104,44537,1,0,0:0:0:0:
176,296,44781,1,0,0:0:0:0:
336,296,45025,1,0,0:0:0:0:
72,56,45269,5,0,0:0:0:0:
72,56,45391,1,0,0:0:0:0:
72,56,45512,2,0,L|80:152,1,70
128,288,46000,1,0,0:0:0:0:
208,216,46244,1,0,0:0:0:0:
104,192,46488,1,0,0:0:0:0:
176,120,46732,1,0,0:0:0:0:
440,64,46976,2,0,P|416:144|360:184,1,140
168,40,47708,1,0,0:0:0:0:
376,176,47952,1,0,0:0:0:0:
224,80,48195,1,0,0:0:0:0:
440,216,48439,1,0,0:0:0:0:
280,120,48683,1,0,0:0:0:0:
224,216,48927,1,0,0:0:0:0:
200,248,49049,1,0,0:0:0:0:
176,280,49171,1,0,0:0:0:0:
152,312,49293,1,0,0:0:0:0:
120,344,49415,2,0,P|81:377|110:336,1,140
424,48,50391,6,0,L|464:112,1,70
88,48,50878,2,0,L|48:112,1,70
400,344,51366,2,0,L|344:264,1,70
112,344,51854,2,0,L|168:264,1,70
24,160,52342,2,0,P|88:80|152:80,1,140
368,152,53073,1,0,0:0:0:0:
80,24,53317,2,0,P|176:40|224:64,1,140
216,304,54049,1,0,0:0:0:0:
80,152,54293,2,0,L|24:72,1,70
160,248,54781,1,0,0:0:0:0:
256,192,55025,1,0,0:0:0:0:
160,128,55269,1,0,0:0:0:0:
160,248,55512,1,0,0:0:0:0:
440,152,55756,2,0,P|470:249|434:302,1,140
256,128,56488,5,0,0:0:0:0:
168,128,56732,1,0,0:0:0:0:
344,128,56976,1,0,0:0:0:0:
168,208,57220,1,0,0:0:0:0:
344,208,57464,1,0,0:0:0:0:
72,128,57708,2,0,L|136:96,1,70
460,44,58195,2,0,L|504:-4,2,35
367,172,58683,1,0,0:0:0:0:
236,80,58927,1,0,0:0:0:0:
144,211,59171,1,0,0:0:0:0:
276,304,59415,1,0,0:0:0:0:
376,136,59659,2,0,L|320:192,1,70
96,344,60147,6,0,L|48:384,2,35
288,160,60634,1,0,0:0:0:0:
368,264,60878,1,0,0:0:0:0:
288,352,61122,1,0,0:0:0:0:
440,264,61366,1,0,0:0:0:0:
288,264,61610,2,0,L|200:264,1,70
218,264,62098,1,0,0:0:0:0:
48,144,62342,2,0,P|53:59|115:42,1,140
416,128,63317,1,0,0:0:0:0:
392,256,63561,1,0,0:0:0:0:
280,320,63805,1,0,0:0:0:0:
192,40,64049,1,0,0:0:0:0:
192,72,64171,1,0,0:0:0:0:
192,104,64293,1,0,0:0:0:0:
192,136,64415,1,0,0:0:0:0:
192,168,64537,1,0,0:0:0:0:
80,136,64781,1,0,0:0:0:0:
80,136,64903,1,0,0:0:0:0:
80,136,65025,1,0,0:0:0:0:
384,80,65269,5,0,0:0:0:0:
128,304,65512,2,0,P|208:320|288:296,1,140
128,224,66244,1,0,0:0:0:0:
224,232,66488,6,0,L|320:216,1,70
128,144,66976,1,0,0:0:0:0:
224,144,67220,1,0,0:0:0:0:
64,88,67464,2,0,P|160:56|224:80,1,140
304,168,68195,1,0,0:0:0:0:
360,304,68439,2,0,L|424:352,2,70
208,176,69171,1,0,0:0:0:0:
208,24,69415,2,0,P|112:48|80:104,1,140
248,264,70147,1,0,0:0:0:0:
48,264,70391,2,0,L|48:184,1,70
184,360,70878,2,0,L|263:358,1,70
280,160,71366,2,0,L|344:96,2,70
392,328,72342,6,0,L|392:240,1,70
304,256,72830,1,0,0:0:0:0:
304,336,73073,1,0,0:0:0:0:
400,48,73317,2,0,L|456:120,1,70
200,240,73805,6,0,L|152:272,2,35
312,24,74293,1,0,0:0:0:0:
400,104,74537,1,0,0:0:0:0:
328,184,74781,1,0,0:0:0:0:
240,112,75025,1,0,0:0:0:0:
456,184,75269,2,0,L|440:256,1,70
136,296,75756,2,0,L|96:296,2,35
320,328,76244,6,0,L|384:296,1,70
456,256,76732,1,0,0:0:0:0:
384,208,76976,1,0,0:0:0:0:
192,32,77220,2,0,L|312:150,1,140
352,72,77952,2,0,P|419:140|402:185,1,140,0|0,2:0|2:0,2:0:0:0:
410,172,78561,1,0,0:0:0:0:
416,176,78683,1,0,0:0:0:0:
256,296,78927,1,0,0:0:0:0:
120,200,79171,1,0,0:0:0:0:
256,192,79415,1,0,0:0:0:0:
160,64,79659,1,0,0:0:0:0:
184,96,79781,1,0,0:0:0:0:
208,128,79903,1,0,0:0:0:0:
232,160,80025,1,0,0:0:0:0:
256,192,80147,1,0,0:0:0:0:
352,88,80391,2,0,L|392:56,2,35
208,272,80878,5,0,0:0:0:0:
96,304,81122,1,0,0:0:0:0:
64,192,81366,1,0,0:0:0:0:
96,80,81610,1,0,0:0:0:0:
192,176,81854,2,0,L|280:144,1,70
296,136,82220,1,0,0:0:0:0:
336,120,82342,1,0,0:0:0:0:
376,104,82464,1,0,0:0:0:0:
416,88,82586,1,0,0:0:0:0:
232,296,82830,2,0,L|272:272,1,35
136,248,83073,2,0,L|176:224,1,35
40,192,83317,2,0,L|80:168,2,35
96,80,83805,1,0,0:0:0:0:
224,64,84049,1,0,0:0:0:0:
240,192,84293,2,0,L|296:192,1,35
344,344,84537,2,0,L|392:344,1,35
432,184,84781,2,0,L|472:184,2,35
160,120,85269,5,0,0:0:0:0:
152,240,85512,1,0,0:0:0:0:
408,168,85756,2,0,L|336:240,1,70
328,248,86122,1,0,0:0:0:0:
296,280,86244,1,0,0:0:0:0:
264,312,86366,1,0,0:0:0:0:
232,344,86488,1,0,0:0:0:0:
192,88,86732,1,0,0:0:0:0:
240,200,86976,1,0,0:0:0:0:
144,280,87220,1,0,0:0:0:0:
360,32,87464,1,0,0:0:0:0:
384,64,87586,1,0,0:0:0:0:
408,96,87708,1,0,0:0:0:0:
432,128,87830,1,0,0:0:0:0:
456,160,87952,1,0,0:0:0:0:
280,64,88195,1,0,0:0:0:0:
304,96,88317,1,0,0:0:0:0:
328,128,88439,1,0,0:0:0:0:
96,144,88683,6,0,L|64:160,1,35
160,32,88927,2,0,L|128:48,1,35
256,80,89171,2,0,L|287:63,1,35
320,160,89415,2,0,L|351:143,1,35
352,256,89659,2,0,L|400:256,1,35
48,144,89903,2,0,L|88:112,2,35
72,208,90269,2,0,L|120:176,1,35
192,192,90634,6,0,L|240:160,1,35
328,184,90878,2,0,L|368:152,1,35
320,80,91122,2,0,L|360:56,1,35
192,96,91366,2,0,L|232:64,1,35
32,176,91610,2,0,L|56:144,1,35
208,320,91854,2,0,L|256:288,4,35
304,224,92586,6,0,L|272:264,1,35
384,272,92830,2,0,L|367:312,1,35
368,176,93073,2,0,L|368:136,1,35
272,112,93317,2,0,L|232:88,1,35
144,144,93561,2,0,L|96:144,1,35
16,224,93805,2,0,L|48:192,2,35
64,288,94171,2,0,L|104:232,1,35
192,224,94537,6,0,L|280:224,1,70
160,288,95025,2,0,L|248:288,1,70
272,288,95391,1,0,0:0:0:0:
312,288,95512,1,0,0:0:0:0:
352,288,95634,1,0,0:0:0:0:
392,288,95756,1,0,0:0:0:0:
400,120,96000,1,0,0:0:0:0:
368,144,96122,1,0,0:0:0:0:
336,168,96244,1,0,0:0:0:0:
40,200,96488,6,0,L|80:184,2,35
64,56,96976,1,0,0:0:0:0:
192,160,97220,1,0,0:0:0:0:
224,184,97342,1,0,0:0:0:0:
256,208,97464,1,0,0:0:0:0:
280,240,97586,1,0,0:0:0:0:
272,272,97708,1,0,0:0:0:0:
264,304,97830,1,0,0:0:0:0:
256,336,97952,2,0,P|304:336|320:320,1,70
312,160,98439,6,0,L|336:128,1,35
400,208,98683,2,0,L|440:192,1,35
184,264,98927,2,0,L|176:224,1,35
168,80,99171,2,0,L|88:80,1,70
80,104,99537,1,0,0:0:0:0:
64,128,99659,1,0,0:0:0:0:
48,160,99781,1,0,0:0:0:0:
96,168,99903,1,0,0:0:0:0:
128,200,100025,1,0,0:0:0:0:
160,232,100147,1,0,0:0:0:0:
456,192,100391,5,0,0:0:0:0:
456,192,100512,1,0,0:0:0:0:
456,192,100634,1,0,0:0:0:0:
248,40,100878,1,0,0:0:0:0:
248,40,101000,1,0,0:0:0:0:
248,40,101122,1,0,0:0:0:0:
248,344,101366,1,0,0:0:0:0:
248,344,101488,1,0,0:0:0:0:
248,344,101610,1,0,0:0:0:0:
168,192,101854,2,0,L|80:192,1,70
98,192,102220,1,0,0:0:0:0:
98,192,102342,1,0,0:0:0:0:
392,304,102586,6,0,L|424:232,1,70
120,80,103073,2,0,L|88:152,1,70
80,184,103439,1,0,0:0:0:0:
64,224,103561,1,0,0:0:0:0:
328,344,103805,2,0,L|376:384,2,35
280,104,104293,1,0,0:0:0:0:
280,144,104415,1,0,0:0:0:0:
280,184,104537,1,0,0:0:0:0:
104,336,104781,6,0,P|160:336|184:320,1,70
200,304,105147,1,0,0:0:0:0:
224,272,105269,1,0,0:0:0:0:
200,240,105391,1,0,0:0:0:0:
224,208,105512,1,0,0:0:0:0:
200,168,105634,1,0,0:0:0:0:
224,136,105756,1,0,0:0:0:0:
200,104,105878,1,0,0:0:0:0:
224,72,106000,1,0,0:0:0:0:
56,160,106244,6,0,L|136:136,1,70
152,216,106732,2,0,L|72:240,1,70
104,320,107220,1,0,0:0:0:0:
144,304,107342,1,0,0:0:0:0:
176,336,107464,1,0,0:0:0:0:
208,304,107586,1,0,0:0:0:0:
232,336,107708,2,0,L|280:336,2,35
336,144,108195,6,0,L|416:96,1,70
392,192,108683,2,0,L|472:144,1,70
392,64,109171,1,0,0:0:0:0:
422,91,109293,1,0,0:0:0:0:
448,125,109415,1,0,0:0:0:0:
463,162,109537,1,0,0:0:0:0:
467,202,109659,1,0,0:0:0:0:
460,245,109781,1,0,0:0:0:0:
426,271,109903,2,0,L|358:253,1,70
112,72,110391,5,0,0:0:0:0:
112,72,110512,1,0,0:0:0:0:
240,240,110756,1,0,0:0:0:0:
240,240,110878,1,0,0:0:0:0:
256,32,111122,1,0,0:0:0:0:
88,224,111366,2,0,L|168:184,1,70
150,192,111732,1,0,0:0:0:0:
150,192,111854,1,0,0:0:0:0:
380,131,112098,1,0,0:0:0:0:
360,256,112342,6,0,P|392:208|392:176,1,77.5
384,160,112708,1,0,0:0:0:0:
368,136,112830,1,0,0:0:0:0:
32,48,113073,1,0,0:0:0:0:
152,248,113317,6,0,P|111:207|104:175,1,77.5
112,160,113683,1,0,0:0:0:0:
128,136,113805,1,0,0:0:0:0:
424,56,114049,1,0,0:0:0:0:
392,280,114293,2,0,L|392:200,1,70
144,224,114781,1,0,0:0:0:0:
240,304,115025,1,0,0:0:0:0:
112,296,115269,2,0,P|62:266|48:237,1,77.5
48,216,115634,1,0,0:0:0:0:
56,184,115756,1,0,0:0:0:0:
352,40,116000,6,0,L|331:116,1,70
440,56,116488,1,0,0:0:0:0:
416,152,116732,1,0,0:0:0:0:
168,336,116976,2,0,L|189:260,1,70
80,320,117464,1,0,0:0:0:0:
96,224,117708,1,0,0:0:0:0:
277,131,117952,2,0,L|299:55,1,70
384,80,118440,1,0,0:0:0:0:
360,176,118684,1,0,0:0:0:0:
384,80,118927,1,0,0:0:0:0:
88,136,119171,2,0,L|168:80,1,70
160,88,119537,1,0,0:0:0:0:
176,80,119659,1,0,0:0:0:0:
392,312,119903,6,0,L|320:248,1,70
304,360,120391,1,0,0:0:0:0:
256,280,120634,1,0,0:0:0:0:
208,360,120878,1,0,0:0:0:0:
96,216,121122,2,0,L|168:272,1,70
151,258,121488,1,0,0:0:0:0:
151,258,121610,1,0,0:0:0:0:
216,200,121854,5,0,0:0:0:0:
144,136,122098,1,0,0:0:0:0:
208,72,122342,1,0,0:0:0:0:
272,136,122586,1,0,0:0:0:0:
56,96,122830,1,0,0:0:0:0:
192,32,123073,1,0,0:0:0:0:
264,144,123317,1,0,0:0:0:0:
264,144,123439,1,0,0:0:0:0:
264,144,123561,1,0,0:0:0:0:
376,232,123805,6,0,L|424:208,2,35
192,336,124293,1,0,0:0:0:0:
40,112,124537,2,0,L|40:32,1,70
160,104,125025,1,0,0:0:0:0:
280,96,125269,1,0,0:0:0:0:
64,208,125512,2,0,L|144:192,1,70
416,224,126000,1,0,0:0:0:0:
320,288,126244,1,0,0:0:0:0:
192,288,126488,1,0,0:0:0:0:
96,224,126732,1,0,0:0:0:0:
192,144,126976,1,0,0:0:0:0:
224,120,127098,1,0,0:0:0:0:
256,96,127220,1,0,0:0:0:0:
288,72,127342,1,0,0:0:0:0:
320,48,127464,2,0,P|344:2|310:39,1,140
368,200,128439,5,0,0:0:0:0:
448,320,128683,1,0,0:0:0:0:
296,320,128927,2,0,L|208:320,1,70
200,104,129415,1,0,0:0:0:0:
320,104,129659,1,0,0:0:0:0:
408,192,129903,2,0,L|344:272,1,70
72,64,130391,2,0,P|135:88|167:149,1,140
80,144,131122,1,0,0:0:0:0:
88,240,131366,6,0,L|168:216,1,70
432,120,131854,1,0,0:0:0:0:
400,248,132098,1,0,0:0:0:0:
272,248,132342,1,0,0:0:0:0:
231,122,132586,1,0,0:0:0:0:
112,248,132830,2,0,L|160:176,1,70
32,208,133317,1,0,0:0:0:0:
96,120,133561,1,0,0:0:0:0:
448,184,133805,2,0,P|384:104|320:104,1,140
240,272,134537,1,0,0:0:0:0:
64,200,134781,5,0,0:0:0:0:
64,200,135025,1,0,0:0:0:0:
256,64,135269,1,0,0:0:0:0:
256,64,135512,1,0,0:0:0:0:
376,136,135756,2,0,L|456:136,1,70
160,304,136244,2,0,L|208:296,2,35
32,192,136732,2,0,P|64:160|112:160,1,70
368,288,137220,2,0,P|336:320|288:320,1,70
296,248,137708,2,0,L|376:208,1,70
48,184,138195,2,0,L|112:184,2,35
16,88,138683,5,0,0:0:0:0:
136,88,138927,1,0,0:0:0:0:
136,192,139171,1,0,0:0:0:0:
256,192,139415,1,0,0:0:0:0:
16,288,139659,2,0,L|160:288,1,140
445,298,140391,2,0,P|409:242|442:184,1,140
256,328,141366,5,0,0:0:0:0:
296,128,141610,1,0,0:0:0:0:
296,128,141854,1,0,0:0:0:0:
96,136,142098,1,0,0:0:0:0:
96,136,142220,1,0,0:0:0:0:
96,136,142342,1,0,0:0:0:0:
96,136,142464,1,0,0:0:0:0:
96,136,142586,1,0,0:0:0:0:
256,328,142830,1,0,0:0:0:0:
256,328,142952,1,0,0:0:0:0:
256,328,143073,1,0,0:0:0:0:
328,328,143317,1,0,0:0:0:0:
176,48,143561,6,0,P|243:31|312:44,1,140
312,168,144293,1,0,0:0:0:0:
392,168,144537,1,0,0:0:0:0:
232,168,144781,1,0,0:0:0:0:
472,168,145025,1,0,0:0:0:0:
152,168,145269,1,0,0:0:0:0:
168,296,145512,2,0,L|216:224,1,70
472,256,146000,2,0,P|419:298|350:295,1,140
16,152,146732,5,0,0:0:0:0:
72,72,146976,1,0,0:0:0:0:
168,64,147220,1,0,0:0:0:0:
72,208,147464,2,0,P|150:141|212:153,1,140
152,224,148195,1,0,0:0:0:0:
384,128,148439,2,0,L|456:72,1,70
456,192,148927,2,0,L|384:248,1,70
168,144,149415,1,0,0:0:0:0:
272,88,149659,2,0,L|416:88,1,140
120,312,150391,1,0,0:0:0:0:
120,312,150634,1,0,0:0:0:0:
384,208,150878,1,0,0:0:0:0:
384,208,151122,1,0,0:0:0:0:
144,96,151366,2,0,L|240:72,1,70
416,56,151854,2,0,L|464:16,2,35
304,304,152342,1,0,0:0:0:0:
304,304,152586,1,0,0:0:0:0:
128,176,152830,1,0,0:0:0:0:
128,176,153073,1,0,0:0:0:0:
320,80,153317,2,0,L|224:104,1,70
32,104,153805,2,0,L|-24:72,2,35
88,296,154293,2,0,P|120:328|168:328,1,70
376,152,154781,1,0,0:0:0:0:
376,152,155025,1,0,0:0:0:0:
240,296,155269,2,0,L|384:272,1,140
168,248,156000,2,0,P|104:226|90:161,1,140,0|0,2:0|2:0,2:0:0:0:
96,136,156610,1,0,0:0:0:0:
104,112,156732,1,0,0:0:0:0:
224,160,156976,1,0,0:0:0:0:
224,160,157220,1,0,0:0:0:0:
256,56,157464,1,0,0:0:0:0:
344,128,157708,1,0,0:0:0:0:
344,128,157830,1,0,0:0:0:0:
344,128,157952,1,0,0:0:0:0:
344,128,158073,1,0,0:0:0:0:
344,128,158195,1,0,0:0:0:0:
248,272,158439,1,0,0:0:0:0:
248,272,158561,1,0,0:0:0:0:
248,272,158683,1,0,0:0:0:0:
256,192,158927,12,0,159903,0:0:0:0:
248,152,167708,5,0,0:0:0:0:
160,96,167952,1,0,0:0:0:0:
352,160,168195,1,0,0:0:0:0:
304,304,168439,1,0,0:0:0:0:
172,232,168683,2,0,L|212:96,1,140
232,280,169415,5,0,0:0:0:0:
328,228,169659,1,0,0:0:0:0:
248,156,169903,1,0,0:0:0:0:
324,76,170147,1,0,0:0:0:0:
404,156,170391,1,0,0:0:0:0:
250,268,170634,2,0,L|328:152,1,140
320,288,171366,5,0,0:0:0:0:
384,160,171610,1,0,0:0:0:0:
256,96,171854,1,0,0:0:0:0:
128,160,172098,1,0,0:0:0:0:
192,288,172342,1,0,0:0:0:0:
280,208,172586,2,0,P|232:176|248:224,1,140
408,352,173317,1,0,0:0:0:0:
408,48,173561,1,0,0:0:0:0:
88,48,173805,1,0,0:0:0:0:
88,48,173927,1,0,0:0:0:0:
88,48,174049,2,0,L|32:120,1,70
96,136,174537,6,0,L|128:120,1,35
248,144,174781,2,0,L|296:128,1,35
400,152,175025,2,0,L|448:136,1,35
304,272,175269,2,0,L|264:288,1,35
352,32,175512,2,0,L|392:16,1,35
120,80,175756,1,0,0:0:0:0:
104,120,175878,1,0,0:0:0:0:
88,160,176000,1,0,0:0:0:0:
72,200,176122,1,0,0:0:0:0:
56,240,176244,1,0,0:0:0:0:
168,192,176488,6,0,L|216:176,1,35
440,248,176732,2,0,L|400:256,1,35
256,240,176976,2,0,L|296:224,1,35
464,160,177220,2,0,L|400:176,1,35
136,280,177464,2,0,L|184:296,1,35
208,328,177708,2,0,L|208:368,4,35
352,336,178439,1,0,0:0:0:0:
376,304,178561,1,0,0:0:0:0:
400,272,178683,1,0,0:0:0:0:
424,240,178805,1,0,0:0:0:0:
448,208,178927,1,0,0:0:0:0:
480,176,179049,1,0,0:0:0:0:
440,136,179171,1,0,0:0:0:0:
408,168,179293,1,0,0:0:0:0:
448,208,179415,1,0,0:0:0:0:
480,176,179537,1,0,0:0:0:0:
440,136,179659,1,0,0:0:0:0:
408,104,179781,1,0,0:0:0:0:
368,88,179903,1,0,0:0:0:0:
328,88,180025,1,0,0:0:0:0:
288,88,180147,1,0,0:0:0:0:
288,328,180391,6,0,L|248:248,1,70
160,80,180878,1,0,0:0:0:0:
248,224,181122,1,0,0:0:0:0:
248,184,181244,1,0,0:0:0:0:
248,144,181366,1,0,0:0:0:0:
248,104,181488,1,0,0:0:0:0:
248,64,181610,1,0,0:0:0:0:
72,72,181854,1,0,0:0:0:0:
72,112,181976,1,0,0:0:0:0:
72,152,182098,2,0,L|72:248,1,70
440,200,182586,5,0,0:0:0:0:
416,56,182830,1,0,0:0:0:0:
296,152,183073,1,0,0:0:0:0:
168,264,183317,1,0,0:0:0:0:
184,224,183439,1,0,0:0:0:0:
200,184,183561,1,0,0:0:0:0:
216,144,183683,1,0,0:0:0:0:
232,104,183805,2,0,L|256:48,2,35
96,216,184293,6,0,L|64:296,1,70
56,320,184658,1,0,0:0:0:0:
40,360,184780,1,0,0:0:0:0:
264,360,185025,1,0,0:0:0:0:
368,136,185269,1,0,0:0:0:0:
392,96,185391,1,0,0:0:0:0:
416,64,185512,2,0,L|472:-16,1,70
200,80,186000,5,0,0:0:0:0:
96,120,186244,1,0,0:0:0:0:
96,248,186488,1,0,0:0:0:0:
200,288,186732,1,0,0:0:0:0:
200,184,186976,1,0,0:0:0:0:
328,72,187220,1,0,0:0:0:0:
296,104,187342,1,0,0:0:0:0:
336,128,187464,1,0,0:0:0:0:
296,152,187586,1,0,0:0:0:0:
336,176,187708,1,0,0:0:0:0:
296,200,187830,1,0,0:0:0:0:
336,224,187952,1,0,0:0:0:0:
448,120,188195,6,0,L|448:216,1,70
184,64,188683,1,0,0:0:0:0:
88,312,188927,1,0,0:0:0:0:
112,280,189049,1,0,0:0:0:0:
136,248,189171,1,0,0:0:0:0:
160,216,189293,1,0,0:0:0:0:
184,184,189415,1,0,0:0:0:0:
384,304,189659,1,0,0:0:0:0:
384,304,189781,1,0,0:0:0:0:
384,304,189903,1,0,0:0:0:0:
48,48,190147,2,0,P|96:48|80:72,1,70
