osu file format v14

[General]
AudioFilename: BESTie - Excuse Me.mp3
AudioLeadIn: 0
PreviewTime: 66346
Countdown: 0
SampleSet: Soft
StackLeniency: 0.7
Mode: 0
LetterboxInBreaks: 0
WidescreenStoryboard: 1

[Editor]
Bookmarks: 43246,86446,110446,134446,153646,172846,182446
DistanceSpacing: 0.9
BeatDivisor: 4
GridSize: 4
TimelineZoom: 2.2

[Metadata]
Title:Excuse Me
TitleUnicode:Excuse Me
Artist:BESTie
ArtistUnicode:베스티
Creator:Euny
Version:Normal
Source:
Tags:Natsu Shadren kpop k-pop 혜연 유지 다혜 해령 Hye Yeon U ji Da Hye Hae Ryeong Love Emotion YNB Entertainment
BeatmapID:922408
BeatmapSetID:423925

[Difficulty]
HPDrainRate:4
CircleSize:3.5
OverallDifficulty:5
ApproachRate:5
SliderMultiplier:1.1
SliderTickRate:1

[Events]
//Background and Video events
0,0,"EX.jpg",0,0
Video,0,"[MV] BESTie-Excuse Me.avi"
//Break Periods
2,86646,87646
2,153846,162046
//Storyboard Layer 0 (Background)
//Storyboard Layer 1 (Fail)
//Storyboard Layer 2 (Pass)
//Storyboard Layer 3 (Foreground)
//Storyboard Sound Samples

[TimingPoints]
4846,300,4,2,1,60,1,0
6796,-100,4,2,83,40,0,0
7096,-100,4,2,1,10,0,0
7246,-100,4,2,1,60,0,0
9196,-100,4,2,95,40,0,0
9571,-100,4,2,1,10,0,0
9646,-100,4,2,1,60,0,0
13996,-100,4,2,96,40,0,0
14221,-100,4,2,1,10,0,0
14296,-100,4,2,1,60,0,0
14446,-100,4,2,1,60,0,0
19246,-100,4,2,91,40,0,0
19396,-100,4,2,91,10,0,0
19546,-100,4,2,1,60,0,0
21046,-100,4,2,1,60,0,0
21646,-100,4,2,1,60,0,0
24046,-100,4,2,2,60,0,0
24271,-100,4,2,1,10,0,0
24346,-100,4,2,2,60,0,0
43246,-100,4,2,2,60,0,0
62446,-100,4,2,1,60,0,0
63646,-100,4,2,1,60,0,0
64846,-100,4,2,1,60,0,0
66346,-100,4,1,2,60,0,0
66496,-100,4,2,1,60,0,0
67246,-100,4,2,2,70,0,1
74446,-100,4,2,2,60,0,0
76846,-100,4,2,2,70,0,1
84046,-100,4,2,2,60,0,0
86446,-100,4,2,83,40,0,0
88846,-100,4,2,1,60,0,0
91246,-100,4,2,2,60,0,0
104746,-100,4,2,2,60,0,0
105646,-100,4,2,2,60,0,0
110446,-100,4,2,2,60,0,0
129646,-100,4,2,1,60,0,0
130846,-100,4,2,1,60,0,0
132046,-100,4,2,1,60,0,0
133546,-100,4,1,2,60,0,0
133696,-100,4,2,1,60,0,0
134446,-100,4,2,2,70,0,1
141646,-100,4,2,2,60,0,0
144046,-100,4,2,2,70,0,1
151246,-100,4,2,2,60,0,0
153646,-100,4,2,1,60,0,0
163246,-100,4,2,1,60,0,0
169846,-100,4,2,2,60,0,0
170446,-100,4,2,1,40,0,0
171046,-100,4,2,1,50,0,0
171646,-100,4,2,1,60,0,0
172246,-100,4,2,2,70,0,0
172846,-100,4,2,2,70,0,1
180046,-100,4,2,2,60,0,0
182446,-100,4,2,2,70,0,1
189646,-100,4,2,2,60,0,0
191746,-100,4,2,2,75,0,0

[Colours]
Combo1 : 255,45,77
Combo2 : 74,74,255
Combo3 : 240,253,85
Combo4 : 255,83,199

[HitObjects]
448,244,4846,6,0,P|430:192|436:138,1,110,6|8,0:0|0:0,0:0:0:0:
475,46,5446,2,0,L|352:68,1,110,0|8,0:0|0:0,0:0:0:0:
267,75,6046,2,0,P|289:124|288:186,2,110,0|8|0,0:0|0:0|0:0,0:0:0:0:
218,64,6796,2,0,L|101:54,1,110,4|0,0:0|0:0,0:0:0:0:
58,53,7246,5,4,0:0:0:0:
25,146,7546,1,8,0:0:0:0:
21,244,7846,2,0,L|25:362,2,110,0|8|0,0:0|0:0|0:0,0:0:0:0:
119,246,8746,2,0,P|166:260|232:246,1,110,8|0,0:0|0:0,0:0:0:0:
253,208,9196,2,0,P|306:197|359:211,1,110,4|0,0:0|0:0,0:0:0:0:
400,239,9646,5,4,0:0:0:0:
432,145,9946,2,0,L|429:21,1,110,8|0,0:0|0:0,0:0:0:0:
331,52,10546,2,0,P|276:62|224:32,1,110,8|0,0:0|0:0,0:0:0:0:
129,26,11146,2,0,B|172:132|72:132|138:236,1,220,8|8,0:0|0:0,0:0:0:0:
233,209,12046,6,0,P|217:300|95:326,1,220,4|0,0:0|0:0,0:0:0:0:
17,284,12946,2,0,L|27:169,1,110,8|0,0:0|0:0,0:0:0:0:
37,75,13546,2,0,P|86:93|161:84,1,110,8|0,0:0|0:0,0:0:0:0:
179,56,13996,2,0,L|171:171,1,110,4|0,0:0|0:0,0:0:0:0:
171,215,14446,5,2,0:0:0:0:
252,271,14746,1,8,0:0:0:0:
290,179,15046,2,0,L|416:165,1,110,2|8,0:0|0:0,0:0:0:0:
462,90,15646,2,0,L|336:68,1,110,2|8,0:0|0:0,0:0:0:0:
256,50,16246,1,0,0:0:0:0:
157,38,16546,2,0,P|167:95|158:148,1,110,8|2,0:0|0:0,0:0:0:0:
66,182,17146,6,0,P|56:239|65:292,1,110,8|2,0:0|0:0,0:0:0:0:
156,327,17746,2,0,L|267:318,1,110,8|2,0:0|0:0,0:0:0:0:
356,276,18346,2,0,P|334:223|336:167,1,110,8|0,0:0|0:0,0:0:0:0:
395,92,18946,1,8,0:0:0:0:
299,64,19246,6,0,L|184:75,1,110,4|8,0:0|0:0,0:0:0:0:
94,104,19846,2,0,P|94:158|83:212,1,110,2|8,0:0|0:0,0:0:0:0:
82,262,20296,2,0,B|140:280|140:245|193:259,1,110,0|0,0:0|0:0,0:0:0:0:
288,268,20896,1,0,0:0:0:0:
288,268,21046,2,0,P|275:210|250:161,1,110,0|0,0:0|0:0,0:0:0:0:
160,134,21646,6,0,B|129:182|87:191|49:180|14:153|-13:111|15:55|45:28|93:17|135:44|135:44|202:33|236:84|236:84|318:54|318:54|369:91|430:75,1,660,8|4,3:3|0:0,0:0:0:0:
506,28,23746,1,0,0:0:0:0:
496,126,24046,6,0,L|485:298,2,165,6|0|2,0:0|0:0|0:0,0:0:0:0:
417,66,25246,2,0,P|369:94|315:97,1,110,2|2,0:0|0:0,0:0:0:0:
266,88,25696,1,2,0:0:0:0:
266,88,25846,2,0,L|264:212,1,110,8|0,0:0|0:0,0:0:0:0:
264,297,26446,6,0,P|210:288|157:303,1,110,2|2,0:0|0:0,0:0:0:0:
69,349,27046,2,0,L|47:233,1,110,8|2,0:0|0:0,0:0:0:0:
22,143,27646,2,0,P|77:141|127:118,1,110,2|2,0:0|0:0,0:0:0:0:
154,77,28096,1,2,0:0:0:0:
154,77,28246,2,0,P|207:65|261:75,1,110,8|2,0:0|0:0,0:0:0:0:
320,156,28846,6,0,P|321:237|354:312,2,165,2|0|2,0:0|0:0|0:0,0:0:0:0:
381,76,30046,2,0,L|504:108,1,110,2|2,0:0|0:0,0:0:0:0:
499,151,30496,1,0,0:0:0:0:
499,151,30646,2,0,P|491:205|512:262,1,110,8|2,0:0|0:0,0:0:0:0:
472,349,31246,6,0,L|359:335,1,110,2|2,0:0|0:0,0:0:0:0:
264,326,31846,2,0,L|156:350,1,110,8|2,0:0|0:0,0:0:0:0:
57,364,32446,2,0,P|66:309|59:255,1,110,2|2,0:0|0:0,0:0:0:0:
29,160,33046,2,0,L|140:181,1,110,8|2,0:0|0:0,0:0:0:0:
233,202,33646,6,0,P|236:147|262:99,1,110,2|2,0:0|0:0,0:0:0:0:
308,81,34096,2,0,L|472:122,2,165,2|2|2,0:0|0:0|0:0,0:0:0:0:
165,38,35446,2,0,P|174:91|167:146,1,110,8|2,0:0|0:0,0:0:0:0:
126,236,36046,6,0,L|244:253,1,110,2|0,0:0|0:0,0:0:0:0:
283,264,36496,2,0,P|286:213|361:124,2,165,2|2|0,0:0|0:0|3:0,0:0:0:0:
319,297,37546,2,0,P|373:293|426:321,1,110,0|8,3:0|0:0,0:0:0:0:
501,376,38146,1,2,0:0:0:0:
510,277,38446,6,0,L|500:153,1,110,2|2,0:0|0:0,0:0:0:0:
492,118,38896,2,0,P|441:125|371:100,1,110,0|0,3:0|0:0,0:0:0:0:
341,85,39346,1,0,3:0:0:0:
244,63,39646,2,0,L|236:178,1,110,2|2,0:0|0:0,0:0:0:0:
232,222,40096,1,0,0:0:0:0:
232,222,40246,2,0,P|177:224|125:241,1,110,0|2,0:0|0:0,0:0:0:0:
36,286,40846,6,0,L|31:168,1,110,0|2,3:0|0:0,0:0:0:0:
31,76,41446,2,0,B|85:92|85:59|147:77,1,110,8|2,0:0|0:0,0:0:0:0:
214,139,42046,2,0,P|265:123|306:64,2,110,0|0|0,0:0|3:0|3:0,0:0:0:0:
115,143,42946,1,0,0:0:0:0:
40,207,43246,6,0,L|65:329,1,110,6|2,0:0|0:0,0:0:0:0:
93,352,43696,2,0,P|148:343|202:350,1,110,0|0,0:0|0:0,0:0:0:0:
251,356,44146,1,2,0:0:0:0:
348,356,44446,2,0,P|333:304|347:252,2,110,2|2|0,0:0|0:0|0:0,0:0:0:0:
433,304,45346,1,2,0:0:0:0:
448,206,45646,6,0,L|357:141,1,110,2|2,0:0|0:0,0:0:0:0:
282,78,46246,2,0,P|263:129|224:167,1,110,8|2,0:0|0:0,0:0:0:0:
128,193,46846,2,0,P|126:247|140:301,2,110,2|2|8,0:0|0:0|0:0,0:0:0:0:
151,96,47746,1,2,0:0:0:0:
227,159,48046,6,0,L|353:169,1,110,2|2,0:0|0:0,0:0:0:0:
385,177,48496,1,0,0:0:0:0:
385,177,48646,2,0,P|372:231|378:285,1,110,8|2,0:0|0:0,0:0:0:0:
311,357,49246,2,0,L|197:351,1,110,2|2,0:0|0:0,0:0:0:0:
151,352,49696,1,0,0:0:0:0:
151,352,49846,2,0,P|156:286|130:238,1,110,8|2,0:0|0:0,0:0:0:0:
59,187,50446,6,0,L|167:146,1,110,2|2,0:0|0:0,0:0:0:0:
251,105,51046,2,0,P|256:159|287:203,1,110,8|2,0:0|0:0,0:0:0:0:
367,261,51646,2,0,P|324:295|269:299,2,110,0|0|0,0:0|0:0|0:0,0:0:0:0:
384,164,52546,1,0,0:0:0:0:
294,122,52846,6,0,L|187:145,1,110,2|2,0:0|0:0,0:0:0:0:
91,175,53446,2,0,P|98:136|64:73,1,110,8|2,0:0|0:0,0:0:0:0:
31,40,53896,1,2,0:0:0:0:
31,40,54046,2,0,L|144:32,1,110,2|2,0:0|0:0,0:0:0:0:
239,40,54646,2,0,P|226:94|242:146,1,110,8|2,0:0|0:0,0:0:0:0:
289,233,55246,6,0,L|177:238,1,110,2|2,0:0|0:0,0:0:0:0:
130,245,55696,1,0,0:0:0:0:
130,245,55846,2,0,P|148:297|141:351,1,110,8|2,0:0|0:0,0:0:0:0:
50,307,56446,2,0,P|32:255|39:201,2,110,2|2|8,0:0|0:0|0:0,0:0:0:0:
140,351,57346,1,8,0:0:0:0:
221,294,57646,6,0,L|355:285,2,110,2|2|8,0:0|0:0|0:0,0:0:0:0:
178,204,58546,1,2,0:0:0:0:
88,249,58846,2,0,P|97:145|193:105,1,220,2|8,0:0|0:0,0:0:0:0:
277,159,59746,1,2,0:0:0:0:
362,108,60046,6,0,L|379:227,1,110,2|2,0:0|0:0,0:0:0:0:
375,316,60646,2,0,P|321:304|267:315,1,110,8|2,0:0|0:0,0:0:0:0:
191,378,61246,2,0,B|150:325|187:250|187:250|152:202|152:202|216:158|195:85,1,330,0|0,3:0|3:0,0:0:0:0:
274,25,62446,6,0,L|409:40,1,110,4|2,0:1|0:0,0:0:0:0:
432,44,62896,1,2,0:0:0:0:
432,43,63046,2,0,P|425:98|440:151,1,110,8|2,0:0|0:0,0:0:0:0:
496,232,63646,2,0,L|380:242,1,110,2|2,0:0|0:0,0:0:0:0:
337,251,64096,1,2,0:0:0:0:
337,251,64246,2,0,P|350:305|343:359,1,110,8|2,0:0|0:0,0:0:0:0:
243,358,64846,6,0,L|135:340,1,110,0|0,3:0|3:0,0:0:0:0:
85,331,65296,1,0,3:0:0:0:
85,331,65446,2,0,P|94:276|87:222,1,110,0|0,3:0|3:0,0:0:0:0:
53,129,66046,2,0,L|170:118,1,110,0|4,3:0|3:1,0:0:0:0:
259,103,66646,2,0,P|256:157|277:207,1,110,0|0,3:0|0:0,0:0:0:0:
338,285,67246,6,0,L|233:327,1,110,6|8,0:0|0:0,0:0:0:0:
186,323,67696,2,0,P|163:300|83:283,1,110,0|0,0:0|0:0,0:0:0:0:
42,297,68146,1,8,0:0:0:0:
34,198,68446,2,0,P|57:148|57:94,1,110,2|8,0:0|0:0,0:0:0:0:
122,19,69046,2,0,L|253:34,1,110,2|8,0:0|0:0,0:0:0:0:
330,36,69646,6,0,P|329:91|346:143,1,110,2|8,0:0|0:0,0:0:0:0:
385,175,70096,2,0,L|302:257,1,110,0|0,0:0|0:0,0:0:0:0:
272,288,70546,1,8,0:0:0:0:
184,334,70846,2,0,P|131:348|78:338,1,110,2|8,0:0|0:0,0:0:0:0:
38,247,71446,1,2,0:0:0:0:
38,247,71596,2,0,P|62:198|58:144,1,110,0|0,0:0|0:0,0:0:0:0:
37,99,72046,6,0,L|164:111,1,110,2|8,0:0|0:0,0:0:0:0:
193,125,72496,2,0,P|194:70|226:27,1,110,0|0,0:0|0:0,0:0:0:0:
275,18,72946,1,8,0:0:0:0:
373,25,73246,2,0,L|367:148,1,110,0|8,0:0|0:0,0:0:0:0:
362,184,73696,2,0,P|417:183|466:210,1,110
491,249,74146,1,8,0:0:0:0:
427,325,74446,6,0,P|379:350|324:349,1,110,2|8,0:0|0:0,0:0:0:0:
239,300,75046,1,2,0:0:0:0:
239,300,75196,2,0,P|244:246|222:196,1,110
184,171,75646,2,0,L|57:196,1,110,2|8,0:0|0:0,0:0:0:0:
2,258,76246,1,2,0:0:0:0:
2,258,76396,2,0,L|76:355,1,110,0|0,0:0|0:0,0:0:0:0:
115,356,76846,6,0,P|167:338|221:342,1,110,6|8,0:0|0:0,0:0:0:0:
267,361,77296,2,0,P|320:369|373:355,1,110,0|0,0:0|0:0,0:0:0:0:
419,334,77746,1,8,0:0:0:0:
473,251,78046,2,0,L|461:130,1,110,2|8,0:0|0:0,0:0:0:0:
443,44,78646,1,2,0:0:0:0:
443,43,78796,2,0,P|399:76|345:79,1,110,0|0,0:0|0:0,0:0:0:0:
305,49,79246,6,0,L|298:158,1,110,2|8,0:0|0:0,0:0:0:0:
290,207,79696,2,0,P|235:211|189:241,1,110,0|0,0:0|0:0,0:0:0:0:
161,282,80146,1,8,0:0:0:0:
89,350,80446,2,0,P|64:301|68:247,1,110,2|8,0:0|0:0,0:0:0:0:
146,186,81046,1,2,0:0:0:0:
240,155,81346,1,8,0:0:0:0:
287,68,81646,6,0,L|169:45,1,110,2|8,0:0|0:0,0:0:0:0:
78,50,82246,2,0,P|86:105|78:159,1,110,2|8,0:0|0:0,0:0:0:0:
51,254,82846,2,0,B|108:231|108:268|158:253,1,110,2|8,0:0|0:0,0:0:0:0:
250,219,83446,2,0,P|271:268|322:285,1,110,2|8,0:0|0:0,0:0:0:0:
256,192,84046,12,4,86446,0:0:0:0:
187,187,88846,6,0,B|170:150|112:134|100:50|158:4|220:11|260:86|260:86|311:32|376:38|415:112|387:177|332:202|264:196|233:278,1,660,8|4,3:0|3:0,0:0:0:0:
216,362,90946,1,0,3:0:0:0:
310,335,91246,6,0,P|343:291|396:274,1,110,6|2,0:0|0:0,0:0:0:0:
444,273,91696,2,0,P|477:241|491:178,1,110,0|0,0:0|0:0,0:0:0:0:
482,131,92146,1,2,0:0:0:0:
417,55,92446,2,0,L|292:75,1,110,2|2,0:0|0:0,0:0:0:0:
209,72,93046,2,0,L|100:54,1,110,8|2,0:0|0:0,0:0:0:0:
18,108,93646,6,0,L|29:238,1,110,2|2,0:0|0:0,0:0:0:0:
38,316,94246,2,0,P|89:295|157:299,1,110,8|2,0:0|0:0,0:0:0:0:
224,352,94846,2,0,P|257:312|271:251,1,110,2|2,0:0|0:0,0:0:0:0:
329,176,95446,2,0,L|448:217,1,110,8|2,0:0|0:0,0:0:0:0:
500,284,96046,6,0,L|337:338,2,165,2|0|2,0:0|0:0|0:0,0:0:0:0:
510,184,97246,2,0,P|503:130|502:75,1,110,2|2,0:0|0:0,0:0:0:0:
503,25,97696,1,0,0:0:0:0:
503,25,97846,2,0,L|375:48,1,110,8|2,0:0|0:0,0:0:0:0:
295,47,98446,6,0,P|314:98|312:152,1,110,2|2,0:0|0:0,0:0:0:0:
242,222,99046,2,0,L|361:250,1,110,8|2,0:0|0:0,0:0:0:0:
398,333,99646,2,0,P|343:337|290:351,1,110,2|2,0:0|0:0,0:0:0:0:
244,372,100096,1,0,0:0:0:0:
244,372,100246,2,0,L|141:306,1,110,8|2,0:0|0:0,0:0:0:0:
75,247,100846,6,0,P|84:193|82:138,1,110,2|2,0:0|0:0,0:0:0:0:
38,49,101446,2,0,L|148:38,1,110,8|2,0:0|0:0,0:0:0:0:
245,23,102046,2,0,P|237:78|251:133,1,110,2|2,0:0|0:0,0:0:0:0:
280,168,102496,1,0,0:0:0:0:
280,168,102646,2,0,L|146:186,1,110,8|2,0:0|0:0,0:0:0:0:
71,182,103246,6,0,P|88:233|76:286,1,110,2|2,0:0|0:0,0:0:0:0:
26,371,103846,2,0,L|140:372,1,110,8|2,0:0|0:0,0:0:0:0:
234,364,104446,1,2,0:0:0:0:
324,323,104746,2,0,P|341:272|372:224,1,110,8|8,0:0|0:0,0:0:0:0:
444,157,105346,1,2,0:0:0:0:
410,63,105646,6,0,L|228:68,2,165,2|0|2,0:0|0:0|0:0,0:0:0:0:
502,97,106846,2,0,L|499:233,1,110,2|2,0:0|0:0,0:0:0:0:
499,256,107296,1,0,0:0:0:0:
499,256,107446,2,0,P|451:228|397:217,1,110,0|8,0:0|0:0,0:0:0:0:
334,293,108046,6,0,P|281:282|238:248,1,110,0|2,3:0|0:0,0:0:0:0:
152,199,108646,2,0,L|158:320,1,110,8|2,0:0|0:0,0:0:0:0:
61,286,109246,2,0,L|56:162,2,110,0|0|0,0:0|3:0|3:0,0:0:0:0:
88,381,110146,1,0,3:0:0:0:
184,358,110446,6,0,P|238:350|293:353,1,110,6|2,0:0|0:0,0:0:0:0:
340,367,110896,2,0,L|328:247,1,110,0|0,0:0|0:0,0:0:0:0:
317,209,111346,1,2,0:0:0:0:
363,121,111646,2,0,P|415:135|467:120,2,110,2|2|0,0:0|0:0|0:0,0:0:0:0:
287,56,112546,1,2,0:0:0:0:
190,31,112846,6,0,P|145:63|91:69,1,110,2|2,0:0|0:0,0:0:0:0:
0,103,113446,2,0,L|11:238,1,110,8|2,0:0|0:0,0:0:0:0:
88,271,114046,2,0,L|114:153,2,110,2|2|8,0:0|0:0|0:0,0:0:0:0:
14,337,114946,1,10,0:0:0:0:
108,365,115246,6,0,P|161:353|216:356,1,110,2|2,0:0|0:0,0:0:0:0:
264,368,115696,1,0,0:0:0:0:
264,368,115846,2,0,P|258:313|271:260,1,110,8|2,0:0|0:0,0:0:0:0:
367,236,116446,2,0,P|371:181|359:127,1,110,2|2,0:0|0:0,0:0:0:0:
333,85,116896,1,0,0:0:0:0:
333,85,117046,2,0,L|454:74,1,110,8|2,0:0|0:0,0:0:0:0:
507,150,117646,6,0,P|486:200|475:254,1,110,2|2,0:0|0:0,0:0:0:0:
492,352,118246,2,0,L|369:342,1,110,8|2,0:0|0:0,0:0:0:0:
284,328,118846,2,0,P|283:273|251:227,2,110,2|2|8,0:0|0:0|0:0,0:0:0:0:
187,304,119746,1,2,0:0:0:0:
157,209,120046,6,0,P|138:157|147:103,1,110,2|2,0:0|0:0,0:0:0:0:
204,22,120646,2,0,L|318:31,1,110,8|2,0:0|0:0,0:0:0:0:
363,32,121096,1,0,0:0:0:0:
363,31,121246,2,0,P|362:86|389:135,1,110,2|2,0:0|0:0,0:0:0:0:
482,165,121846,2,0,L|421:269,1,110,8|2,0:0|0:0,0:0:0:0:
355,329,122446,6,0,P|330:280|284:250,1,110,2|2,0:0|0:0,0:0:0:0:
238,266,122896,1,0,0:0:0:0:
238,266,123046,2,0,L|236:142,1,110,8|2,0:0|0:0,0:0:0:0:
271,63,123646,2,0,P|317:93|371:99,2,110,2|2|8,0:0|0:0|0:0,0:0:0:0:
174,40,124546,1,8,0:0:0:0:
105,111,124846,6,0,L|121:244,2,110,2|2|8,0:0|0:0|0:0,0:0:0:0:
77,15,125746,1,2,0:0:0:0:
174,40,126046,2,0,B|281:74|281:6|396:50,1,220,2|8,0:0|0:0,0:0:0:0:
460,120,126946,1,2,0:0:0:0:
367,156,127246,6,0,P|366:210|379:264,1,110,2|2,0:0|0:0,0:0:0:0:
423,352,127846,2,0,L|294:341,1,110,8|2,0:0|0:0,0:0:0:0:
216,321,128446,2,0,P|84:318|174:222,1,330,0|0,3:0|3:0,0:0:0:0:
272,237,129646,6,0,L|266:107,1,110,4|0,0:1|0:0,0:0:0:0:
266,77,130096,1,0,0:0:0:0:
265,77,130246,2,0,P|221:108|167:114,1,110,0|0,0:0|0:0,0:0:0:0:
71,88,130846,2,0,L|66:210,1,110,2|2,0:0|0:0,0:0:0:0:
59,246,131296,1,0,0:0:0:0:
58,246,131446,2,0,P|112:255|161:281,1,110,0|2,0:0|0:0,0:0:0:0:
227,355,132046,6,0,L|321:288,1,110,0|0,3:0|3:0,0:0:0:0:
358,263,132496,1,0,3:0:0:0:
358,263,132646,2,0,P|328:217|316:163,1,110,0|0,3:0|3:0,0:0:0:0:
376,84,133246,2,0,L|258:77,1,110,0|4,3:0|3:1,0:0:0:0:
166,68,133846,2,0,P|174:123|161:175,1,110,0|0,3:0|0:0,0:0:0:0:
93,248,134446,6,0,L|194:309,1,110,6|8,0:0|0:0,0:0:0:0:
230,327,134896,2,0,P|284:319|338:325,1,110,0|0,0:0|0:0,0:0:0:0:
386,341,135346,1,8,0:0:0:0:
484,354,135646,2,0,P|507:304|507:250,1,110,2|8,0:0|0:0,0:0:0:0:
447,170,136246,2,0,B|429:117|465:117|443:61,1,110,2|8,0:0|0:0,0:0:0:0:
347,37,136846,6,0,P|293:50|238:49,1,110,2|8,0:0|0:0,0:0:0:0:
191,35,137296,2,0,L|106:114,1,110,0|0,0:0|0:0,0:0:0:0:
71,140,137746,1,8,0:0:0:0:
32,231,138046,2,0,P|86:233|137:254,1,110,2|8,0:0|0:0,0:0:0:0:
204,326,138646,1,2,0:0:0:0:
204,326,138796,2,0,P|230:276|228:218,1,110,0|0,0:0|0:0,0:0:0:0:
241,175,139246,6,0,L|368:187,1,110,2|8,0:0|0:0,0:0:0:0:
399,193,139696,2,0,P|400:138|432:95,1,110,0|0,0:0|0:0,0:0:0:0:
474,69,140146,1,8,0:0:0:0:
400,2,140446,2,0,L|285:20,1,110,2|8,0:0|0:0,0:0:0:0:
242,27,140896,2,0,P|266:75|263:130,1,110
241,175,141346,1,8,0:0:0:0:
335,205,141646,6,0,B|331:265|368:254|366:323,1,110,2|8,0:0|0:0,0:0:0:0:
285,363,142246,1,2,0:0:0:0:
285,363,142396,2,0,L|175:353,1,110,0|0,0:0|0:0,0:0:0:0:
125,354,142846,2,0,P|131:299|114:247,1,110,2|8,0:0|0:0,0:0:0:0:
42,179,143446,1,2,0:0:0:0:
42,179,143596,2,0,L|139:127,1,110,0|0,0:0|0:0,0:0:0:0:
185,110,144046,6,0,P|234:135|288:132,1,110,6|8,0:0|0:0,0:0:0:0:
332,111,144496,2,0,P|386:97|440:105,1,110
482,132,144946,1,8,0:0:0:0:
470,230,145246,2,0,L|480:339,1,110,2|8,0:0|0:0,0:0:0:0:
384,362,145846,1,2,0:0:0:0:
384,362,145996,2,0,P|335:336|281:329,1,110,0|0,0:0|0:0,0:0:0:0:
233,343,146446,6,0,L|240:234,1,110,2|8,0:0|0:0,0:0:0:0:
237,183,146896,2,0,P|190:211|135:215,1,110,0|0,0:0|0:0,0:0:0:0:
87,205,147346,1,8,0:0:0:0:
73,106,147646,2,0,L|178:55,1,110,2|8,0:0|0:0,0:0:0:0:
268,34,148246,1,2,0:0:0:0:
356,77,148546,1,8,0:0:0:0:
387,171,148846,6,0,L|377:303,1,110,2|8,0:0|0:0,0:0:0:0:
303,344,149446,2,0,L|279:222,1,110,2|8,0:0|0:0,0:0:0:0:
237,147,150046,2,0,P|210:194|161:218,1,110,2|8,0:0|0:0,0:0:0:0:
65,191,150646,2,0,P|91:143|140:119,1,110,2|8,0:0|0:0,0:0:0:0:
256,192,151246,12,2,153646,0:0:0:0:
247,91,163246,6,0,L|368:89,1,110,2|8,0:0|0:0,0:0:0:0:
437,147,163846,2,0,L|328:208,1,110,8|8,0:0|0:0,0:0:0:0:
255,250,164446,1,2,0:0:0:0:
156,245,164746,2,0,P|174:191|215:159,2,110,8|8|8,0:0|0:0|0:0,0:0:0:0:
190,336,165646,6,0,P|135:340|86:316,1,110,8|0,0:0|0:0,0:0:0:0:
42,227,166246,2,0,L|71:112,1,110,0|8,0:0|0:0,0:0:0:0:
102,26,166846,1,8,0:0:0:0:
194,61,167146,2,0,P|247:71|301:61,1,110,8|8,0:0|0:0,0:0:0:0:
394,27,167746,1,8,0:0:0:0:
456,103,168046,6,0,L|470:220,2,110,2|0|0,0:0|0:0|0:0,0:0:0:0:
411,126,168796,2,0,P|361:147|307:147,1,110,0|0,0:0|0:0,0:0:0:0:
257,139,169246,1,0,0:0:0:0:
159,122,169546,2,0,L|169:254,2,110,0|0|0,0:0|3:0|3:0,0:0:0:0:
224,47,170446,6,0,L|351:38,1,110,4|0,0:0|0:0,0:0:0:0:
432,40,171046,2,0,P|420:93|437:144,1,110,4|0,0:0|0:0,0:0:0:0:
483,232,171646,2,0,L|356:238,1,110,4|0,0:0|0:0,0:0:0:0:
273,235,172246,2,0,P|289:287|285:341,1,110,4|0,0:1|0:0,0:0:0:0:
186,355,172846,6,0,P|169:302|173:248,1,110,6|8,0:0|0:0,0:0:0:0:
179,198,173296,2,0,L|58:237,1,110,0|0,0:0|0:0,0:0:0:0:
26,246,173746,1,8,0:0:0:0:
17,147,174046,2,0,P|50:103|62:50,1,110,2|8,0:0|0:0,0:0:0:0:
159,29,174646,2,0,L|290:44,1,110,2|8,0:0|0:0,0:0:0:0:
366,57,175246,6,0,P|364:112|393:158,1,110,2|8,0:0|0:0,0:0:0:0:
436,182,175696,2,0,L|334:230,1,110,0|0,0:0|0:0,0:0:0:0:
294,255,176146,1,8,0:0:0:0:
199,284,176446,2,0,P|207:229|199:175,1,110,2|8,0:0|0:0,0:0:0:0:
144,93,177046,1,2,0:0:0:0:
144,93,177196,2,0,L|260:70,1,110,0|0,0:0|0:0,0:0:0:0:
301,67,177646,6,0,L|421:96,1,110,2|8,0:0|0:0,0:0:0:0:
455,108,178096,2,0,P|422:151|422:205,1,110,0|0,0:0|0:0,0:0:0:0:
447,249,178546,1,8,0:0:0:0:
500,332,178846,2,0,L|390:342,1,110,2|8,0:0|0:0,0:0:0:0:
341,345,179296,2,0,P|327:291|292:243,1,110
257,216,179746,1,8,0:0:0:0:
160,194,180046,6,0,P|107:198|41:223,1,110,2|8,0:0|0:0,0:0:0:0:
59,317,180646,1,2,0:0:0:0:
59,317,180796,2,0,P|111:335|166:341,1,110,0|0,0:0|0:0,0:0:0:0:
212,326,181246,2,0,P|267:325|321:338,1,110,2|8,0:0|0:0,0:0:0:0:
416,365,181846,1,2,0:0:0:0:
416,365,181996,2,0,L|407:255,1,110,0|0,0:0|0:0,0:0:0:0:
399,206,182446,6,0,P|345:217|293:201,1,110,6|8,0:0|0:0,0:0:0:0:
258,166,182896,2,0,L|253:299,1,110,0|0,0:0|0:0,0:0:0:0:
254,325,183346,1,8,0:0:0:0:
162,362,183646,2,0,P|107:364|52:356,1,110,2|8,0:0|0:0,0:0:0:0:
40,258,184246,1,2,0:0:0:0:
40,258,184396,2,0,L|32:148,1,110,0|0,0:0|0:0,0:0:0:0:
28,97,184846,6,0,P|81:111|135:100,1,110,2|8,0:0|0:0,0:0:0:0:
164,60,185296,2,0,P|217:49|270:61,1,110,0|0,0:0|0:0,0:0:0:0:
312,88,185746,1,8,0:0:0:0:
395,140,186046,2,0,L|372:255,1,110,2|8,0:0|0:0,0:0:0:0:
351,344,186646,1,2,0:0:0:0:
256,313,186946,1,8,0:0:0:0:
158,330,187246,6,0,P|163:275|154:221,1,110,2|8,0:0|0:0,0:0:0:0:
75,160,187846,2,0,L|176:116,1,110,2|8,0:0|0:0,0:0:0:0:
269,81,188446,2,0,P|281:135|315:177,1,110,2|8,0:0|0:0,0:0:0:0:
360,265,189046,2,0,L|233:261,1,110,2|0,0:0|0:0,0:0:0:0:
256,192,189646,12,8,191746,0:0:0:0:
