osu file format v14

[General]
AudioFilename: BESTie - Excuse Me.mp3
AudioLeadIn: 0
PreviewTime: 66346
Countdown: 0
SampleSet: Soft
StackLeniency: 0.7
Mode: 0
LetterboxInBreaks: 0
WidescreenStoryboard: 0

[Editor]
Bookmarks: 43246,86446,110446,134446,153646,172846,182446
DistanceSpacing: 1.6
BeatDivisor: 4
GridSize: 4
TimelineZoom: 2.2

[Metadata]
Title:Excuse Me
TitleUnicode:Excuse Me
Artist:BESTie
ArtistUnicode:베스티
Creator:Euny
Version:Insane
Source:
Tags:Natsu Shadren kpop k-pop 혜연 유지 다혜 해령 Hye Yeon U ji Da Hye Hae Ryeong Love Emotion YNB Entertainment
BeatmapID:915924
BeatmapSetID:423925

[Difficulty]
HPDrainRate:6
CircleSize:4
OverallDifficulty:7
ApproachRate:9
SliderMultiplier:1.6
SliderTickRate:1

[Events]
//Background and Video events
0,0,"EX.jpg",0,0
Video,0,"[MV] BESTie-Excuse Me.avi"
//Break Periods
2,153946,162646
//Storyboard Layer 0 (Background)
//Storyboard Layer 1 (Fail)
//Storyboard Layer 2 (Pass)
//Storyboard Layer 3 (Foreground)
//Storyboard Sound Samples

[TimingPoints]
4846,300,4,2,1,60,1,0
4846,-125,4,2,1,60,0,0
6796,-125,4,2,83,40,0,0
7096,-125,4,2,1,10,0,0
7246,-125,4,2,1,60,0,0
9196,-125,4,2,95,40,0,0
9571,-125,4,2,1,10,0,0
9646,-125,4,2,1,60,0,0
13996,-125,4,2,96,40,0,0
14221,-125,4,2,1,10,0,0
14296,-125,4,2,1,60,0,0
14446,-111.111111111111,4,2,1,60,0,0
19246,-111.111111111111,4,2,91,40,0,0
19396,-111.111111111111,4,2,91,10,0,0
19546,-111.111111111111,4,2,1,60,0,0
21046,-142.857142857143,4,2,1,60,0,0
21646,-111.111111111111,4,2,1,60,0,0
24046,-100,4,2,2,60,0,0
24271,-100,4,2,1,10,0,0
24346,-100,4,2,2,60,0,0
43246,-125,4,2,2,60,0,0
62446,-111.111111111111,4,2,1,60,0,0
63646,-100,4,2,1,60,0,0
64846,-90.9090909090909,4,2,1,60,0,0
66346,-90.9090909090909,4,1,2,60,0,0
66496,-90.9090909090909,4,2,1,60,0,0
67246,-90.9090909090909,4,2,2,70,0,1
74446,-90.9090909090909,4,2,2,60,0,0
76846,-90.9090909090909,4,2,2,70,0,1
84046,-90.9090909090909,4,2,2,60,0,0
86446,-111.111111111111,4,2,83,40,0,0
88246,-142.857142857143,4,2,83,40,0,0
88846,-111.111111111111,4,2,1,60,0,0
91246,-100,4,2,2,60,0,0
104746,-125,4,2,2,60,0,0
105646,-100,4,2,2,60,0,0
110446,-125,4,2,2,60,0,0
129646,-111.111111111111,4,2,1,60,0,0
130846,-100,4,2,1,60,0,0
132046,-90.9090909090909,4,2,1,60,0,0
133546,-90.9090909090909,4,1,2,60,0,0
133696,-90.9090909090909,4,2,1,60,0,0
134446,-90.9090909090909,4,2,2,70,0,1
141646,-90.9090909090909,4,2,2,60,0,0
144046,-90.9090909090909,4,2,2,70,0,1
151246,-90.9090909090909,4,2,2,60,0,0
153646,-90.9090909090909,4,2,1,60,0,0
163246,-166.666666666667,4,2,1,60,0,0
169846,-166.666666666667,4,2,2,60,0,0
170446,-125,4,2,1,40,0,0
171046,-125,4,2,1,50,0,0
171646,-125,4,2,1,60,0,0
172246,-66.6666666666667,4,2,2,70,0,0
172846,-90.9090909090909,4,2,2,70,0,1
180046,-90.9090909090909,4,2,2,60,0,0
182446,-90.9090909090909,4,2,2,70,0,1
189646,-90.9090909090909,4,2,2,60,0,0
191746,-90.9090909090909,4,2,2,75,0,0

[Colours]
Combo1 : 255,45,77
Combo2 : 74,74,255
Combo3 : 240,253,85
Combo4 : 255,83,199

[HitObjects]
395,324,4846,5,6,0:0:0:0:
384,156,5146,2,0,L|369:79,1,64,8|0,0:0|0:0,0:0:0:0:
433,228,5446,2,0,B|369:264|364:219|300:247,1,128,0|8,0:0|0:0,0:0:0:0:
462,152,6046,6,0,P|439:94|375:75,1,128,0|8,0:0|0:0,0:0:0:0:
433,228,6496,2,0,P|473:231|518:215,1,64,0|0,0:0|0:0,0:0:0:0:
348,172,6796,2,0,P|356:241|360:315,1,128,4|0,0:0|0:0,0:0:0:0:
328,370,7246,5,4,0:0:0:0:
293,91,7546,2,0,B|381:95,1,64,8|0,0:0|0:0,0:0:0:0:
475,47,7846,2,0,B|406:29,1,64,0|0,0:0|0:0,0:0:0:0:
334,13,8146,1,8,0:0:0:0:
279,166,8296,6,0,B|348:172|348:172|233:224,1,192,0|8,0:0|0:0,0:0:0:0:
218,226,9196,2,0,B|182:158|221:111|221:111|154:157,1,192,4|4,0:0|0:0,0:0:0:0:
8,235,9946,1,8,0:0:0:0:
94,112,10246,2,0,B|128:98|159:53|159:53|194:101,1,128,0|8,0:0|0:0,0:0:0:0:
208,170,10696,1,0,0:0:0:0:
24,151,10846,6,0,P|15:104|27:72,1,64,0|0,0:0|0:0,0:0:0:0:
93,192,11146,2,0,P|71:215|41:226,1,64,8|0,0:0|0:0,0:0:0:0:
94,112,11446,2,0,L|212:172,1,128,0|8,0:0|0:0,0:0:0:0:
343,287,12046,6,0,L|359:209,1,64,4|0,0:0|0:0,0:0:0:0:
274,122,12346,2,0,L|294:200,1,64,8|0,0:0|0:0,0:0:0:0:
362,285,12646,2,0,L|423:267,1,64,0|0,0:0|0:0,0:0:0:0:
346,115,12946,2,0,L|285:133,1,64,8|0,0:0|0:0,0:0:0:0:
414,187,13246,6,0,P|432:67|312:21,1,256,0|0,0:0|0:0,0:0:0:0:
323,39,13996,2,0,B|368:25|368:25|411:25|411:25|459:8,1,128,4|0,0:0|0:0,0:0:0:0:
414,187,14446,6,0,L|329:208,1,71.9999978027344,2|0,0:0|0:0,0:0:0:0:
262,226,14746,1,8,0:0:0:0:
247,21,15046,2,0,P|245:58|264:96,1,71.9999978027344,2|0,0:0|0:0,0:0:0:0:
336,122,15346,1,8,0:0:0:0:
336,122,15496,1,0,0:0:0:0:
173,84,15646,6,0,L|20:91,1,143.999995605469,2|8,0:0|0:0,0:0:0:0:
119,202,16096,2,0,L|262:226,1,143.999995605469,0|0,0:0|0:0,0:0:0:0:
361,324,16546,2,0,L|278:328,1,71.9999978027344,8|0,0:0|0:0,0:0:0:0:
208,330,16846,5,2,0:0:0:0:
441,330,17146,2,0,P|439:294|419:264,1,71.9999978027344,8|0,0:0|0:0,0:0:0:0:
343,242,17446,1,2,0:0:0:0:
154,273,17746,1,8,0:0:0:0:
208,330,17896,1,0,0:0:0:0:
228,251,18046,6,0,B|228:198|180:154|180:154|230:164,1,143.999995605469,2|8,0:0|0:0,0:0:0:0:
289,301,18496,2,0,B|256:331|207:330|207:330|267:366,1,143.999995605469,0|0,0:0|0:0,0:0:0:0:
362,338,18946,2,0,P|369:302|362:267,1,71.9999978027344,8|0,0:0|0:0,0:0:0:0:
228,251,19246,6,0,L|140:253,1,71.9999978027344,4|0,0:0|0:0,0:0:0:0:
70,252,19546,1,8,0:0:0:0:
286,192,19846,1,2,0:0:0:0:
319,279,19996,1,0,0:0:0:0:
378,205,20146,2,0,L|374:117,1,71.9999978027344,8|0,0:0|0:0,0:0:0:0:
318,24,20446,6,0,L|303:109,1,71.9999978027344,2|0,0:0|0:0,0:0:0:0:
286,192,20746,1,8,0:0:0:0:
286,192,20896,1,0,0:0:0:0:
216,72,21046,6,0,L|228:136,1,55.9999982910157,0|0,0:0|0:0,0:0:0:0:
147,233,21346,2,0,L|154:166,1,55.9999982910157,0|0,0:0|0:0,0:0:0:0:
216,72,21646,5,8,3:3:0:0:
236,101,21721,1,0,3:3:0:0:
265,122,21796,1,0,3:3:0:0:
299,132,21871,1,0,3:3:0:0:
335,131,21946,2,0,L|381:114,3,35.9999989013672,0|0|0|0,3:3|3:3|3:3|3:3,0:0:0:0:
413,102,22246,5,4,3:3:0:0:
448,109,22321,1,0,3:3:0:0:
478,128,22396,1,0,3:3:0:0:
498,158,22471,1,0,3:3:0:0:
505,193,22546,2,0,L|500:255,3,35.9999989013672,0|0|0|0,3:3|3:3|3:3|3:3,0:0:0:0:
495,277,22846,5,8,3:3:0:0:
459,275,22921,1,0,3:3:0:0:
423,281,22996,1,0,3:3:0:0:
390,294,23071,1,0,3:3:0:0:
360,315,23146,2,0,L|293:316,3,35.9999989013672,0|0|0|0,3:3|3:3|3:3|3:3,0:0:0:0:
269,321,23446,6,0,P|275:286|267:251,1,71.9999978027344,4|0,0:0|0:0,0:0:0:0:
121,306,23746,2,0,L|215:286,1,71.9999978027344,0|0,0:0|0:0,0:0:0:0:
61,361,24046,6,0,P|41:288|91:230,1,160,6|2,0:0|0:0,0:0:0:0:
171,240,24496,1,0,0:0:0:0:
88,155,24646,2,0,L|1:174,1,80,8|0,0:0|0:0,0:0:0:0:
120,81,24946,1,2,0:0:0:0:
201,319,25246,6,0,B|258:298|256:225|256:225|283:291,1,160,2|2,0:0|0:0,0:0:0:0:
301,343,25696,1,2,0:0:0:0:
257,225,25846,2,0,L|167:247,1,80,8|0,0:0|0:0,0:0:0:0:
96,264,26146,1,0,0:0:0:0:
96,264,26296,1,0,0:0:0:0:
240,201,26446,6,0,L|214:95,1,80,2|0,0:0|0:0,0:0:0:0:
138,24,26746,2,0,L|135:110,1,80,2|0,0:0|0:0,0:0:0:0:
96,264,27046,1,8,0:0:0:0:
317,134,27346,2,0,L|423:127,1,80,2|0,0:0|0:0,0:0:0:0:
312,225,27646,6,0,P|249:194|236:98,1,160,2|2,0:0|0:0,0:0:0:0:
296,53,28096,1,2,0:0:0:0:
158,175,28246,2,0,L|65:196,1,80,8|0,0:0|0:0,0:0:0:0:
18,135,28546,1,0,0:0:0:0:
18,135,28696,1,0,0:0:0:0:
181,173,28846,6,0,B|195:237|151:290|151:290|114:253,1,160,2|2,0:0|0:0,0:0:0:0:
87,196,29296,1,0,0:0:0:0:
258,210,29446,2,0,L|346:197,1,80,8|0,0:0|0:0,0:0:0:0:
417,187,29746,1,2,0:0:0:0:
417,187,29896,1,0,0:0:0:0:
303,290,30046,6,0,B|271:271|258:210|258:210|236:254|204:266,1,160,2|2,0:0|0:0,0:0:0:0:
149,302,30496,1,0,0:0:0:0:
210,146,30646,2,0,P|247:127|285:130,1,80,8|0,0:0|0:0,0:0:0:0:
341,192,30946,1,2,0:0:0:0:
341,192,31096,1,2,0:0:0:0:
289,50,31246,6,0,L|206:24,1,80,2|0,0:0|0:0,0:0:0:0:
355,107,31546,2,0,L|443:69,1,80,2|0,0:0|0:0,0:0:0:0:
508,38,31846,1,8,0:0:0:0:
314,179,32146,1,2,0:0:0:0:
314,179,32296,1,0,0:0:0:0:
204,47,32446,6,0,B|202:102|250:128|250:128|163:129,1,160,2|2,0:0|0:0,0:0:0:0:
124,78,32896,1,0,0:0:0:0:
289,50,33046,2,0,L|368:31,1,80,8|0,0:0|0:0,0:0:0:0:
471,142,33346,2,0,L|385:122,1,80,2|0,0:0|0:0,0:0:0:0:
190,130,33646,6,0,P|143:78|206:48,1,160,2|2,0:0|0:0,0:0:0:0:
129,194,34096,2,0,P|73:138|68:58,1,160,2|0,0:0|0:0,0:0:0:0:
216,212,34546,2,0,P|285:219|274:150,1,160,2|0,0:0|0:0,0:0:0:0:
196,297,34996,2,0,P|273:310|343:274,1,160,2|0,0:0|0:0,0:0:0:0:
376,193,35446,5,8,0:0:0:0:
376,193,35596,1,0,0:0:0:0:
286,307,35746,2,0,B|274:349|274:349|246:378,1,80,2|0,0:0|0:0,0:0:0:0:
352,268,36046,6,0,L|514:283,1,160,2|0,0:0|0:0,0:0:0:0:
456,140,36496,2,0,L|284:180,1,160,2|0,0:0|0:0,0:0:0:0:
180,264,36946,2,0,P|246:230|234:156,1,160,2|0,0:0|0:0,0:0:0:0:
160,129,37396,5,0,3:0:0:0:
298,93,37546,2,0,L|397:71,1,80,0|0,3:0|0:0,0:0:0:0:
493,160,37846,2,0,P|477:113|481:73,1,80,8|0,0:0|0:0,0:0:0:0:
509,11,38146,1,2,0:0:0:0:
257,98,38446,6,0,L|91:133,1,160,2|2,0:0|0:0,0:0:0:0:
195,24,38896,2,0,P|234:27|263:53,1,80,0|8,3:0|0:0,0:0:0:0:
207,310,39346,1,0,3:0:0:0:
207,310,39496,1,0,0:0:0:0:
288,339,39646,6,0,B|303:285|262:243|262:243|328:259,1,160,2|2,0:0|0:0,0:0:0:0:
226,171,40096,2,0,P|194:195|180:231,1,80,0|0,0:0|0:0,0:0:0:0:
207,310,40396,1,0,0:0:0:0:
116,183,40546,2,0,L|26:213,1,80,2|0,0:0|0:0,0:0:0:0:
25,290,40846,5,0,3:0:0:0:
25,290,40921,1,0,3:0:0:0:
25,290,40996,1,0,3:0:0:0:
119,343,41146,2,0,L|200:335,1,80,2|0,0:0|0:0,0:0:0:0:
301,337,41446,2,0,P|286:286|298:245,1,80,8|0,0:0|0:0,0:0:0:0:
355,213,41746,1,2,0:0:0:0:
219,218,41896,1,0,0:0:0:0:
430,244,42046,6,0,P|426:167|359:131,2,160,0|0|0,0:0|3:0|3:0,0:0:0:0:
291,75,42946,1,0,0:0:0:0:
366,299,43246,6,0,P|430:329|494:301,1,128,6|2,0:0|0:0,0:0:0:0:
349,221,43696,2,0,L|281:240,2,64,0|8|0,0:0|0:0|0:0,0:0:0:0:
430,244,44146,1,2,0:0:0:0:
430,244,44296,1,0,0:0:0:0:
290,316,44446,6,0,P|232:295|210:237,1,128,2|2,0:0|0:0,0:0:0:0:
275,110,44896,2,0,L|287:242,1,128,0|0,0:0|0:0,0:0:0:0:
290,316,45346,1,2,0:0:0:0:
290,316,45496,1,0,0:0:0:0:
376,216,45646,6,0,B|447:193,1,64,2|0,0:0|0:0,0:0:0:0:
511,138,45946,2,0,B|450:118,1,64,2|0,0:0|0:0,0:0:0:0:
313,119,46246,2,0,B|384:96,1,64,8|0,0:0|0:0,0:0:0:0:
448,41,46546,2,0,B|387:21,1,64,2|0,0:0|0:0,0:0:0:0:
445,118,46846,6,0,P|476:113|502:95,1,64,2|0,0:0|0:0,0:0:0:0:
387,163,47146,2,0,L|388:243,1,64,2|0,0:0|0:0,0:0:0:0:
388,305,47446,1,8,0:0:0:0:
388,305,47596,1,0,0:0:0:0:
300,233,47746,2,0,L|229:230,1,64,2|0,0:0|0:0,0:0:0:0:
331,310,48046,6,0,P|375:266|375:204,1,128,2|2,0:0|0:0,0:0:0:0:
269,158,48496,2,0,P|224:201|224:263,1,128,0|0,0:0|0:0,0:0:0:0:
255,344,48946,1,2,0:0:0:0:
351,174,49246,6,0,P|350:142|341:111,1,64,2|0,0:0|0:0,0:0:0:0:
265,71,49546,1,2,0:0:0:0:
409,67,49696,2,0,P|431:126|429:201,1,128,0|0,0:0|0:0,0:0:0:0:
378,253,50146,1,2,0:0:0:0:
378,253,50296,1,2,0:0:0:0:
265,182,50446,6,0,L|187:205,1,64,2|0,0:0|0:0,0:0:0:0:
103,252,50746,2,0,P|117:223|117:191,1,64,2|0,0:0|0:0,0:0:0:0:
44,94,51046,2,0,L|111:72,1,64,8|0,0:0|0:0,0:0:0:0:
240,39,51346,2,0,L|161:13,1,64,2|0,0:0|0:0,0:0:0:0:
223,119,51646,6,0,P|254:120|283:107,1,64,0|0,0:0|0:0,0:0:0:0:
326,37,51946,1,0,0:0:0:0:
195,209,52246,2,0,L|203:284,1,64,0|0,0:0|0:0,0:0:0:0:
123,360,52546,2,0,L|116:296,1,64,0|0,0:0|0:0,0:0:0:0:
108,214,52846,5,2,0:0:0:0:
212,308,53146,2,0,P|242:316|273:309,1,64,2|0,0:0|0:0,0:0:0:0:
340,261,53446,1,8,0:0:0:0:
95,265,53746,1,2,0:0:0:0:
95,265,53896,1,2,0:0:0:0:
39,162,54046,6,0,P|92:128|156:142,1,128,2|2,0:0|0:0,0:0:0:0:
210,216,54496,2,0,L|252:155,2,64,0|8|0,0:0|0:0|0:0,0:0:0:0:
108,214,54946,1,2,0:0:0:0:
108,214,55096,1,0,0:0:0:0:
232,301,55246,6,0,P|261:289|280:264,1,64,2|0,0:0|0:0,0:0:0:0:
298,178,55546,1,2,0:0:0:0:
298,178,55696,1,0,0:0:0:0:
374,245,55846,2,0,P|361:273|358:305,1,64,8|0,0:0|0:0,0:0:0:0:
454,218,56146,2,0,P|439:189|413:171,1,64,2|0,0:0|0:0,0:0:0:0:
436,299,56446,6,0,P|467:302|496:290,1,64,2|0,0:0|0:0,0:0:0:0:
374,245,56746,2,0,L|308:265,1,64,2|0,0:0|0:0,0:0:0:0:
235,289,57046,1,8,0:0:0:0:
392,164,57346,1,8,0:0:0:0:
392,164,57646,6,0,P|444:196|454:257,1,128,2|2,0:0|0:0,0:0:0:0:
388,292,58096,1,0,0:0:0:0:
472,164,58246,2,0,L|474:74,1,64,8|0,0:0|0:0,0:0:0:0:
476,16,58546,1,2,0:0:0:0:
476,16,58696,1,0,0:0:0:0:
393,93,58846,6,0,B|333:122|333:78|267:97,1,128,2|2,0:0|0:0,0:0:0:0:
229,164,59296,1,0,0:0:0:0:
394,155,59446,2,0,P|398:123|392:92,1,64,8|0,0:0|0:0,0:0:0:0:
315,191,59746,2,0,P|332:217|359:234,1,64,2|2,0:0|0:0,0:0:0:0:
476,304,60046,6,0,L|397:341,1,64,2|0,0:0|0:0,0:0:0:0:
272,314,60346,2,0,L|334:278,1,64,2|0,0:0|0:0,0:0:0:0:
440,230,60646,2,0,P|475:178|467:115,1,128,8|2,0:0|0:0,0:0:0:0:
403,70,61096,1,0,0:0:0:0:
306,109,61246,6,0,L|319:158,2,42.6666666666667,0|0|0,3:0|3:0|3:0,0:0:0:0:
241,184,61546,2,0,L|233:237,2,42.6666666666667,0|0|0,3:0|3:0|3:0,0:0:0:0:
153,232,61846,2,0,L|127:271,2,42.6666666666667,0|0|0,3:0|3:0|3:0,0:0:0:0:
66,203,62146,2,0,L|20:223,2,42.6666666666667,0|0|0,3:0|3:0|3:0,0:0:0:0:
37,94,62446,6,0,L|192:127,1,143.999995605469,4|2,0:1|0:0,0:0:0:0:
250,153,62896,1,2,0:0:0:0:
114,166,63046,2,0,P|103:133|108:97,1,71.9999978027344,8|0,0:0|0:0,0:0:0:0:
243,83,63346,2,0,P|254:116|249:152,1,71.9999978027344,2|0,0:0|0:0,0:0:0:0:
192,28,63646,6,0,L|363:64,1,160,2|2,0:0|0:0,0:0:0:0:
425,97,64096,1,2,0:0:0:0:
289,119,64246,2,0,P|269:83|271:38,1,80,8|0,0:0|0:0,0:0:0:0:
416,20,64546,2,0,P|430:57|422:102,1,80,2|0,0:0|0:0,0:0:0:0:
328,234,64846,6,0,P|362:165|421:215,1,176.000005371094,0|0,3:0|3:0,0:0:0:0:
388,290,65296,1,0,3:0:0:0:
255,287,65446,2,0,P|239:247|244:201,1,88.000002685547,0|0,3:0|3:0,0:0:0:0:
401,180,65746,2,0,P|417:220|411:265,1,88.000002685547,0|0,3:0|0:0,0:0:0:0:
346,112,66046,6,0,L|441:86,1,88.000002685547,0|0,3:0|3:0,0:0:0:0:
313,34,66346,2,0,L|221:23,1,88.000002685547,4|0,3:1|3:0,0:0:0:0:
114,22,66646,1,0,3:0:0:0:
129,48,66721,1,0,3:0:0:0:
133,78,66796,1,0,3:0:0:0:
126,108,66871,1,0,3:0:0:0:
107,132,66946,2,0,P|69:163|22:159,1,88.000002685547,0|0,0:0|0:0,0:0:0:0:
114,22,67246,6,0,L|207:46,1,88.000002685547,6|0,0:0|0:0,0:0:0:0:
271,73,67546,1,8,0:0:0:0:
107,132,67696,2,0,P|27:92|38:10,1,176.000005371094,0|0,0:0|0:0,0:0:0:0:
114,22,68146,1,8,0:0:0:0:
135,254,68446,6,0,L|158:357,1,88.000002685547,2|0,0:0|0:0,0:0:0:0:
281,384,68746,2,0,B|296:288,1,88.000002685547,8|0,0:0|0:0,0:0:0:0:
310,219,69046,1,2,0:0:0:0:
310,219,69196,1,0,0:0:0:0:
407,300,69346,2,0,P|430:264|436:220,1,88.000002685547,8|0,0:0|0:0,0:0:0:0:
288,188,69646,6,0,L|193:201,1,88.000002685547,2|0,0:0|0:0,0:0:0:0:
120,213,69946,1,8,0:0:0:0:
278,102,70096,2,0,P|355:135|365:218,1,176.000005371094,0|0,0:0|0:0,0:0:0:0:
301,267,70546,1,8,0:0:0:0:
223,34,70846,6,0,L|320:23,1,88.000002685547,2|0,0:0|0:0,0:0:0:0:
445,125,71146,2,0,L|350:112,1,88.000002685547,8|0,0:0|0:0,0:0:0:0:
278,102,71446,1,2,0:0:0:0:
278,102,71596,1,0,0:0:0:0:
195,199,71746,2,0,P|233:222|275:229,1,88.000002685547,8|0,0:0|0:0,0:0:0:0:
164,122,72046,6,0,P|129:148|112:189,1,88.000002685547,2|0,0:0|0:0,0:0:0:0:
145,259,72346,1,8,0:0:0:0:
247,133,72496,2,0,P|216:54|133:41,1,176.000005371094,0|0,0:0|0:0,0:0:0:0:
76,104,72946,1,8,0:0:0:0:
195,199,73096,6,0,P|280:212|328:141,1,176.000005371094,0|0,0:0|0:0,0:0:0:0:
304,67,73546,1,8,0:0:0:0:
408,183,73696,2,0,B|419:275,1,88.000002685547,0|2,0:0|0:0,0:0:0:0:
483,371,73996,2,0,B|499:279,1,88.000002685547,0|8,0:0|0:0,0:0:0:0:
278,216,74446,6,0,P|233:286|149:285,1,176.000005371094,2|8,0:0|0:0,0:0:0:0:
101,218,74896,1,0,0:0:0:0:
101,218,75046,1,2,0:0:0:0:
167,113,75196,2,0,L|253:135,1,88.000002685547,0|8,0:0|0:0,0:0:0:0:
328,164,75496,1,0,0:0:0:0:
442,184,75646,6,0,P|439:140|424:99,1,88.000002685547,2|0,0:0|0:0,0:0:0:0:
302,40,75946,2,0,P|304:83|319:124,1,88.000002685547,8|0,0:0|0:0,0:0:0:0:
430,207,76246,1,2,0:0:0:0:
430,207,76396,1,0,0:0:0:0:
338,274,76546,2,0,L|251:292,1,88.000002685547,8|0,0:0|0:0,0:0:0:0:
412,318,76846,6,0,P|426:276|419:234,1,88.000002685547,6|0,0:0|0:0,0:0:0:0:
351,189,77146,1,8,0:0:0:0:
261,324,77296,2,0,B|239:290|255:232|255:232|213:270|181:285,1,176.000005371094,0|0,0:0|0:0,0:0:0:0:
122,315,77746,1,8,0:0:0:0:
283,153,78046,6,0,P|319:177|338:216,1,88.000002685547,2|0,0:0|0:0,0:0:0:0:
194,153,78346,2,0,P|205:111|235:79,1,88.000002685547,8|0,0:0|0:0,0:0:0:0:
317,79,78646,1,2,0:0:0:0:
317,79,78796,1,0,0:0:0:0:
165,36,78946,2,0,L|69:50,1,88.000002685547,8|0,0:0|0:0,0:0:0:0:
115,183,79246,6,0,P|137:220|176:237,1,88.000002685547,2|0,0:0|0:0,0:0:0:0:
253,218,79546,1,8,0:0:0:0:
339,100,79696,2,0,B|356:34|356:34|373:158,1,176.000005371094,0|0,0:0|0:0,0:0:0:0:
382,221,80146,1,8,0:0:0:0:
169,313,80446,6,0,B|68:331,1,88.000002685547,2|0,0:0|0:0,0:0:0:0:
252,335,80746,2,0,P|250:291|229:253,1,88.000002685547,8|0,0:0|0:0,0:0:0:0:
152,230,81046,1,2,0:0:0:0:
152,230,81196,1,0,0:0:0:0:
306,223,81346,2,0,L|394:233,1,88.000002685547,8|0,0:0|0:0,0:0:0:0:
259,295,81646,6,0,P|220:219|261:145,1,176.000005371094,2|8,0:0|0:0,0:0:0:0:
339,117,82096,1,0,0:0:0:0:
220,77,82246,2,0,L|112:104,1,88.000002685547,2|0,0:0|0:0,0:0:0:0:
31,165,82546,2,0,L|129:181,1,88.000002685547,8|0,0:0|0:0,0:0:0:0:
222,244,82846,6,0,P|222:201|239:161,1,88.000002685547,2|0,0:0|0:0,0:0:0:0:
309,118,83146,1,8,0:0:0:0:
240,331,83446,2,0,P|194:325|147:333,1,88.000002685547,2|0,0:0|0:0,0:0:0:0:
84,366,83746,1,8,0:0:0:0:
322,370,84046,6,0,L|311:274,1,88.000002685547,2|0,0:0|0:0,0:0:0:0:
233,157,84346,2,0,L|222:250,1,88.000002685547,8|0,0:0|0:0,0:0:0:0:
207,324,84646,1,2,0:0:0:0:
207,324,84796,1,0,0:0:0:0:
313,227,84946,2,0,B|399:213,1,88.000002685547,8|0,0:0|0:0,0:0:0:0:
482,145,85246,6,0,L|456:87,2,58.6666684570313,0|0|0,3:0|3:0|3:0,0:0:0:0:
376,122,85546,2,0,L|323:91,2,58.6666684570313,0|0|0,3:0|3:0|3:0,0:0:0:0:
296,191,85846,2,0,L|227:196,2,58.6666684570313,0|0|0,3:0|3:0|3:0,0:0:0:0:
266,294,86146,2,0,L|215:329,2,58.6666684570313,0|0|0,3:0|3:0|3:0,0:0:0:0:
365,331,86446,6,0,P|372:295|366:260,1,71.9999978027344,4|0,0:0|0:0,0:0:0:0:
308,202,86746,1,0,0:0:0:0:
89,176,87046,1,0,0:0:0:0:
181,188,87196,2,0,P|180:153|163:122,1,71.9999978027344,0|0,0:0|0:0,0:0:0:0:
86,92,87496,1,0,0:0:0:0:
86,92,87796,6,0,L|85:175,1,71.9999978027344,0|0,0:0|0:0,0:0:0:0:
83,248,88096,1,0,0:0:0:0:
168,332,88246,6,0,L|223:305,1,55.9999982910157,0|0,0:0|0:0,0:0:0:0:
289,216,88546,2,0,L|224:207,1,55.9999982910157,0|0,0:0|0:0,0:0:0:0:
120,170,88846,5,8,3:0:0:0:
149,150,88921,1,0,3:0:0:0:
167,120,88996,1,0,3:0:0:0:
172,84,89071,1,0,3:0:0:0:
161,50,89146,2,0,L|213:59,3,35.9999989013672,0|0|0|0,3:0|3:0|3:0|3:0,0:0:0:0:
232,61,89446,5,4,3:0:0:0:
267,67,89521,1,0,3:0:0:0:
302,64,89596,1,0,3:0:0:0:
336,51,89671,1,0,3:0:0:0:
365,29,89746,2,0,L|399:72,3,35.9999989013672,0|0|0|0,3:0|3:0|3:0|3:0,0:0:0:0:
411,84,90046,5,8,3:0:0:0:
422,118,90121,1,0,3:0:0:0:
423,154,90196,1,0,3:0:0:0:
412,188,90271,1,0,3:0:0:0:
392,218,90346,2,0,L|359:257,3,35.9999989013672,0|0|0|0,3:0|3:0|3:0|3:0,0:0:0:0:
335,261,90646,6,0,P|300:257|268:241,1,71.9999978027344,4|0,3:0|3:0,0:0:0:0:
220,178,90946,1,0,3:0:0:0:
412,188,91246,6,0,L|424:272,1,80,6|0,0:0|0:0,0:0:0:0:
487,361,91546,2,0,L|505:271,1,80,2|0,0:0|0:0,0:0:0:0:
512,203,91846,1,8,0:0:0:0:
512,203,91996,1,0,0:0:0:0:
409,276,92146,2,0,P|375:284|332:275,1,80,2|0,0:0|0:0,0:0:0:0:
259,166,92446,6,0,L|259:253,1,80,2|0,0:0|0:0,0:0:0:0:
186,122,92746,2,0,P|210:96|259:80,1,80,2|0,0:0|0:0,0:0:0:0:
101,135,93046,2,0,P|102:100|128:59,1,80,8|0,0:0|0:0,0:0:0:0:
191,23,93346,1,2,0:0:0:0:
162,212,93646,6,0,P|126:228|79:231,1,80,2|0,0:0|0:0,0:0:0:0:
186,122,93946,2,0,P|217:137|246:178,1,80,2|0,0:0|0:0,0:0:0:0:
235,256,94246,1,8,0:0:0:0:
235,256,94396,1,0,0:0:0:0:
305,117,94546,2,0,L|399:136,1,80,2|0,0:0|0:0,0:0:0:0:
490,38,94846,6,0,L|400:53,1,80,2|0,0:0|0:0,0:0:0:0:
305,117,95146,2,0,P|334:152|443:146,1,160,2|8,0:0|0:0,0:0:0:0:
297,88,95596,2,0,B|287:125|301:150|301:150|290:178|290:178|303:207|295:249,1,160,0|0,0:0|0:0,0:0:0:0:
222,361,96046,6,0,P|262:296|339:302,1,160,2|2,0:0|0:0,0:0:0:0:
409,347,96496,1,0,0:0:0:0:
349,218,96646,2,0,L|259:198,1,80,8|0,0:0|0:0,0:0:0:0:
190,182,96946,1,2,0:0:0:0:
412,284,97246,6,0,P|437:211|402:141,1,160,2|2,0:0|0:0,0:0:0:0:
320,127,97696,1,0,0:0:0:0:
427,61,97846,2,0,L|508:69,1,80,8|0,0:0|0:0,0:0:0:0:
402,141,98146,1,2,0:0:0:0:
402,141,98296,1,2,0:0:0:0:
301,48,98446,6,0,P|261:71|241:108,1,80,2|0,0:0|0:0,0:0:0:0:
376,77,98746,2,0,P|381:38|368:1,1,80,2|0,0:0|0:0,0:0:0:0:
301,48,99046,1,8,0:0:0:0:
407,222,99346,2,0,P|444:210|471:182,1,80,2|0,0:0|0:0,0:0:0:0:
333,186,99646,6,0,B|311:236|346:278|346:278|265:247,1,160,2|2,0:0|0:0,0:0:0:0:
348,354,100096,2,0,P|386:346|412:317,1,80,0|8,0:0|0:0,0:0:0:0:
431,238,100396,1,0,0:0:0:0:
297,216,100546,1,2,0:0:0:0:
357,275,100696,1,2,0:0:0:0:
354,158,100846,6,0,P|321:137|282:134,1,80,2|0,0:0|0:0,0:0:0:0:
220,186,101146,1,2,0:0:0:0:
403,189,101446,2,0,L|398:89,1,80,8|0,0:0|0:0,0:0:0:0:
393,27,101746,1,2,0:0:0:0:
393,27,101896,1,0,0:0:0:0:
311,156,102046,6,0,P|262:166|160:108,1,160,2|2,0:0|0:0,0:0:0:0:
140,42,102496,1,0,0:0:0:0:
123,185,102646,2,0,L|107:268,1,80,8|0,0:0|0:0,0:0:0:0:
44,360,102946,2,0,L|23:258,1,80,2|0,0:0|0:0,0:0:0:0:
5,200,103246,5,2,0:0:0:0:
5,200,103396,1,0,0:0:0:0:
122,263,103546,2,0,P|160:253|189:227,1,80,2|8,0:0|0:0,0:0:0:0:
198,145,103846,1,8,0:0:0:0:
198,145,103996,1,0,0:0:0:0:
55,141,104146,2,0,P|84:114|122:104,1,80,2|0,0:0|0:0,0:0:0:0:
198,145,104446,1,2,0:0:0:0:
424,159,104746,6,0,L|351:105,1,64,8|0,0:0|0:0,0:0:0:0:
284,75,105046,1,8,0:0:0:0:
220,268,105346,1,2,0:0:0:0:
220,268,105646,6,0,P|273:307|361:277,1,160,2|2,0:0|0:0,0:0:0:0:
233,187,106096,2,0,P|193:187|160:208,1,80,0|8,0:0|0:0,0:0:0:0:
396,322,106546,1,2,0:0:0:0:
396,322,106696,1,0,0:0:0:0:
481,348,106846,6,0,B|496:294|455:252|455:252|521:268,1,160,2|2,0:0|0:0,0:0:0:0:
420,170,107296,2,0,P|389:197|374:232,1,80,0|0,0:0|0:0,0:0:0:0:
350,306,107596,1,0,0:0:0:0:
306,180,107746,2,0,L|212:200,1,80,8|0,0:0|0:0,0:0:0:0:
146,213,108046,5,0,3:0:0:0:
146,213,108121,1,0,3:0:0:0:
146,213,108196,1,0,3:0:0:0:
48,224,108346,2,0,P|51:184|71:148,1,80,2|0,0:0|0:0,0:0:0:0:
109,299,108646,2,0,P|73:317|33:320,1,80,8|0,0:0|0:0,0:0:0:0:
48,224,108946,1,2,0:0:0:0:
205,286,109096,1,0,0:0:0:0:
60,189,109246,6,0,P|96:136|197:138,2,160,0|0|0,0:0|3:0|3:0,0:0:0:0:
264,168,110146,1,0,3:0:0:0:
264,168,110296,1,0,0:0:0:0:
349,221,110446,6,0,P|362:152|331:93,1,128,6|2,0:0|0:0,0:0:0:0:
274,253,110896,2,0,P|290:279|317:296,2,64,0|8|0,0:0|0:0|0:0,0:0:0:0:
264,168,111346,1,2,0:0:0:0:
264,168,111496,1,0,0:0:0:0:
162,193,111646,6,0,P|168:130|212:78,1,128,2|2,0:0|0:0,0:0:0:0:
196,265,112096,2,0,B|131:289|131:251|65:262,1,128,0|0,0:0|0:0,0:0:0:0:
11,310,112546,1,2,0:0:0:0:
11,310,112696,1,0,0:0:0:0:
43,178,112846,6,0,B|32:109,1,64,2|0,0:0|0:0,0:0:0:0:
124,20,113146,2,0,B|115:86,1,64,2|0,0:0|0:0,0:0:0:0:
125,208,113446,2,0,P|148:187|177:174,1,64,8|0,0:0|0:0,0:0:0:0:
301,222,113746,2,0,P|277:243|248:256,1,64,2|0,0:0|0:0,0:0:0:0:
125,208,114046,6,0,L|136:275,1,64,2|0,0:0|0:0,0:0:0:0:
189,383,114346,2,0,L|202:318,1,64,2|0,0:0|0:0,0:0:0:0:
220,242,114646,1,8,0:0:0:0:
220,242,114796,1,0,0:0:0:0:
319,167,114946,2,0,L|248:164,1,64,10|0,0:0|0:0,0:0:0:0:
356,244,115246,6,0,P|399:197|395:131,1,128,2|2,0:0|0:0,0:0:0:0:
274,243,115696,2,0,P|293:300|354:328,1,128,0|0,0:0|0:0,0:0:0:0:
422,292,116146,1,2,0:0:0:0:
422,292,116296,1,0,0:0:0:0:
402,170,116446,6,0,L|335:170,1,64,2|2,0:0|0:0,0:0:0:0:
263,139,116746,1,2,0:0:0:0:
450,102,116896,2,0,P|481:160|456:232,1,128,0|0,0:0|0:0,0:0:0:0:
390,253,117346,1,2,0:0:0:0:
390,253,117496,1,2,0:0:0:0:
295,161,117646,6,0,L|286:229,1,64,2|0,0:0|0:0,0:0:0:0:
220,323,117946,2,0,L|205:248,1,64,2|0,0:0|0:0,0:0:0:0:
133,158,118246,2,0,L|124:228,1,64,8|0,0:0|0:0,0:0:0:0:
62,332,118546,2,0,L|46:257,1,64,2|0,0:0|0:0,0:0:0:0:
0,147,118846,6,0,P|31:147|59:133,1,64,2|0,0:0|0:0,0:0:0:0:
7,54,119146,1,2,0:0:0:0:
169,184,119446,2,0,L|159:253,1,64,8|0,0:0|0:0,0:0:0:0:
85,332,119746,2,0,L|74:266,1,64,2|0,0:0|0:0,0:0:0:0:
56,193,120046,5,2,0:0:0:0:
253,198,120346,2,0,P|252:166|242:135,1,64,2|0,0:0|0:0,0:0:0:0:
168,100,120646,1,8,0:0:0:0:
390,205,120946,1,2,0:0:0:0:
390,205,121096,1,0,0:0:0:0:
291,271,121246,6,0,P|230:279|182:239,1,128,2|2,0:0|0:0,0:0:0:0:
368,207,121696,2,0,L|373:293,2,64,0|8|0,0:0|0:0|0:0,0:0:0:0:
273,141,122146,1,2,0:0:0:0:
273,141,122296,1,2,0:0:0:0:
410,195,122446,6,0,P|426:168|427:136,1,64,2|0,0:0|0:0,0:0:0:0:
372,79,122746,1,2,0:0:0:0:
372,79,122896,1,0,0:0:0:0:
246,145,123046,2,0,L|258:229,1,64,8|0,0:0|0:0,0:0:0:0:
258,329,123346,2,0,B|225:321|225:321|196:329,1,64,2|0,0:0|0:0,0:0:0:0:
341,339,123646,6,0,B|374:347|374:347|402:338,1,64,2|0,0:0|0:0,0:0:0:0:
304,202,123946,2,0,L|308:265,1,64,2|0,0:0|0:0,0:0:0:0:
341,339,124246,1,8,0:0:0:0:
181,194,124546,1,8,0:0:0:0:
181,194,124846,6,0,P|160:136|191:82,1,128,2|2,0:0|0:0,0:0:0:0:
271,67,125296,1,0,0:0:0:0:
153,18,125446,2,0,L|79:34,1,64,8|0,0:0|0:0,0:0:0:0:
11,50,125746,1,2,0:0:0:0:
11,50,125896,1,0,0:0:0:0:
99,203,126046,6,0,P|142:164|104:120,1,128,2|2,0:0|0:0,0:0:0:0:
29,154,126496,1,0,0:0:0:0:
97,284,126646,2,0,P|128:283|156:268,1,64,8|0,0:0|0:0,0:0:0:0:
21,240,126946,2,0,L|28:308,1,64,2|2,0:0|0:0,0:0:0:0:
96,384,127246,6,0,L|121:322,1,64,2|0,0:0|0:0,0:0:0:0:
167,217,127546,2,0,L|105:249,1,64,2|0,0:0|0:0,0:0:0:0:
227,278,127846,2,0,P|251:222|231:161,1,128,8|2,0:0|0:0,0:0:0:0:
155,133,128296,1,0,0:0:0:0:
273,74,128446,6,0,L|240:35,2,42.6666666666667,0|0|0,3:0|3:0|3:0,0:0:0:0:
173,85,128746,2,0,L|124:61,2,42.6666666666667,0|0|0,3:0|3:0|3:0,0:0:0:0:
84,128,129046,2,0,L|37:126,2,42.6666666666667,0|0|0,3:0|3:0|3:0,0:0:0:0:
57,217,129346,2,0,L|14:243,2,42.6666666666667,0|0|0,3:0|3:0|3:0,0:0:0:0:
106,301,129646,6,0,B|23:352|23:352|75:362,1,143.999995605469,4|0,0:1|0:0,0:0:0:0:
162,364,130096,1,0,0:0:0:0:
182,210,130246,2,0,L|187:281,1,71.9999978027344,0|0,0:0|0:0,0:0:0:0:
263,367,130546,2,0,L|276:294,1,71.9999978027344,0|0,0:0|0:0,0:0:0:0:
308,181,130846,6,0,P|347:239|399:191,1,160,2|2,0:0|0:0,0:0:0:0:
364,116,131296,1,0,0:0:0:0:
475,200,131446,2,0,L|461:281,1,80,0|0,0:0|0:0,0:0:0:0:
397,372,131746,2,0,L|380:281,1,80,2|0,0:0|0:0,0:0:0:0:
308,181,132046,6,0,B|257:193|213:164|213:164|188:180|188:180|157:163|125:182,1,176.000005371094,0|0,3:0|3:0,0:0:0:0:
81,227,132496,1,0,3:0:0:0:
168,97,132646,2,0,P|163:54|181:11,1,88.000002685547,0|0,3:0|3:0,0:0:0:0:
320,97,132946,2,0,P|324:139|306:181,1,88.000002685547,0|0,3:0|0:0,0:0:0:0:
104,237,133246,6,0,L|199:211,1,88.000002685547,0|0,3:0|3:0,0:0:0:0:
309,303,133546,2,0,L|217:292,1,88.000002685547,4|0,3:1|3:0,0:0:0:0:
104,237,133846,1,0,3:0:0:0:
103,206,133921,1,0,3:0:0:0:
102,175,133996,1,0,3:0:0:0:
102,144,134071,1,0,3:0:0:0:
101,113,134146,2,0,P|51:127|15:113,1,88.000002685547,0|0,0:0|0:0,0:0:0:0:
158,30,134446,6,0,P|189:65|203:110,1,88.000002685547,6|0,0:0|0:0,0:0:0:0:
190,182,134746,1,8,0:0:0:0:
133,35,134896,2,0,L|309:62,1,176.000005371094,0|0,0:0|0:0,0:0:0:0:
387,77,135346,1,8,0:0:0:0:
174,180,135646,6,0,L|85:176,1,88.000002685547,2|0,0:0|0:0,0:0:0:0:
12,297,135946,2,0,B|98:251,1,88.000002685547,8|0,0:0|0:0,0:0:0:0:
161,216,136246,1,2,0:0:0:0:
161,216,136396,1,0,0:0:0:0:
226,101,136546,2,0,P|185:87|141:92,1,88.000002685547,8|0,0:0|0:0,0:0:0:0:
257,188,136846,6,0,P|292:163|313:125,1,88.000002685547,2|0,0:0|0:0,0:0:0:0:
293,46,137146,1,8,0:0:0:0:
174,180,137296,2,0,B|169:248|169:248|187:287|187:287|182:359,1,176.000005371094,0|0,0:0|0:0,0:0:0:0:
263,337,137746,1,8,0:0:0:0:
88,166,138046,6,0,L|0:175,1,88.000002685547,2|0,0:0|0:0,0:0:0:0:
196,264,138346,2,0,L|96:255,1,88.000002685547,8|0,0:0|0:0,0:0:0:0:
25,248,138646,1,2,0:0:0:0:
25,248,138796,1,0,0:0:0:0:
154,338,138946,2,0,P|194:353|235:341,1,88.000002685547,8|0,0:0|0:0,0:0:0:0:
279,187,139246,6,0,L|271:277,1,88.000002685547,2|0,0:0|0:0,0:0:0:0:
235,342,139546,1,8,0:0:0:0:
197,197,139696,2,0,B|191:134|252:110|252:110|210:112|176:105,1,176.000005371094,0|0,0:0|0:0,0:0:0:0:
120,141,140146,1,8,0:0:0:0:
279,187,140296,6,0,P|333:121|299:45,1,176.000005371094,0|0,0:0|0:0,0:0:0:0:
226,31,140746,1,8,0:0:0:0:
389,20,140896,2,0,B|473:56,1,88.000002685547,0|0,0:0|0:0,0:0:0:0:
464,225,141196,2,0,B|429:134,1,88.000002685547,0|8,0:0|0:0,0:0:0:0:
204,143,141646,6,0,B|160:153|119:141|119:141|155:104|201:102,1,176.000005371094,2|8,0:0|0:0,0:0:0:0:
280,112,142096,1,0,0:0:0:0:
280,112,142246,1,2,0:0:0:0:
162,212,142396,2,0,P|129:183|120:141,1,88.000002685547,0|8,0:0|0:0,0:0:0:0:
161,71,142696,1,0,0:0:0:0:
238,219,142846,6,0,B|248:261|248:261|231:302,1,88.000002685547,2|0,0:0|0:0,0:0:0:0:
320,163,143146,2,0,B|310:121|310:121|327:80,1,88.000002685547,8|0,0:0|0:0,0:0:0:0:
383,23,143446,1,2,0:0:0:0:
383,23,143596,1,0,0:0:0:0:
247,53,143746,2,0,L|160:71,1,88.000002685547,8|0,0:0|0:0,0:0:0:0:
37,157,144046,6,0,P|69:129|71:86,1,88.000002685547,6|0,0:0|0:0,0:0:0:0:
18,26,144346,1,8,0:0:0:0:
161,71,144496,2,0,B|151:256,1,176.000005371094,0|0,0:0|0:0,0:0:0:0:
144,326,144946,1,8,0:0:0:0:
372,238,145246,6,0,P|398:274|446:285,1,88.000002685547,2|0,0:0|0:0,0:0:0:0:
376,149,145546,2,0,P|333:157|299:186,1,88.000002685547,8|0,0:0|0:0,0:0:0:0:
296,268,145846,1,2,0:0:0:0:
296,268,145996,1,0,0:0:0:0:
446,202,146146,2,0,P|462:162|456:119,1,88.000002685547,8|0,0:0|0:0,0:0:0:0:
276,232,146446,6,0,L|281:338,1,88.000002685547,2|0,0:0|0:0,0:0:0:0:
215,363,146746,1,8,0:0:0:0:
197,212,146896,2,0,B|129:223|129:223|236:157,1,176.000005371094,0|0,0:0|0:0,0:0:0:0:
300,153,147346,1,8,0:0:0:0:
85,292,147646,6,0,P|57:259|50:217,1,88.000002685547,2|0,0:0|0:0,0:0:0:0:
111,62,147946,2,0,L|98:155,1,88.000002685547,8|0,0:0|0:0,0:0:0:0:
131,223,148246,1,2,0:0:0:0:
131,223,148396,1,0,0:0:0:0:
191,106,148546,2,0,P|201:64|191:21,1,88.000002685547,8|0,0:0|0:0,0:0:0:0:
153,188,148846,6,0,B|233:220|233:155|325:184,1,176.000005371094,2|8,0:0|0:0,0:0:0:0:
376,242,149296,1,0,0:0:0:0:
430,101,149446,2,0,B|406:108|393:126|393:126|374:109|357:105,1,88.000002685547,2|0,0:0|0:0,0:0:0:0:
425,265,149746,2,0,P|449:229|453:185,1,88.000002685547,8|0,0:0|0:0,0:0:0:0:
347,294,150046,6,0,P|368:332|411:352,1,88.000002685547,2|0,0:0|0:0,0:0:0:0:
495,323,150346,1,8,0:0:0:0:
265,354,150646,2,0,P|222:359|179:352,1,88.000002685547,2|0,0:0|0:0,0:0:0:0:
108,308,150946,1,8,0:0:0:0:
22,82,151246,6,0,L|32:169,1,88.000002685547,2|0,0:0|0:0,0:0:0:0:
121,282,151546,2,0,L|131:194,1,88.000002685547,8|0,0:0|0:0,0:0:0:0:
142,115,151846,1,2,0:0:0:0:
142,115,151996,1,0,0:0:0:0:
214,245,152146,2,0,B|300:231,1,88.000002685547,8|0,0:0|0:0,0:0:0:0:
402,269,152446,6,0,L|444:221,2,58.6666684570313,0|0|0,3:0|3:0|3:0,0:0:0:0:
378,162,152746,2,0,L|384:100,2,58.6666684570313,0|0|0,3:0|3:0|3:0,0:0:0:0:
283,117,153046,2,0,L|250:55,2,58.6666684570313,0|0|0,3:0|3:0|3:0,0:0:0:0:
177,131,153346,2,0,L|124:98,2,58.6666684570313,0|0|0,3:0|3:0|3:0,0:0:0:0:
112,221,153646,5,2,0:0:0:0:
84,101,163246,6,0,P|107:104|131:104,1,47.9999985351563,2|0,0:0|0:0,0:0:0:0:
209,104,163546,1,8,0:0:0:0:
121,30,163696,1,8,0:0:0:0:
167,177,163846,2,0,P|220:189|264:164,1,95.9999970703126,8|8,0:0|0:0,0:0:0:0:
479,83,164446,5,2,0:0:0:0:
375,37,164596,1,8,0:0:0:0:
368,159,164746,2,0,L|305:145,1,47.9999985351563,8|0,0:0|0:0,0:0:0:0:
383,239,165046,2,0,P|424:218|447:176,1,95.9999970703126,8|8,0:0|0:0,0:0:0:0:
231,293,165646,5,8,0:0:0:0:
231,293,165946,2,0,P|222:271|210:250,1,47.9999985351563,0|8,0:0|0:0,0:0:0:0:
313,282,166246,2,0,L|342:334,1,47.9999985351563,0|0,0:0|0:0,0:0:0:0:
328,199,166546,2,0,L|275:197,1,47.9999985351563,8|0,0:0|0:0,0:0:0:0:
393,254,166846,5,8,0:0:0:0:
250,223,166996,1,8,0:0:0:0:
405,158,167146,2,0,P|379:119|334:105,1,95.9999970703126,8|8,0:0|0:0,0:0:0:0:
383,338,167746,1,8,0:0:0:0:
476,261,167896,1,8,0:0:0:0:
341,268,168046,6,0,L|279:278,1,47.9999985351563,2|0,0:0|0:0,0:0:0:0:
183,318,168346,2,0,P|197:273|181:226,1,95.9999970703126,0|0,0:0|0:0,0:0:0:0:
77,168,168796,2,0,P|62:212|78:259,1,95.9999970703126,0|0,0:0|0:0,0:0:0:0:
168,157,169246,6,0,L|215:180,1,47.9999985351563,0|0,0:0|0:0,0:0:0:0:
316,176,169546,2,0,L|277:133,1,47.9999985351563,0|0,0:0|0:0,0:0:0:0:
210,48,169846,2,0,L|211:86,3,31.9999990234375,0|0|0|0,3:0|3:0|3:0|3:0,0:0:0:0:
342,278,170446,6,0,P|384:254|409:178,1,128,4|0,0:0|0:0,0:0:0:0:
398,106,170896,1,0,0:0:0:0:
398,106,171046,2,0,L|474:229,1,128,4|0,0:0|0:0,0:0:0:0:
307,351,171646,6,0,L|300:279,1,64,4|0,0:0|0:0,0:0:0:0:
290,207,171946,1,0,0:0:0:0:
290,207,172096,1,0,0:0:0:0:
160,284,172246,6,0,P|88:335|124:238,1,240.000009155274,4|0,0:1|0:0,0:0:0:0:
179,211,172696,1,0,0:0:0:0:
179,211,172846,6,0,L|234:292,1,88.000002685547,6|0,0:0|0:0,0:0:0:0:
271,355,173146,1,8,0:0:0:0:
115,272,173296,2,0,P|94:190|152:129,1,176.000005371094,0|0,0:0|0:0,0:0:0:0:
234,114,173746,1,8,0:0:0:0:
104,314,174046,6,0,L|11:285,1,88.000002685547,2|0,0:0|0:0,0:0:0:0:
0,162,174346,2,0,B|91:146,1,88.000002685547,8|0,0:0|0:0,0:0:0:0:
168,125,174646,1,2,0:0:0:0:
168,125,174796,1,0,0:0:0:0:
328,195,174946,2,0,P|351:159|356:115,1,88.000002685547,8|0,0:0|0:0,0:0:0:0:
248,188,175246,6,0,L|252:284,1,88.000002685547,2|0,0:0|0:0,0:0:0:0:
176,304,175546,1,8,0:0:0:0:
200,116,175696,2,0,P|284:108|336:188,1,176.000005371094,0|0,0:0|0:0,0:0:0:0:
316,256,176146,1,8,0:0:0:0:
384,32,176446,6,0,L|481:21,1,88.000002685547,2|0,0:0|0:0,0:0:0:0:
512,156,176746,2,0,L|417:143,1,88.000002685547,8|0,0:0|0:0,0:0:0:0:
344,128,177046,1,2,0:0:0:0:
344,128,177196,1,0,0:0:0:0:
204,171,177346,2,0,P|228:135|232:92,1,88.000002685547,8|0,0:0|0:0,0:0:0:0:
128,8,177646,6,0,P|103:44|99:87,1,88.000002685547,2|0,0:0|0:0,0:0:0:0:
120,172,177946,1,8,0:0:0:0:
216,56,178096,2,0,L|392:88,1,176.000005371094,0|0,0:0|0:0,0:0:0:0:
468,104,178546,1,8,0:0:0:0:
468,248,178696,6,0,B|448:236|432:208|432:208|412:268|332:296,1,176.000005371094,0|0,0:0|0:0,0:0:0:0:
268,312,179146,1,8,0:0:0:0:
296,136,179296,2,0,B|288:232,1,88.000002685547,0|0,0:0|0:0,0:0:0:0:
352,72,179596,2,0,P|312:53|269:55,1,88.000002685547,0|8,0:0|0:0,0:0:0:0:
164,264,180046,6,0,P|106:203|128:122,1,176.000005371094,2|8,0:0|0:0,0:0:0:0:
184,64,180496,1,0,0:0:0:0:
184,64,180646,1,2,0:0:0:0:
108,208,180796,2,0,L|8:248,1,88.000002685547,0|8,0:0|0:0,0:0:0:0:
24,320,181096,1,0,0:0:0:0:
164,263,181246,6,0,P|186:226|185:183,1,88.000002685547,2|0,0:0|0:0,0:0:0:0:
145,42,181546,2,0,P|122:79|123:122,1,88.000002685547,8|0,0:0|0:0,0:0:0:0:
185,183,181846,1,2,0:0:0:0:
185,183,181996,1,0,0:0:0:0:
333,227,182146,2,0,L|246:245,1,88.000002685547,8|0,0:0|0:0,0:0:0:0:
404,275,182446,6,0,P|418:233|411:191,1,88.000002685547,6|0,0:0|0:0,0:0:0:0:
344,144,182746,1,8,0:0:0:0:
217,259,182896,2,0,P|134:250|106:171,1,176.000005371094,0|0,0:0|0:0,0:0:0:0:
149,104,183346,1,8,0:0:0:0:
378,53,183646,6,0,L|476:76,1,88.000002685547,2|0,0:0|0:0,0:0:0:0:
494,208,183946,2,0,L|414:144,1,88.000002685547,8|0,0:0|0:0,0:0:0:0:
360,101,184246,1,2,0:0:0:0:
360,101,184396,1,0,0:0:0:0:
413,238,184546,2,0,P|436:274|476:292,1,88.000002685547,8|0,0:0|0:0,0:0:0:0:
344,284,184846,6,0,L|255:299,1,88.000002685547,2|0,0:0|0:0,0:0:0:0:
175,314,185146,1,8,0:0:0:0:
364,302,185296,2,0,B|358:236|358:236|338:190|338:190|340:109,1,176.000005371094,0|0,0:0|0:0,0:0:0:0:
386,61,185746,1,8,0:0:0:0:
242,251,186046,6,0,B|141:269,1,88.000002685547,2|0,0:0|0:0,0:0:0:0:
321,270,186346,2,0,P|321:226|299:189,1,88.000002685547,8|0,0:0|0:0,0:0:0:0:
219,171,186646,1,2,0:0:0:0:
219,171,186796,1,0,0:0:0:0:
267,332,186946,2,0,P|304:352|347:347,1,88.000002685547,8|0,0:0|0:0,0:0:0:0:
299,189,187246,6,0,P|275:105|183:100,1,176.000005371094,2|8,0:0|0:0,0:0:0:0:
138,146,187696,1,0,0:0:0:0:
273,47,187846,2,0,L|371:31,1,88.000002685547,2|0,0:0|0:0,0:0:0:0:
462,135,188146,2,0,L|354:108,1,88.000002685547,8|0,0:0|0:0,0:0:0:0:
219,171,188446,6,0,L|310:152,1,88.000002685547,2|0,0:0|0:0,0:0:0:0:
381,133,188746,1,8,0:0:0:0:
178,247,189046,2,0,P|145:220|132:178,1,88.000002685547,2|0,0:0|0:0,0:0:0:0:
168,100,189346,1,0,0:0:0:0:
344,246,189646,6,0,L|354:333,1,88.000002685547,2|0,0:0|0:0,0:0:0:0:
450,186,189946,2,0,L|439:279,1,88.000002685547,8|0,0:0|0:0,0:0:0:0:
429,352,190246,1,2,0:0:0:0:
429,352,190396,1,0,0:0:0:0:
371,169,190546,2,0,P|392:130|439:106,1,88.000002685547,8|8,0:0|0:0,0:0:0:0:
316,239,190846,6,0,L|223:257,1,88.000002685547,2|2,0:0|0:0,0:0:0:0:
330,318,191146,1,8,0:0:0:0:
330,318,191296,1,8,0:0:0:0:
423,234,191446,2,0,P|451:195|444:132,1,88.000002685547,2|2,0:0|0:0,0:0:0:0:
398,92,191746,1,8,0:0:0:0:
