osu file format v14

[General]
AudioFilename: BESTie - Excuse Me.mp3
AudioLeadIn: 0
PreviewTime: 66346
Countdown: 0
SampleSet: Soft
StackLeniency: 0.7
Mode: 0
LetterboxInBreaks: 0
WidescreenStoryboard: 1

[Editor]
Bookmarks: 43246,86446,110446,134446,153646,172846,182446
DistanceSpacing: 1.3
BeatDivisor: 4
GridSize: 4
TimelineZoom: 2.2

[Metadata]
Title:Excuse Me
TitleUnicode:Excuse Me
Artist:BESTie
ArtistUnicode:베스티
Creator:Euny
Version:Hard
Source:
Tags:Natsu Shadren kpop k-pop 혜연 유지 다혜 해령 Hye Yeon U ji Da Hye Hae Ryeong Love Emotion YNB Entertainment
BeatmapID:921817
BeatmapSetID:423925

[Difficulty]
HPDrainRate:5
CircleSize:4
OverallDifficulty:6
ApproachRate:7
SliderMultiplier:1.35
SliderTickRate:1

[Events]
//Background and Video events
0,0,"EX.jpg",0,0
Video,0,"[MV] BESTie-Excuse Me.avi"
//Break Periods
2,86646,87946
2,153846,162346
//Storyboard Layer 0 (Background)
//Storyboard Layer 1 (Fail)
//Storyboard Layer 2 (Pass)
//Storyboard Layer 3 (Foreground)
//Storyboard Sound Samples

[TimingPoints]
4846,300,4,2,1,60,1,0
4846,-125,4,2,1,60,0,0
6796,-125,4,2,83,40,0,0
7096,-125,4,2,1,10,0,0
7246,-125,4,2,1,60,0,0
9196,-125,4,2,95,40,0,0
9571,-125,4,2,1,10,0,0
9646,-125,4,2,1,60,0,0
13996,-125,4,2,96,40,0,0
14221,-125,4,2,1,10,0,0
14296,-125,4,2,1,60,0,0
14446,-111.111111111111,4,2,1,60,0,0
19246,-111.111111111111,4,2,91,40,0,0
19396,-111.111111111111,4,2,91,10,0,0
19546,-111.111111111111,4,2,1,60,0,0
21046,-142.857142857143,4,2,1,60,0,0
21646,-111.111111111111,4,2,1,60,0,0
24046,-100,4,2,2,60,0,0
24271,-100,4,2,1,10,0,0
24346,-100,4,2,2,60,0,0
43246,-125,4,2,2,60,0,0
62446,-111.111111111111,4,2,1,60,0,0
63646,-100,4,2,1,60,0,0
64846,-100,4,2,1,60,0,0
66346,-100,4,1,2,60,0,0
66496,-100,4,2,1,60,0,0
67246,-100,4,2,2,70,0,1
74446,-100,4,2,2,60,0,0
76846,-100,4,2,2,70,0,1
84046,-100,4,2,2,60,0,0
86446,-111.111111111111,4,2,83,40,0,0
88846,-111.111111111111,4,2,1,60,0,0
91246,-100,4,2,2,60,0,0
105646,-100,4,2,2,60,0,0
110446,-125,4,2,2,60,0,0
129646,-111.111111111111,4,2,1,60,0,0
130846,-100,4,2,1,60,0,0
133546,-100,4,1,2,60,0,0
133696,-100,4,2,1,60,0,0
134446,-100,4,2,2,70,0,1
141646,-100,4,2,2,60,0,0
144046,-100,4,2,2,70,0,1
151246,-100,4,2,2,60,0,0
153646,-100,4,2,1,60,0,0
163246,-125,4,2,1,60,0,0
169846,-125,4,2,2,60,0,0
170446,-125,4,2,1,40,0,0
171046,-125,4,2,1,50,0,0
171646,-125,4,2,1,60,0,0
172246,-100,4,2,2,70,0,0
172846,-100,4,2,2,70,0,1
180046,-100,4,2,2,60,0,0
182446,-100,4,2,2,70,0,1
189646,-100,4,2,2,60,0,0
191746,-100,4,2,2,75,0,0

[Colours]
Combo1 : 255,45,77
Combo2 : 74,74,255
Combo3 : 240,253,85
Combo4 : 255,83,199

[HitObjects]
125,228,4846,6,0,L|119:167,1,54,6|0,0:0|0:0,0:0:0:0:
108,88,5146,1,8,0:0:0:0:
214,223,5446,2,0,P|201:274|160:308,1,108,0|8,0:0|0:0,0:0:0:0:
189,138,6046,6,0,L|303:124,1,108,0|8,0:0|0:0,0:0:0:0:
382,129,6496,2,0,P|377:156|375:183,1,54,0|0,0:0|0:0,0:0:0:0:
399,267,6796,2,0,B|365:273|335:260|335:260|335:295|321:314,1,108,4|0,0:0|0:0,0:0:0:0:
253,345,7246,6,0,B|222:360|196:349|196:349|193:292,1,108,4|8,0:0|0:0,0:0:0:0:
226,129,7846,2,0,P|236:156|256:176,1,54,0|0,0:0|0:0,0:0:0:0:
336,196,8146,1,8,0:0:0:0:
310,116,8296,6,0,P|265:53|187:53,1,162,0|8,0:0|0:0,0:0:0:0:
151,64,9196,2,0,B|161:102|141:131|141:131|156:170,1,108,4|0,0:0|0:0,0:0:0:0:
214,228,9646,5,4,0:0:0:0:
376,168,9946,1,8,0:0:0:0:
376,168,10246,2,0,P|392:120|364:56,1,108,0|8,0:0|0:0,0:0:0:0:
288,56,10696,1,0,0:0:0:0:
204,72,10846,6,0,L|152:84,2,54,0|0|8,0:0|0:0|0:0,0:0:0:0:
164,164,11296,2,0,P|111:155|79:114,1,108,0|0,0:0|0:0,0:0:0:0:
89,28,11746,1,8,0:0:0:0:
31,191,12046,6,0,L|41:248,1,54,4|0,0:0|0:0,0:0:0:0:
113,327,12346,2,0,L|120:268,1,54,8|0,0:0|0:0,0:0:0:0:
131,187,12646,2,0,L|193:205,1,54,0|0,0:0|0:0,0:0:0:0:
256,247,12946,2,0,P|274:193|251:141,1,108,8|0,0:0|0:0,0:0:0:0:
78,105,13546,5,8,0:0:0:0:
41,102,13996,2,0,B|52:145|52:145|47:165|47:165|59:214,1,108,4|0,0:0|0:0,0:0:0:0:
72,304,14446,6,0,L|132:292,1,60.7499981460572,2|0,0:0|0:0,0:0:0:0:
228,271,14746,2,0,P|230:302|243:329,1,60.7499981460572,8|0,0:0|0:0,0:0:0:0:
332,368,15046,1,2,0:0:0:0:
420,196,15346,2,0,L|416:128,1,60.7499981460572,8|0,0:0|0:0,0:0:0:0:
387,44,15646,6,0,P|347:86|287:89,1,121.499996292114,2|8,0:0|0:0,0:0:0:0:
204,36,16096,2,0,L|200:104,1,60.7499981460572,0|0,0:0|0:0,0:0:0:0:
200,292,16546,2,0,L|136:304,2,60.7499981460572,8|0|2,0:0|0:0|0:0,0:0:0:0:
256,108,17146,2,0,L|324:132,2,60.7499981460572,8|0|2,0:0|0:0|0:0,0:0:0:0:
74,36,17746,2,0,L|78:109,1,60.7499981460572,8|0,0:0|0:0,0:0:0:0:
120,183,18046,6,0,P|69:162|43:211,1,121.499996292114,2|8,0:0|0:0,0:0:0:0:
123,265,18496,2,0,P|157:257|177:241,1,60.7499981460572,0|0,0:0|0:0,0:0:0:0:
179,47,18946,1,8,0:0:0:0:
179,47,19246,6,0,L|306:77,1,121.499996292114,4|8,0:0|0:0,0:0:0:0:
483,131,19846,2,0,P|490:90|479:64,2,60.7499981460572,2|0|8,0:0|0:0|0:0,0:0:0:0:
389,156,20296,6,0,L|408:228,1,60.7499981460572,0|2,0:0|0:0,0:0:0:0:
475,282,20596,2,0,L|488:210,1,60.7499981460572,0|8,0:0|0:0,0:0:0:0:
499,125,20896,1,0,0:0:0:0:
499,125,21046,2,0,L|390:115,1,94.4999971160889,0|0,0:0|0:0,0:0:0:0:
209,79,21646,6,0,L|206:126,7,30.3749990730286,8|0|0|0|0|0|0|0,3:3|3:3|3:3|3:3|3:3|3:3|3:3|3:3,0:0:0:0:
167,138,22246,2,0,L|121:168,7,30.3749990730286,4|0|0|0|0|0|0|0,3:3|3:3|3:3|3:3|3:3|3:3|3:3|3:3,0:0:0:0:
92,153,22846,6,0,L|42:137,7,30.3749990730286,8|0|0|0|0|0|0|0,3:3|3:3|3:3|3:3|3:3|3:3|3:3|3:3,0:0:0:0:
15,130,23446,2,0,L|24:205,1,60.7499981460572,4|0,0:0|0:0,0:0:0:0:
34,273,23746,2,0,P|61:260|91:256,1,60.7499981460572,0|0,0:0|0:0,0:0:0:0:
153,318,24046,6,0,P|179:256|153:193,1,135,6|2,0:0|0:0,0:0:0:0:
151,107,24496,2,0,L|88:131,2,67.5,0|8|0,0:0|0:0|0:0,0:0:0:0:
202,34,24946,2,0,L|127:27,1,67.5,2|0,0:0|0:0,0:0:0:0:
51,57,25246,6,0,L|68:214,1,135,2|2,0:0|0:0,0:0:0:0:
56,278,25696,2,0,P|96:264|136:269,1,67.5,2|8,0:0|0:0,0:0:0:0:
270,356,26146,2,0,L|284:286,1,67.5,0|0,0:0|0:0,0:0:0:0:
301,202,26446,6,0,P|268:213|235:211,1,67.5,2|0,0:0|0:0,0:0:0:0:
158,169,26746,1,2,0:0:0:0:
285,48,27046,2,0,L|292:123,1,67.5,8|0,0:0|0:0,0:0:0:0:
301,202,27346,1,2,0:0:0:0:
459,127,27646,6,0,P|489:82|424:75,1,135,2|2,0:0|0:0,0:0:0:0:
375,136,28096,2,0,L|388:223,1,67.5,2|8,0:0|0:0,0:0:0:0:
319,365,28546,2,0,L|306:279,1,67.5,0|0,0:0|0:0,0:0:0:0:
263,221,28846,6,0,P|256:287|205:329,1,135,2|2,0:0|0:0,0:0:0:0:
120,306,29296,2,0,L|109:227,2,67.5,0|8|0,0:0|0:0|0:0,0:0:0:0:
44,357,29746,2,0,L|32:290,1,67.5,2|0,0:0|0:0,0:0:0:0:
34,202,30046,6,0,P|99:193|127:135,1,135,2|2,0:0|0:0,0:0:0:0:
114,47,30496,2,0,L|195:53,1,67.5,0|8,0:0|0:0,0:0:0:0:
356,24,30946,2,0,L|344:92,1,67.5,2|2,0:0|0:0,0:0:0:0:
340,179,31246,6,0,P|373:174|406:178,1,67.5,2|0,0:0|0:0,0:0:0:0:
483,220,31546,1,2,0:0:0:0:
343,326,31846,2,0,L|270:346,1,67.5,8|0,0:0|0:0,0:0:0:0:
191,362,32146,2,0,P|196:328|192:295,1,67.5,2|0,0:0|0:0,0:0:0:0:
125,237,32446,6,0,L|288:259,1,135,2|2,0:0|0:0,0:0:0:0:
345,266,32896,1,0,0:0:0:0:
345,266,33046,2,0,P|333:234|328:201,1,67.5,8|0,0:0|0:0,0:0:0:0:
354,116,33346,2,0,L|284:121,1,67.5,2|0,0:0|0:0,0:0:0:0:
202,148,33646,6,0,P|208:82|169:28,1,135,2|2,0:0|0:0,0:0:0:0:
87,59,34096,2,0,L|238:6,1,135,2|0,0:0|0:0,0:0:0:0:
302,15,34546,2,0,P|296:82|330:139,1,135,2|0,0:0|0:0,0:0:0:0:
417,151,34996,2,0,L|264:132,1,135,2|0,0:0|0:0,0:0:0:0:
196,122,35446,6,0,P|202:155|197:188,1,67.5,8|0,0:0|0:0,0:0:0:0:
148,264,35746,2,0,P|142:297|147:330,1,67.5,2|0,0:0|0:0,0:0:0:0:
289,315,36046,6,0,P|316:253|318:186,1,135,2|0,0:0|0:0,0:0:0:0:
275,109,36496,2,0,L|416:162,1,135,2|0,0:0|0:0,0:0:0:0:
484,184,36946,2,0,P|462:215|452:245,1,67.5,2|0,0:0|0:0,0:0:0:0:
312,350,37396,6,0,L|235:358,2,67.5,0|0|0,3:0|3:0|0:0,0:0:0:0:
397,371,37846,2,0,B|418:303|362:303|382:240,1,135,8|2,0:0|0:0,0:0:0:0:
477,93,38446,6,0,P|418:125|351:125,1,135,2|2,0:0|0:0,0:0:0:0:
266,104,38896,2,0,L|271:184,2,67.5,0|8|0,3:0|0:0|0:0,0:0:0:0:
204,40,39346,2,0,P|176:59|144:70,1,67.5,0|0,3:0|0:0,0:0:0:0:
59,92,39646,6,0,P|24:44|79:14,1,135,2|2,0:0|0:0,0:0:0:0:
145,70,40096,2,0,L|135:148,1,67.5,0|0,0:0|0:0,0:0:0:0:
64,297,40546,2,0,L|51:227,1,67.5,2|0,0:0|0:0,0:0:0:0:
26,146,40846,5,0,3:0:0:0:
26,146,40921,1,0,3:0:0:0:
26,146,40996,1,0,3:0:0:0:
110,170,41146,2,0,P|142:177|176:172,1,67.5,2|0,0:0|0:0,0:0:0:0:
263,161,41446,2,0,P|254:195|260:232,1,67.5,8|0,0:0|0:0,0:0:0:0:
321,287,41746,1,2,0:0:0:0:
379,121,42046,6,0,L|527:87,2,135,0|0|0,0:0|3:0|3:0,0:0:0:0:
221,44,42946,1,0,0:0:0:0:
164,207,43246,6,0,P|114:185|69:126,1,108,6|2,0:0|0:0,0:0:0:0:
10,93,43696,2,0,L|21:200,1,108,0|0,0:0|0:0,0:0:0:0:
36,285,44146,1,2,0:0:0:0:
184,197,44446,6,0,L|304:206,1,108,2|2,0:0|0:0,0:0:0:0:
373,176,44896,2,0,L|435:195,1,54,0|0,0:0|0:0,0:0:0:0:
503,37,45346,2,0,L|443:39,1,54,2|0,0:0|0:0,0:0:0:0:
365,59,45646,6,0,P|335:87|260:103,2,108,2|2|8,0:0|0:0|0:0,0:0:0:0:
191,64,46546,2,0,P|183:89|182:116,1,54,2|0,0:0|0:0,0:0:0:0:
246,174,46846,6,0,P|249:201|250:235,1,54,2|0,0:0|0:0,0:0:0:0:
181,280,47146,1,2,0:0:0:0:
147,112,47446,2,0,L|83:130,1,54,8|0,0:0|0:0,0:0:0:0:
35,190,47746,2,0,L|99:213,1,54,2|0,0:0|0:0,0:0:0:0:
169,188,48046,6,0,P|212:157|226:106,1,108,2|2,0:0|0:0,0:0:0:0:
205,22,48496,2,0,L|278:31,1,54,0|8,0:0|0:0,0:0:0:0:
429,54,48946,2,0,P|420:80|416:107,1,54,2|0,0:0|0:0,0:0:0:0:
420,193,49246,6,0,L|345:191,2,54,2|0|2,0:0|0:0|0:0,0:0:0:0:
496,153,49696,2,0,P|506:179|506:205,1,54,0|8,0:0|0:0,0:0:0:0:
407,348,50146,2,0,L|330:357,1,54,2|2,0:0|0:0,0:0:0:0:
267,363,50446,6,0,P|271:315|240:249,1,108,2|2,0:0|0:0,0:0:0:0:
84,209,51046,2,0,L|79:155,1,54,8|0,0:0|0:0,0:0:0:0:
12,100,51346,2,0,L|-3:163,1,54,2|0,0:0|0:0,0:0:0:0:
9,238,51646,6,0,P|42:278|94:289,1,108,0|0,0:0|0:0,0:0:0:0:
250,244,52246,2,0,L|266:308,2,54,0|0|0,0:0|0:0|0:0,0:0:0:0:
215,171,52696,1,0,0:0:0:0:
301,165,52846,6,0,L|284:55,2,108,2|2|8,0:0|0:0|0:0,0:0:0:0:
250,330,53746,1,2,0:0:0:0:
250,330,53896,1,2,0:0:0:0:
329,297,54046,6,0,P|384:287|435:317,1,108,2|2,0:0|0:0,0:0:0:0:
504,352,54496,2,0,L|504:288,1,54,0|8,0:0|0:0,0:0:0:0:
497,124,54946,1,2,0:0:0:0:
497,124,55096,1,0,0:0:0:0:
420,84,55246,6,0,L|356:95,1,54,2|0,0:0|0:0,0:0:0:0:
279,96,55546,2,0,P|292:141|286:171,2,54,2|0|8,0:0|0:0|0:0,0:0:0:0:
111,54,56146,2,0,L|43:69,1,54,2|0,0:0|0:0,0:0:0:0:
2,132,56446,6,0,L|62:154,2,54,2|0|2,0:0|0:0|0:0,0:0:0:0:
10,218,56896,2,0,L|76:243,1,54,0|8,0:0|0:0,0:0:0:0:
229,274,57346,1,8,0:0:0:0:
229,274,57646,6,0,P|242:216|218:148,1,108,2|2,0:0|0:0,0:0:0:0:
176,102,58096,2,0,L|253:87,1,54,0|8,0:0|0:0,0:0:0:0:
400,73,58546,1,2,0:0:0:0:
400,73,58696,1,0,0:0:0:0:
485,81,58846,6,0,P|491:48|507:16,2,54,2|0|2,0:0|0:0|0:0,0:0:0:0:
434,149,59296,2,0,P|381:154|336:125,1,108,0|0,0:0|0:0,0:0:0:0:
305,43,59746,1,2,0:0:0:0:
305,43,59896,1,2,0:0:0:0:
233,92,60046,6,0,L|241:167,2,54,2|0|2,0:0|0:0|0:0,0:0:0:0:
199,261,60646,2,0,L|184:199,1,54,8|0,0:0|0:0,0:0:0:0:
107,172,60946,2,0,L|103:241,1,54,2|0,0:0|0:0,0:0:0:0:
123,310,61246,6,0,P|172:344|223:342,1,108,0|0,3:0|3:0,0:0:0:0:
288,185,61846,2,0,L|284:306,1,108,0|0,3:0|3:0,0:0:0:0:
195,118,62446,6,0,P|245:81|304:74,1,121.499996292114,4|2,0:1|0:0,0:0:0:0:
385,112,62896,2,0,L|397:182,1,60.7499981460572,2|8,0:0|0:0,0:0:0:0:
485,180,63196,2,0,L|473:252,1,60.7499981460572,0|2,0:0|0:0,0:0:0:0:
356,369,63646,6,0,L|220:342,1,135,2|2,0:0|0:0,0:0:0:0:
136,351,64096,2,0,L|122:273,1,67.5,2|8,0:0|0:0,0:0:0:0:
207,254,64396,2,0,L|213:181,1,67.5,0|2,0:0|0:0,0:0:0:0:
294,30,64846,6,0,B|228:17|231:57|161:30,1,135,0|0,3:0|3:0,0:0:0:0:
74,24,65296,2,0,L|85:103,1,67.5,0|0,3:0|3:0,0:0:0:0:
154,142,65596,2,0,L|121:212,1,67.5,0|0,3:0|3:0,0:0:0:0:
8,336,66046,6,0,P|42:334|75:342,1,67.5,0|0,3:0|3:0,0:0:0:0:
159,370,66346,2,0,L|183:296,1,67.5,4|0,3:1|3:0,0:0:0:0:
209,223,66646,1,0,3:0:0:0:
209,223,66721,1,0,3:0:0:0:
209,223,66796,1,0,3:0:0:0:
269,286,66946,1,0,0:0:0:0:
104,223,67246,6,0,P|117:170|191:124,1,135,6|8,0:0|0:0,0:0:0:0:
264,151,67696,2,0,L|333:165,1,67.5,0|0,0:0|0:0,0:0:0:0:
385,232,67996,2,0,L|314:250,1,67.5,0|8,0:0|0:0,0:0:0:0:
470,337,68446,6,0,P|494:285|486:203,1,135,2|8,0:0|0:0,0:0:0:0:
352,100,69046,2,0,L|280:80,1,67.5,2|0,0:0|0:0,0:0:0:0:
199,67,69346,2,0,P|201:101|185:130,1,67.5,8|0,0:0|0:0,0:0:0:0:
104,168,69646,6,0,P|144:208|228:208,1,135,2|8,0:0|0:0,0:0:0:0:
300,176,70096,2,0,L|296:256,1,67.5,0|0,0:0|0:0,0:0:0:0:
348,316,70396,2,0,L|380:252,1,67.5,0|8,0:0|0:0,0:0:0:0:
472,108,70846,6,0,P|420:115|349:74,1,135,2|8,0:0|0:0,0:0:0:0:
184,16,71446,1,2,0:0:0:0:
184,16,71596,2,0,L|136:80,2,67.5,0|8|0,0:0|0:0|0:0,0:0:0:0:
252,72,72046,6,0,L|248:224,1,135,2|8,0:0|0:0,0:0:0:0:
244,296,72496,2,0,P|276:236|356:240,1,135,0|0,0:0|0:0,0:0:0:0:
416,268,72946,1,8,0:0:0:0:
276,375,73246,6,0,P|200:368|164:320,1,135,0|8,0:0|0:0,0:0:0:0:
156,236,73696,2,0,L|80:260,1,67.5,0|2,0:0|0:0,0:0:0:0:
4,244,73996,2,0,L|52:180,1,67.5,0|8,0:0|0:0,0:0:0:0:
220,168,74446,6,0,P|244:216|240:248,1,67.5,2|0,0:0|0:0,0:0:0:0:
216,312,74746,2,0,L|300:324,1,67.5,8|0,0:0|0:0,0:0:0:0:
368,336,75046,1,2,0:0:0:0:
368,336,75196,2,0,P|360:284|412:212,1,135,0|0,0:0|0:0,0:0:0:0:
484,188,75646,6,0,L|336:144,1,135,2|8,0:0|0:0,0:0:0:0:
184,104,76246,1,2,0:0:0:0:
184,104,76396,2,0,L|184:188,2,67.5,0|8|0,0:0|0:0|0:0,0:0:0:0:
204,20,76846,6,0,P|152:60|64:44,1,135,6|8,0:0|0:0,0:0:0:0:
4,20,77296,2,0,L|16:96,1,67.5,0|0,0:0|0:0,0:0:0:0:
84,140,77596,2,0,L|44:216,1,67.5,0|8,0:0|0:0,0:0:0:0:
4,272,77896,1,0,0:0:0:0:
52,344,78046,6,0,L|192:320,1,135,2|8,0:0|0:0,0:0:0:0:
360,292,78646,1,2,0:0:0:0:
360,291,78796,2,0,P|363:325|377:355,2,67.5,0|8|0,0:0|0:0|0:0,0:0:0:0:
444,264,79246,6,0,P|372:240|352:180,1,135,2|8,0:0|0:0,0:0:0:0:
388,108,79696,2,0,L|304:120,1,67.5,0|0,0:0|0:0,0:0:0:0:
236,100,79996,2,0,L|288:44,1,67.5,0|8,0:0|0:0,0:0:0:0:
456,68,80446,6,0,P|468:124|408:188,1,135,2|8,0:0|0:0,0:0:0:0:
247,181,81046,1,2,0:0:0:0:
247,181,81196,2,0,L|244:275,2,67.5,0|8|0,0:0|0:0|0:0,0:0:0:0:
216,98,81646,6,0,P|165:121|86:96,1,135,2|8,0:0|0:0,0:0:0:0:
16,54,82096,1,0,0:0:0:0:
17,141,82246,2,0,L|34:288,1,135,2|8,0:0|0:0,0:0:0:0:
47,362,82696,1,0,0:0:0:0:
134,345,82846,6,0,B|207:323|207:369|265:346,1,135,2|8,0:0|0:0,0:0:0:0:
389,221,83446,1,2,0:0:0:0:
389,221,83596,2,0,L|413:293,2,67.5,0|8|0,0:0|0:0|0:0,0:0:0:0:
349,142,84046,6,0,L|270:165,1,67.5,2|0,0:0|0:0,0:0:0:0:
199,134,84346,2,0,L|252:67,1,67.5,8|0,0:0|0:0,0:0:0:0:
322,48,84646,2,0,L|392:61,2,67.5,2|0|8,0:0|0:0|0:0,0:0:0:0:
144,68,85246,6,0,P|115:121|138:192,1,135,0|0,3:0|3:0,0:0:0:0:
303,135,85846,2,0,P|352:131|406:57,1,135,0|0,3:0|3:0,0:0:0:0:
246,59,86446,5,4,0:0:0:0:
192,66,88846,6,0,L|189:113,7,30.3749990730286,8|0|0|0|0|0|0|0,3:0|3:0|3:0|3:0|3:0|3:0|3:0|3:0,0:0:0:0:
185,142,89446,2,0,L|148:171,7,30.3749990730286,4|0|0|0|0|0|0|0,3:0|3:0|3:0|3:0|3:0|3:0|3:0|3:0,0:0:0:0:
117,175,90046,6,0,L|70:158,7,30.3749990730286,8|0|0|0|0|0|0|0,3:0|3:0|3:0|3:0|3:0|3:0|3:0|3:0,0:0:0:0:
43,174,90646,2,0,L|48:234,1,60.7499981460572,4|0,3:0|3:0,0:0:0:0:
50,326,90946,2,0,P|75:310|104:302,1,60.7499981460572,0|0,3:0|3:0,0:0:0:0:
198,342,91246,6,0,L|213:262,1,67.5,6|0,0:0|0:0,0:0:0:0:
275,215,91546,1,2,0:0:0:0:
275,215,91696,2,0,P|312:209|341:197,2,67.5,0|8|0,0:0|0:0|0:0,0:0:0:0:
279,127,92146,1,2,0:0:0:0:
109,78,92446,6,0,L|90:164,1,67.5,2|0,0:0|0:0,0:0:0:0:
118,228,92746,2,0,L|174:170,1,67.5,2|0,0:0|0:0,0:0:0:0:
190,95,93046,2,0,L|278:107,2,67.5,8|0|2,0:0|0:0|0:0,0:0:0:0:
360,135,93646,6,0,P|363:69|319:17,1,135,2|2,0:0|0:0,0:0:0:0:
268,185,94246,2,0,P|264:250|306:301,1,135,8|2,0:0|0:0,0:0:0:0:
435,180,94846,6,0,P|446:149|444:115,1,67.5,2|0,0:0|0:0,0:0:0:0:
408,33,95146,2,0,B|370:37|350:29|350:29|335:44|335:44|306:31|281:38,1,135,2|8,0:0|0:0,0:0:0:0:
200,72,95596,1,0,0:0:0:0:
200,72,95746,2,0,L|211:149,1,67.5,2|0,0:0|0:0,0:0:0:0:
231,223,96046,6,0,P|191:209|107:253,1,135,2|2,0:0|0:0,0:0:0:0:
80,328,96496,2,0,L|155:342,1,67.5,0|8,0:0|0:0,0:0:0:0:
304,264,96946,2,0,L|312:336,1,67.5,2|0,0:0|0:0,0:0:0:0:
392,364,97246,6,0,L|400:216,1,135,2|2,0:0|0:0,0:0:0:0:
400,140,97696,2,0,P|356:160|320:160,1,67.5,0|8,0:0|0:0,0:0:0:0:
180,84,98146,1,2,0:0:0:0:
180,84,98296,1,2,0:0:0:0:
104,132,98446,6,0,L|104:216,1,67.5,2|0,0:0|0:0,0:0:0:0:
76,284,98746,2,0,P|112:288|140:312,1,67.5,2|0,0:0|0:0,0:0:0:0:
208,356,99046,2,0,L|224:280,1,67.5,8|0,0:0|0:0,0:0:0:0:
264,216,99346,2,0,P|216:208|196:196,1,67.5,2|0,0:0|0:0,0:0:0:0:
172,116,99646,6,0,L|312:96,1,135,2|2,0:0|0:0,0:0:0:0:
392,104,100096,2,0,P|383:71|389:38,1,67.5,0|8,0:0|0:0,0:0:0:0:
471,69,100396,2,0,P|479:101|473:134,2,67.5,0|2|2,0:0|0:0|0:0,0:0:0:0:
389,39,100846,6,0,L|240:56,1,135,2|2,0:0|0:0,0:0:0:0:
79,51,101446,2,0,L|91:122,1,67.5,8|0,0:0|0:0,0:0:0:0:
165,162,101746,2,0,L|146:235,1,67.5,2|0,0:0|0:0,0:0:0:0:
82,285,102046,6,0,P|64:239|0:288,1,135,2|2,0:0|0:0,0:0:0:0:
22,349,102496,2,0,L|90:382,2,67.5,0|8|0,0:0|0:0|0:0,0:0:0:0:
82,285,102946,2,0,L|148:313,1,67.5,2|0,0:0|0:0,0:0:0:0:
222,348,103246,6,0,P|227:314|238:282,1,67.5,2|0,0:0|0:0,0:0:0:0:
324,268,103546,2,0,L|297:184,1,67.5,2|8,0:0|0:0,0:0:0:0:
260,127,103846,2,0,P|227:134|193:133,1,67.5,8|0,0:0|0:0,0:0:0:0:
106,116,104146,2,0,L|94:183,1,67.5,2|0,0:0|0:0,0:0:0:0:
24,237,104446,6,0,L|13:163,1,67.5,2|0,0:0|0:0,0:0:0:0:
10,81,104746,1,8,0:0:0:0:
141,198,105046,2,0,P|169:181|187:148,1,67.5,8|0,0:0|0:0,0:0:0:0:
179,64,105346,1,2,0:0:0:0:
179,64,105646,6,0,L|323:89,1,135,2|2,0:0|0:0,0:0:0:0:
398,104,106096,2,0,P|391:71|394:37,2,67.5,0|8|0,0:0|0:0|0:0,0:0:0:0:
465,160,106546,2,0,L|455:231,1,67.5,2|0,0:0|0:0,0:0:0:0:
426,310,106846,6,0,P|365:282|299:293,1,135,2|2,0:0|0:0,0:0:0:0:
219,330,107296,2,0,P|212:297|217:264,1,67.5,0|0,0:0|0:0,0:0:0:0:
301,109,107746,2,0,P|307:141|302:174,1,67.5,8|0,0:0|0:0,0:0:0:0:
216,153,108046,5,0,3:0:0:0:
216,153,108121,1,0,3:0:0:0:
216,153,108196,1,0,3:0:0:0:
149,212,108346,2,0,L|75:214,1,67.5,2|0,0:0|0:0,0:0:0:0:
6,259,108646,2,0,P|15:291|18:324,1,67.5,8|0,0:0|0:0,0:0:0:0:
96,363,108946,2,0,L|182:353,1,67.5,2|0,0:0|0:0,0:0:0:0:
244,320,109246,6,0,L|388:363,2,135,0|0|0,0:0|3:0|3:0,0:0:0:0:
116,199,110146,1,0,3:0:0:0:
220,61,110446,6,0,L|331:42,1,108,6|2,0:0|0:0,0:0:0:0:
411,26,110896,2,0,P|402:78|419:129,1,108,0|0,0:0|0:0,0:0:0:0:
490,179,111346,1,2,0:0:0:0:
319,151,111646,6,0,L|188:144,1,108,2|2,0:0|0:0,0:0:0:0:
127,170,112096,2,0,P|147:189|164:211,1,54,0|0,0:0|0:0,0:0:0:0:
67,354,112546,2,0,P|47:335|30:313,1,54,2|0,0:0|0:0,0:0:0:0:
22,227,112846,6,0,L|37:117,2,108,2|2|8,0:0|0:0|0:0,0:0:0:0:
101,72,113746,2,0,P|114:97|116:126,1,54,2|0,0:0|0:0,0:0:0:0:
133,207,114046,6,0,P|156:206|186:204,1,54,2|0,0:0|0:0,0:0:0:0:
273,202,114346,1,2,0:0:0:0:
422,288,114646,2,0,L|433:222,1,54,8|0,0:0|0:0,0:0:0:0:
488,169,114946,2,0,L|517:230,1,54,10|0,0:0|0:0,0:0:0:0:
500,302,115246,6,0,P|473:348|424:367,1,108,2|2,0:0|0:0,0:0:0:0:
343,337,115696,2,0,L|335:269,1,54,0|8,0:0|0:0,0:0:0:0:
260,127,116146,2,0,P|250:153|247:180,1,54,2|0,0:0|0:0,0:0:0:0:
333,173,116446,6,0,L|387:146,2,54,2|2|2,0:0|0:0|0:0,0:0:0:0:
290,247,116896,2,0,P|265:259|238:260,1,54,0|8,0:0|0:0,0:0:0:0:
88,174,117346,2,0,L|91:243,1,54,2|2,0:0|0:0,0:0:0:0:
150,290,117646,6,0,L|185:174,1,108,2|2,0:0|0:0,0:0:0:0:
191,359,118246,2,0,P|166:369|139:369,1,54,8|0,0:0|0:0,0:0:0:0:
64,325,118546,2,0,L|55:246,1,54,2|0,0:0|0:0,0:0:0:0:
68,185,118846,6,0,L|191:198,1,108,2|2,0:0|0:0,0:0:0:0:
333,265,119446,2,0,L|317:329,2,54,8|0|2,0:0|0:0|0:0,0:0:0:0:
284,193,119896,1,0,0:0:0:0:
370,185,120046,6,0,L|487:173,2,108,2|2|8,0:0|0:0|0:0,0:0:0:0:
229,285,120946,1,2,0:0:0:0:
229,285,121096,1,0,0:0:0:0:
157,236,121246,6,0,P|173:185|173:131,1,108,2|2,0:0|0:0,0:0:0:0:
129,56,121696,2,0,L|194:46,1,54,0|8,0:0|0:0,0:0:0:0:
355,33,122146,1,2,0:0:0:0:
355,33,122296,1,2,0:0:0:0:
435,64,122446,6,0,P|431:94|429:129,1,54,2|0,0:0|0:0,0:0:0:0:
485,183,122746,2,0,P|487:216|490:258,2,54,2|0|8,0:0|0:0|0:0,0:0:0:0:
328,108,123346,2,0,L|260:105,1,54,2|0,0:0|0:0,0:0:0:0:
187,114,123646,6,0,L|205:169,2,54,2|0|2,0:0|0:0|0:0,0:0:0:0:
117,166,124096,2,0,L|100:224,1,54,0|8,0:0|0:0,0:0:0:0:
25,372,124546,1,8,0:0:0:0:
25,372,124846,6,0,L|137:352,1,108,2|2,0:0|0:0,0:0:0:0:
215,332,125296,2,0,L|272:350,1,54,0|8,0:0|0:0,0:0:0:0:
437,374,125746,1,2,0:0:0:0:
437,374,125896,1,0,0:0:0:0:
465,292,126046,6,0,L|480:229,2,54,2|0|2,0:0|0:0|0:0,0:0:0:0:
382,266,126496,2,0,P|329:271|284:242,1,108,0|0,0:0|0:0,0:0:0:0:
245,164,126946,1,2,0:0:0:0:
245,164,127096,1,2,0:0:0:0:
180,221,127246,6,0,L|188:296,2,54,2|0|2,0:0|0:0|0:0,0:0:0:0:
318,117,127846,2,0,L|303:55,1,54,8|0,0:0|0:0,0:0:0:0:
227,26,128146,2,0,L|223:95,1,54,2|0,0:0|0:0,0:0:0:0:
244,164,128446,6,0,P|192:162|152:127,1,108,0|0,3:0|3:0,0:0:0:0:
318,117,129046,2,0,P|328:169|301:233,1,108,0|0,3:0|3:0,0:0:0:0:
145,311,129646,6,0,B|208:322|210:284|264:299,1,121.499996292114,4|0,0:1|0:0,0:0:0:0:
357,326,130096,2,0,L|353:265,1,60.7499981460572,0|0,0:0|0:0,0:0:0:0:
276,204,130396,2,0,L|300:138,1,60.7499981460572,0|0,0:0|0:0,0:0:0:0:
452,64,130846,6,0,L|316:37,1,135,2|2,0:0|0:0,0:0:0:0:
231,39,131296,2,0,L|242:105,1,67.5,0|0,0:0|0:0,0:0:0:0:
159,133,131596,2,0,L|147:58,1,67.5,0|2,0:0|0:0,0:0:0:0:
218,227,132046,6,0,P|153:242|90:219,1,135,0|0,3:0|3:0,0:0:0:0:
5,196,132496,2,0,L|16:275,1,67.5,0|0,3:0|3:0,0:0:0:0:
88,310,132796,2,0,L|55:380,1,67.5,0|0,3:0|3:0,0:0:0:0:
225,311,133246,6,0,P|256:301|282:279,1,67.5,0|0,3:0|3:0,0:0:0:0:
297,192,133546,2,0,L|374:216,1,67.5,4|0,3:1|3:0,0:0:0:0:
446,236,133846,1,0,3:0:0:0:
446,236,133921,1,0,3:0:0:0:
446,236,133996,1,0,3:0:0:0:
422,151,134146,1,0,0:0:0:0:
300,278,134446,6,0,P|239:252|213:191,1,135,6|8,0:0|0:0,0:0:0:0:
194,105,134896,2,0,L|125:119,1,67.5,0|2,0:0|0:0,0:0:0:0:
73,186,135196,2,0,L|144:204,1,67.5,0|8,0:0|0:0,0:0:0:0:
313,192,135646,6,0,P|337:140|333:58,1,135,2|8,0:0|0:0,0:0:0:0:
231,205,136246,2,0,P|242:236|266:260,1,67.5,2|0,0:0|0:0,0:0:0:0:
353,267,136546,2,0,L|320:337,1,67.5,8|0,0:0|0:0,0:0:0:0:
246,370,136846,6,0,B|175:369|188:331|118:332,1,135,2|8,0:0|0:0,0:0:0:0:
34,357,137296,2,0,L|37:289,1,67.5,0|2,0:0|0:0,0:0:0:0:
112,242,137596,2,0,L|93:166,1,67.5,0|8,0:0|0:0,0:0:0:0:
3,26,138046,6,0,P|58:62|124:58,1,135,2|8,0:0|0:0,0:0:0:0:
297,29,138646,1,2,0:0:0:0:
297,29,138796,2,0,L|288:104,2,67.5,0|8|0,0:0|0:0|0:0,0:0:0:0:
384,36,139246,6,0,B|424:68|481:48|481:48|469:106,1,135,2|8,0:0|0:0,0:0:0:0:
419,149,139696,2,0,P|415:221|428:295,1,135,0|0,0:0|0:0,0:0:0:0:
448,369,140146,1,8,0:0:0:0:
319,249,140446,6,0,P|260:278|198:256,1,135,2|8,0:0|0:0,0:0:0:0:
118,220,140896,2,0,L|123:292,1,67.5,0|0,0:0|0:0,0:0:0:0:
35,296,141196,2,0,L|60:358,1,67.5,0|8,0:0|0:0,0:0:0:0:
235,362,141646,6,0,P|258:338|264:306,1,67.5,2|0,0:0|0:0,0:0:0:0:
258,218,141946,2,0,L|342:230,1,67.5,8|0,0:0|0:0,0:0:0:0:
388,287,142246,1,2,0:0:0:0:
388,287,142396,2,0,P|380:235|432:163,1,135,0|0,0:0|0:0,0:0:0:0:
508,148,142846,6,0,L|365:84,1,135,2|8,0:0|0:0,0:0:0:0:
215,45,143446,1,2,0:0:0:0:
215,45,143596,2,0,L|151:66,2,67.5,0|8|0,0:0|0:0|0:0,0:0:0:0:
291,89,144046,6,0,P|284:151|267:232,1,135,6|8,0:0|0:0,0:0:0:0:
255,309,144496,2,0,L|331:300,1,67.5,0|2,0:0|0:0,0:0:0:0:
379,236,144796,2,0,L|442:288,1,67.5,0|8,0:0|0:0,0:0:0:0:
504,327,145096,1,0,0:0:0:0:
507,239,145246,6,0,L|501:94,1,135,2|8,0:0|0:0,0:0:0:0:
337,41,145846,1,2,0:0:0:0:
337,40,145996,2,0,L|259:63,2,67.5,0|8|0,0:0|0:0|0:0,0:0:0:0:
319,126,146446,6,0,P|244:138|198:95,1,135,2|8,0:0|0:0,0:0:0:0:
131,50,146896,2,0,L|118:128,1,67.5,0|2,0:0|0:0,0:0:0:0:
56,178,147196,2,0,L|35:108,1,67.5,0|8,0:0|0:0,0:0:0:0:
181,209,147646,6,0,P|245:231|312:230,1,135,2|8,0:0|0:0,0:0:0:0:
438,107,148246,1,2,0:0:0:0:
438,107,148396,2,0,L|458:188,2,67.5,0|8|0,0:0|0:0|0:0,0:0:0:0:
353,84,148846,6,0,B|325:101|256:84|256:84|274:46,1,135,2|8,0:0|0:0,0:0:0:0:
344,1,149296,1,0,0:0:0:0:
427,28,149446,2,0,L|447:174,1,135,2|8,0:0|0:0,0:0:0:0:
460,248,149896,1,0,0:0:0:0:
410,320,150046,6,0,B|352:343|352:297|279:319,1,135,2|8,0:0|0:0,0:0:0:0:
110,370,150646,1,2,0:0:0:0:
110,370,150796,2,0,P|80:354|60:327,2,67.5,0|8|0,0:0|0:0|0:0,0:0:0:0:
143,288,151246,6,0,L|149:210,1,67.5,2|0,0:0|0:0,0:0:0:0:
151,133,151546,2,0,L|76:143,1,67.5,8|0,0:0|0:0,0:0:0:0:
47,221,151846,2,0,L|59:299,2,67.5,2|0|8,0:0|0:0|0:0,0:0:0:0:
112,57,152446,6,0,P|178:53|226:98,1,135,0|0,3:0|3:0,0:0:0:0:
277,266,153046,2,0,L|307:126,1,135,0|0,3:0|3:0,0:0:0:0:
376,294,153646,5,2,0:0:0:0:
338,188,163246,6,0,L|215:217,1,108,2|8,0:0|0:0,0:0:0:0:
148,233,163696,1,8,0:0:0:0:
76,177,163846,2,0,P|59:228|72:280,1,108,8|8,0:0|0:0,0:0:0:0:
241,317,164446,6,0,L|304:327,1,54,2|8,0:0|0:0,0:0:0:0:
381,325,164746,2,0,P|363:274|370:221,2,108,8|8|8,0:0|0:0|0:0,0:0:0:0:
434,159,165646,6,0,P|386:137|333:142,1,108,8|0,0:0|0:0,0:0:0:0:
273,205,166096,1,8,0:0:0:0:
211,265,166246,2,0,P|186:219|195:166,1,108,0|8,0:0|0:0,0:0:0:0:
333,62,166846,6,0,L|265:46,1,54,8|8,0:0|0:0,0:0:0:0:
194,35,167146,2,0,L|86:65,1,108,8|8,0:0|0:0,0:0:0:0:
15,219,167746,2,0,L|36:285,1,54,8|8,0:0|0:0,0:0:0:0:
90,332,168046,6,0,P|138:356|195:341,2,108,2|0|0,0:0|0:0|0:0,0:0:0:0:
148,268,168796,2,0,L|152:202,1,54,0|0,0:0|0:0,0:0:0:0:
170,41,169246,6,0,B|282:84,1,108,0|0,0:0|0:0,0:0:0:0:
351,111,169696,1,0,0:0:0:0:
414,52,169846,2,0,L|463:41,3,36,0|0|0|0,3:0|3:0|3:0|3:0,0:0:0:0:
296,124,170446,6,0,L|288:249,1,108,4|0,0:0|0:0,0:0:0:0:
217,279,170896,2,0,L|205:215,1,54,0|4,0:0|0:0,0:0:0:0:
136,175,171196,2,0,L|118:241,1,54,0|0,0:0|0:0,0:0:0:0:
202,73,171646,6,0,P|150:82|98:68,1,108,4|0,0:0|0:0,0:0:0:0:
21,27,172096,1,0,0:0:0:0:
25,114,172246,6,0,L|35:254,1,135,4|0,0:1|0:0,0:0:0:0:
163,368,172846,6,0,L|189:232,1,135,6|8,0:0|0:0,0:0:0:0:
231,158,173296,2,0,P|261:172|294:173,1,67.5,0|2,0:0|0:0,0:0:0:0:
378,149,173596,2,0,L|369:223,1,67.5,0|8,0:0|0:0,0:0:0:0:
484,83,174046,6,0,P|441:44|361:26,1,135,2|8,0:0|0:0,0:0:0:0:
223,126,174646,2,0,L|151:106,1,67.5,2|0,0:0|0:0,0:0:0:0:
77,71,174946,2,0,P|75:107|54:143,1,67.5,8|0,0:0|0:0,0:0:0:0:
18,211,175246,6,0,P|58:251|142:251,1,135,2|8,0:0|0:0,0:0:0:0:
220,241,175696,2,0,L|216:321,1,67.5,0|2,0:0|0:0,0:0:0:0:
279,370,175996,2,0,L|311:306,1,67.5,0|8,0:0|0:0,0:0:0:0:
417,171,176446,6,0,B|349:198|349:152|285:173,1,135,2|8,0:0|0:0,0:0:0:0:
173,309,177046,1,2,0:0:0:0:
173,309,177196,2,0,P|148:286|137:254,2,67.5,0|8|0,0:0|0:0|0:0,0:0:0:0:
255,341,177646,6,0,L|249:188,1,135,2|8,0:0|0:0,0:0:0:0:
232,120,178096,2,0,B|295:135|293:95|364:117,1,135,0|0,0:0|0:0,0:0:0:0:
429,175,178546,1,8,0:0:0:0:
249,206,178846,6,0,P|183:198|146:145,1,135,2|8,0:0|0:0,0:0:0:0:
116,63,179296,2,0,L|47:90,1,67.5,0|0,0:0|0:0,0:0:0:0:
14,168,179596,2,0,P|32:195|39:228,1,67.5,0|8,0:0|0:0,0:0:0:0:
151,364,180046,6,0,L|223:357,1,67.5,2|0,0:0|0:0,0:0:0:0:
306,356,180346,2,0,P|297:324|300:284,1,67.5,8|0,0:0|0:0,0:0:0:0:
322,206,180646,1,2,0:0:0:0:
322,206,180796,2,0,L|170:224,1,135,0|0,0:0|0:0,0:0:0:0:
99,214,181246,6,0,P|103:279|63:332,1,135,2|8,0:0|0:0,0:0:0:0:
29,159,181846,1,2,0:0:0:0:
29,159,181996,2,0,L|10:78,2,67.5,0|8|0,0:0|0:0|0:0,0:0:0:0:
112,131,182446,6,0,P|176:119|264:135,1,135,6|8,0:0|0:0,0:0:0:0:
325,164,182896,2,0,L|337:86,1,67.5,0|0,0:0|0:0,0:0:0:0:
412,53,183196,2,0,L|418:134,1,67.5,0|8,0:0|0:0,0:0:0:0:
430,207,183496,1,0,0:0:0:0:
352,247,183646,6,0,P|286:246|243:196,1,135,2|8,0:0|0:0,0:0:0:0:
134,58,184246,1,2,0:0:0:0:
134,57,184396,2,0,L|99:125,2,67.5,0|8|0,0:0|0:0|0:0,0:0:0:0:
219,35,184846,6,0,P|283:44|361:40,1,135,2|8,0:0|0:0,0:0:0:0:
438,16,185296,2,0,L|426:106,1,67.5,0|0,0:0|0:0,0:0:0:0:
361,141,185596,2,0,L|391:219,1,67.5,0|8,0:0|0:0,0:0:0:0:
227,126,186046,6,0,P|193:122|164:105,1,67.5,2|0,0:0|0:0,0:0:0:0:
92,55,186346,2,0,L|74:132,1,67.5,8|0,0:0|0:0,0:0:0:0:
42,201,186646,2,0,P|75:201|108:210,1,67.5,2|0,0:0|0:0,0:0:0:0:
171,271,186946,2,0,L|202:200,1,67.5,8|0,0:0|0:0,0:0:0:0:
227,126,187246,6,0,P|289:147|351:123,1,135,2|8,0:0|0:0,0:0:0:0:
419,67,187696,1,0,0:0:0:0:
471,137,187846,2,0,L|435:280,1,135,2|8,0:0|0:0,0:0:0:0:
397,345,188296,1,0,0:0:0:0:
314,316,188446,6,0,B|245:337|245:298|181:314,1,135,2|8,0:0|0:0,0:0:0:0:
12,363,189046,2,0,L|38:285,1,67.5,2|0,0:0|0:0,0:0:0:0:
64,216,189346,1,0,0:0:0:0:
231,269,189646,6,0,L|219:184,1,67.5,2|0,0:0|0:0,0:0:0:0:
221,113,189946,2,0,L|291:126,1,67.5,8|0,0:0|0:0,0:0:0:0:
375,128,190246,2,0,P|361:97|361:63,2,67.5,2|0|8,0:0|0:0|0:0,0:0:0:0:
364,303,190846,6,0,L|287:318,1,67.5,2|2,0:0|0:0,0:0:0:0:
211,337,191146,1,8,0:0:0:0:
211,337,191296,1,8,0:0:0:0:
166,260,191446,2,0,P|189:235|194:202,2,67.5,2|2|8,0:0|0:0|0:0,0:0:0:0:
