osu file format v14

[General]
AudioFilename: BESTie - Excuse Me.mp3
AudioLeadIn: 0
PreviewTime: 66346
Countdown: 0
SampleSet: Soft
StackLeniency: 0.7
Mode: 0
LetterboxInBreaks: 0
WidescreenStoryboard: 1

[Editor]
Bookmarks: 43246,86446,110446,134446,153646,172846,182446
DistanceSpacing: 0.9
BeatDivisor: 4
GridSize: 4
TimelineZoom: 2.2

[Metadata]
Title:Excuse Me
TitleUnicode:Excuse Me
Artist:BESTie
ArtistUnicode:베스티
Creator:Euny
Version:Easy
Source:
Tags:Natsu Shadren kpop k-pop 혜연 유지 다혜 해령 Hye Yeon U ji Da Hye Hae Ryeong Love Emotion YNB Entertainment
BeatmapID:927127
BeatmapSetID:423925

[Difficulty]
HPDrainRate:2
CircleSize:3
OverallDifficulty:3
ApproachRate:3
SliderMultiplier:0.899999999999999
SliderTickRate:1

[Events]
//Background and Video events
0,0,"EX.jpg",0,0
Video,0,"[MV] BESTie-Excuse Me.avi"
//Break Periods
2,86646,87406
2,153846,161806
//Storyboard Layer 0 (Background)
//Storyboard Layer 1 (Fail)
//Storyboard Layer 2 (Pass)
//Storyboard Layer 3 (Foreground)
//Storyboard Sound Samples

[TimingPoints]
4846,300,4,2,1,60,1,0
6796,-100,4,2,83,40,0,0
7096,-100,4,2,1,10,0,0
7246,-100,4,2,1,60,0,0
9196,-100,4,2,95,40,0,0
9571,-100,4,2,1,10,0,0
9646,-100,4,2,1,60,0,0
13996,-100,4,2,96,40,0,0
14221,-100,4,2,1,10,0,0
14296,-100,4,2,1,60,0,0
14446,-100,4,2,1,60,0,0
19246,-100,4,2,91,40,0,0
19396,-100,4,2,91,10,0,0
19546,-100,4,2,1,60,0,0
21046,-100,4,2,1,60,0,0
21646,-100,4,2,1,60,0,0
24046,-100,4,2,2,60,0,0
43246,-100,4,2,2,60,0,0
62446,-100,4,2,1,60,0,0
63646,-100,4,2,1,60,0,0
64846,-100,4,2,1,60,0,0
66346,-100,4,1,2,60,0,0
66496,-100,4,2,1,60,0,0
67246,-100,4,2,2,70,0,1
74446,-100,4,2,2,60,0,0
76846,-100,4,2,2,70,0,1
84046,-100,4,2,2,60,0,0
86446,-100,4,2,83,40,0,0
88846,-100,4,2,1,60,0,0
91246,-100,4,2,2,60,0,0
104746,-100,4,2,2,60,0,0
105646,-100,4,2,2,60,0,0
110446,-100,4,2,2,60,0,0
129646,-100,4,2,1,60,0,0
130846,-100,4,2,1,60,0,0
132046,-100,4,2,1,60,0,0
133546,-100,4,1,2,60,0,0
133696,-100,4,2,1,60,0,0
134446,-100,4,2,2,70,0,1
141646,-100,4,2,2,60,0,0
144046,-100,4,2,2,70,0,1
151246,-100,4,2,2,60,0,0
153646,-100,4,2,1,60,0,0
163246,-100,4,2,1,60,0,0
169846,-100,4,2,2,60,0,0
170446,-100,4,2,1,40,0,0
171046,-100,4,2,1,50,0,0
171646,-100,4,2,1,60,0,0
172246,-100,4,2,2,70,0,0
172846,-100,4,2,2,70,0,1
180046,-100,4,2,2,60,0,0
182446,-100,4,2,2,70,0,1
189646,-100,4,2,2,60,0,0
191746,-100,4,2,2,75,0,0

[Colours]
Combo1 : 255,45,77
Combo2 : 74,74,255
Combo3 : 240,253,85
Combo4 : 255,83,199

[HitObjects]
95,106,4846,6,0,L|133:281,1,180,6|0,0:0|0:0,0:0:0:0:
272,363,6046,2,0,P|334:337|402:335,1,135,0|0,0:0|0:0,0:0:0:0:
482,324,6796,2,0,L|464:174,1,135,4|4,0:0|0:0,0:0:0:0:
382,51,7846,6,0,B|260:27|262:107|117:47,1,270,0|8,0:0|0:0,0:0:0:0:
7,97,9196,2,0,L|12:235,1,135,4|4,0:0|0:0,0:0:0:0:
29,311,9946,6,0,B|123:321|114:266|202:275,1,180,8|8,0:0|0:0,0:0:0:0:
355,327,11146,2,0,P|361:239|324:158,1,180,8|8,0:0|0:0,0:0:0:0:
253,118,12046,6,0,L|152:127,1,90,4|8,0:0|0:0,0:0:0:0:
1,138,12946,2,0,P|50:211|45:299,1,180,8|8,0:0|0:0,0:0:0:0:
147,365,13996,2,0,L|280:348,1,135,4|2,0:0|0:0,0:0:0:0:
360,338,14746,6,0,P|355:294|370:252,1,90,8|2,0:0|0:0,0:0:0:0:
477,130,15646,2,0,L|295:101,1,180,2|0,0:0|0:0,0:0:0:0:
219,87,16546,1,8,0:0:0:0:
183,159,16846,6,0,P|103:120|171:58,1,180,2|2,0:0|0:0,0:0:0:0:
219,87,17746,1,8,0:0:0:0:
267,151,18046,2,0,L|256:349,1,180,2|0,0:0|0:0,0:0:0:0:
177,344,18946,1,8,0:0:0:0:
99,321,19246,6,0,L|85:214,1,90,4|8,0:0|0:0,0:0:0:0:
82,149,19846,2,0,P|139:90|84:30,2,180,2|2|0,0:0|0:0|0:0,0:0:0:0:
13,192,21346,1,0,0:0:0:0:
66,254,21646,6,0,B|199:282|199:282|185:212|214:174|267:130|366:149|393:230|385:280|346:341|278:340,1,540,8|4,3:3|0:0,0:0:0:0:
456,364,24046,6,0,P|480:278|472:189,1,180,6|8,0:0|0:0,0:0:0:0:
434,118,24946,1,2,0:0:0:0:
353,130,25246,2,0,P|266:127|181:72,1,180,2|8,0:0|0:0,0:0:0:0:
124,29,26146,1,0,0:0:0:0:
66,85,26446,6,0,L|40:176,1,89.9999999999999,2|2,0:0|0:0,0:0:0:0:
43,252,27046,2,0,L|67:346,1,90,8|2,0:0|0:0,0:0:0:0:
144,354,27646,2,0,P|231:338|319:355,1,180,2|8,0:0|0:0,0:0:0:0:
400,361,28546,1,0,0:0:0:0:
465,313,28846,6,0,L|450:126,1,180,2|8,0:0|0:0,0:0:0:0:
440,52,29746,1,2,0:0:0:0:
363,79,30046,2,0,P|267:102|187:68,1,180,2|8,0:0|0:0,0:0:0:0:
125,30,30946,1,2,0:0:0:0:
47,54,31246,6,0,L|52:158,1,90,2|2,0:0|0:0,0:0:0:0:
102,207,31846,2,0,L|89:302,1,89.9999999999999,8|2,0:0|0:0,0:0:0:0:
137,362,32446,2,0,P|214:342|324:354,1,180,2|8,0:0|0:0,0:0:0:0:
474,371,33646,6,0,P|494:307|492:239,2,135,2|2|2,0:0|0:0|0:0,0:0:0:0:
395,345,34846,2,0,L|291:357,1,90,0|0,0:0|0:0,0:0:0:0:
224,361,35446,2,0,P|226:317|215:273,1,90,8|2,0:0|0:0,0:0:0:0:
141,237,36046,6,0,P|78:257|11:252,2,135,2|2|2,0:0|0:0|0:0,0:0:0:0:
187,81,37546,2,0,L|294:91,1,90,0|8,3:0|0:0,0:0:0:0:
357,98,38146,1,2,0:0:0:0:
422,145,38446,6,0,P|381:222|441:296,1,180,2|8,0:0|0:0,0:0:0:0:
490,345,39346,1,0,3:0:0:0:
413,370,39646,2,0,L|226:379,1,180,2|0,0:0|0:0,0:0:0:0:
79,328,40846,6,0,B|99:268|74:178|74:178|182:236,1,270,0|2,3:0|0:0,0:0:0:0:
251,268,42046,2,0,P|290:246|319:212,2,90,0|0|0,0:0|3:0|3:0,0:0:0:0:
166,129,43246,6,0,B|58:64|58:64|127:43,1,180,6|8,0:0|0:0,0:0:0:0:
190,35,44146,1,2,0:0:0:0:
267,58,44446,2,0,L|452:49,1,180,2|0,0:0|0:0,0:0:0:0:
469,209,45646,6,0,P|453:250|449:295,1,90,2|2,0:0|0:0,0:0:0:0:
389,350,46246,2,0,P|347:333|302:333,1,90,8|2,0:0|0:0,0:0:0:0:
225,358,46846,2,0,P|180:365|136:360,1,90,2|2,0:0|0:0,0:0:0:0:
65,321,47446,2,0,L|45:204,1,90,8|2,0:0|0:0,0:0:0:0:
34,152,48046,6,0,B|129:118|129:171|210:143,1,180,2|8,0:0|0:0,0:0:0:0:
279,101,48946,1,2,0:0:0:0:
354,131,49246,2,0,L|341:325,1,180,2|8,0:0|0:0,0:0:0:0:
491,373,50446,6,0,L|472:279,1,90,2|2,0:0|0:0,0:0:0:0:
460,204,51046,2,0,L|484:107,1,90,8|2,0:0|0:0,0:0:0:0:
478,35,51646,2,0,P|426:39|386:27,1,90,0|0,0:0|0:0,0:0:0:0:
309,21,52246,2,0,L|227:81,1,90,0|0,0:0|0:0,0:0:0:0:
177,129,52846,6,0,P|185:172|182:217,2,90,2|2|8,0:0|0:0|0:0,0:0:0:0:
118,72,53746,1,2,0:0:0:0:
50,117,54046,2,0,P|64:203|49:293,1,180,2|8,0:0|0:0,0:0:0:0:
203,342,55246,6,0,P|246:333|291:338,1,90,2|2,0:0|0:0,0:0:0:0:
364,372,55846,2,0,P|408:372|452:361,1,90,8|2,0:0|0:0,0:0:0:0:
492,290,56446,2,0,B|496:217|496:217|481:183|481:183|481:108,1,180,2|8,0:0|0:0,0:0:0:0:
326,62,57646,6,0,L|192:35,2,135,2|0|2,0:0|0:0|0:0,0:0:0:0:
371,128,58846,2,0,P|352:213|277:258,1,180,2|8,0:0|0:0,0:0:0:0:
122,308,60046,6,0,L|85:211,1,90,2|2,0:0|0:0,0:0:0:0:
53,151,60646,2,0,P|89:121|123:75,1,90,8|2,0:0|0:0,0:0:0:0:
176,33,61246,2,0,B|241:56|301:28|301:28|267:89|280:175,1,270,0|0,3:0|3:0,0:0:0:0:
306,241,62446,6,0,L|490:270,1,180,4|8,0:1|0:0,0:0:0:0:
510,345,63346,1,2,0:0:0:0:
430,362,63646,2,0,L|252:333,1,180,2|8,0:0|0:0,0:0:0:0:
171,344,64546,1,2,0:0:0:0:
99,306,64846,6,0,P|116:249|86:129,1,180,0|0,3:0|3:0,0:0:0:0:
42,68,65746,1,0,3:0:0:0:
124,60,66046,2,0,L|234:73,1,90,0|4,3:0|3:1,0:0:0:0:
285,107,66646,2,0,L|382:85,1,90,0|0,3:0|0:0,0:0:0:0:
451,101,67246,6,0,P|457:167|493:223,2,135,6|0|8,0:0|0:0|0:0,0:0:0:0:
400,37,68446,2,0,L|307:51,1,90,2|8,0:0|0:0,0:0:0:0:
231,67,69046,2,0,P|239:111|238:156,1,90,2|8,0:0|0:0,0:0:0:0:
247,236,69646,6,0,L|380:213,2,135,2|0|8,0:0|0:0|0:0,0:0:0:0:
167,220,70846,2,0,L|169:315,1,90,2|8,0:0|0:0,0:0:0:0:
104,358,71446,2,0,P|68:332|25:319,1,90,2|8,0:0|0:0,0:0:0:0:
16,239,72046,6,0,L|15:51,1,180,2|0,0:0|0:0,0:0:0:0:
176,46,73246,2,0,B|260:76|260:19|352:54,1,180,0|2,0:0|0:0,0:0:0:0:
351,216,74446,6,0,B|267:186|267:243|174:207,1,180,2|2,0:0|0:0,0:0:0:0:
24,147,75646,2,0,L|32:265,1,90,2|8,0:0|0:0,0:0:0:0:
40,316,76246,2,0,P|83:308|128:312,1,90,2|8,0:0|0:0,0:0:0:0:
209,320,76846,6,0,L|196:159,2,135,6|0|8,0:0|0:0|0:0,0:0:0:0:
283,351,78046,2,0,P|336:359|381:343,1,90,2|8,0:0|0:0,0:0:0:0:
442,311,78646,2,0,P|426:268|423:224,1,90,2|8,0:0|0:0,0:0:0:0:
399,146,79246,6,0,L|265:164,2,135,2|0|8,0:0|0:0|0:0,0:0:0:0:
477,126,80446,2,0,P|483:81|472:38,1,90,2|8,0:0|0:0,0:0:0:0:
393,21,81046,2,0,L|286:36,1,90,2|8,0:0|0:0,0:0:0:0:
223,38,81646,6,0,P|227:82|214:125,1,90,2|8,0:0|0:0,0:0:0:0:
147,171,82246,2,0,L|186:265,1,90,2|8,0:0|0:0,0:0:0:0:
220,324,82846,2,0,P|255:298|299:292,1,90,2|8,0:0|0:0,0:0:0:0:
381,288,83446,2,0,L|370:190,1,90,2|8,0:0|0:0,0:0:0:0:
256,192,84046,12,4,86446,0:0:0:0:
189,187,88846,22,0,B|172:151|116:135|105:54|161:10|221:17|259:89|259:89|309:37|371:43|409:114|382:177|329:201|263:195|233:275,1,630,8|0,3:0|3:0,0:0:0:0:
199,323,91246,6,0,P|245:337|294:317,1,90,6|2,0:0|0:0,0:0:0:0:
349,277,91846,2,0,P|373:319|406:363,1,90,8|2,0:0|0:0,0:0:0:0:
471,324,92446,2,0,P|471:214|486:130,1,180,2|8,0:0|0:0,0:0:0:0:
368,27,93646,6,0,L|276:53,1,90,2|2,0:0|0:0,0:0:0:0:
208,87,94246,2,0,L|109:67,1,90,8|2,0:0|0:0,0:0:0:0:
40,51,94846,2,0,B|10:140|71:140|40:226,1,180,2|8,0:0|0:0,0:0:0:0:
133,359,96046,6,0,P|215:324|303:339,1,180,2|8,0:0|0:0,0:0:0:0:
381,359,96946,1,2,0:0:0:0:
443,307,97246,2,0,P|429:218|454:133,1,180,2|8,0:0|0:0,0:0:0:0:
494,62,98146,1,2,0:0:0:0:
416,37,98446,6,0,L|301:59,1,90,2|2,0:0|0:0,0:0:0:0:
246,61,99046,2,0,L|150:48,1,90,8|2,0:0|0:0,0:0:0:0:
75,40,99646,2,0,B|78:113|78:113|65:147|65:147|69:225,1,180,2|8,0:0|0:0,0:0:0:0:
77,378,100846,6,0,P|120:367|164:360,1,90,2|2,0:0|0:0,0:0:0:0:
246,354,101446,2,0,B|215:262|265:263|249:176,1,180,8|2,0:0|0:0,0:0:0:0:
297,24,102646,2,0,L|410:13,1,90,8|2,0:0|0:0,0:0:0:0:
466,26,103246,6,0,P|462:70|467:115,1,90,2|2,0:0|0:0,0:0:0:0:
502,188,103846,2,0,L|409:216,1,90,8|2,0:0|0:0,0:0:0:0:
335,227,104446,2,0,P|321:185|289:154,2,90,2|8|8,0:0|0:0|0:0,0:0:0:0:
287,293,105346,1,2,0:0:0:0:
207,308,105646,6,0,B|116:277|116:342|31:308,1,180,2|8,0:0|0:0,0:0:0:0:
5,232,106546,1,2,0:0:0:0:
55,167,106846,2,0,P|141:145|208:87,1,180,2|0,0:0|0:0,0:0:0:0:
360,29,108046,6,0,B|384:78|353:134|353:134|376:176|376:176|349:238|374:284,1,270,0|2,3:0|0:0,0:0:0:0:
433,340,109246,2,0,P|476:320|516:282,2,90,0|0|0,0:0|3:0|3:0,0:0:0:0:
273,311,110446,6,0,B|253:257|265:187|265:187|236:204|213:202,1,180,6|8,0:0|0:0,0:0:0:0:
142,162,111346,1,2,0:0:0:0:
195,101,111646,2,0,L|374:38,1,180,2|0,0:0|0:0,0:0:0:0:
501,129,112846,6,0,P|485:170|481:215,1,90,2|2,0:0|0:0,0:0:0:0:
475,296,113446,2,0,P|429:296|388:314,1,90,8|2,0:0|0:0,0:0:0:0:
327,366,114046,2,0,P|282:373|238:368,1,90,2|2,0:0|0:0,0:0:0:0:
158,354,114646,2,0,P|168:310|156:267,1,90,8|10,0:0|0:0,0:0:0:0:
156,186,115246,6,0,P|242:169|290:95,1,180,2|8,0:0|0:0,0:0:0:0:
307,16,116146,1,2,0:0:0:0:
388,16,116446,2,0,L|435:199,1,180,2|8,0:0|0:0,0:0:0:0:
416,351,117646,6,0,P|373:335|329:332,1,90,2|2,0:0|0:0,0:0:0:0:
255,366,118246,2,0,P|211:376|166:365,1,90,8|2,0:0|0:0,0:0:0:0:
104,315,118846,2,0,L|87:211,1,90,2|2,0:0|0:0,0:0:0:0:
88,144,119446,2,0,P|132:147|176:137,1,90,8|2,0:0|0:0,0:0:0:0:
252,110,120046,6,0,P|261:155|257:199,2,90,2|2|8,0:0|0:0|0:0,0:0:0:0:
212,40,120946,1,2,0:0:0:0:
289,16,121246,2,0,L|486:39,1,180,2|8,0:0|0:0,0:0:0:0:
477,198,122446,6,0,L|482:311,1,90,2|2,0:0|0:0,0:0:0:0:
461,366,123046,2,0,P|419:349|374:342,1,90,8|2,0:0|0:0,0:0:0:0:
294,355,123646,2,0,B|229:355|167:375|167:375|190:325,1,180,2|8,0:0|0:0,0:0:0:0:
273,191,124846,6,0,P|340:177|407:175,2,135,2|0|2,0:0|0:0|0:0,0:0:0:0:
194,205,126046,2,0,P|179:118|106:70,1,180,2|8,0:0|0:0,0:0:0:0:
27,211,127246,6,0,L|40:304,1,90,2|2,0:0|0:0,0:0:0:0:
97,356,127846,2,0,P|138:340|183:339,1,90,8|2,0:0|0:0,0:0:0:0:
261,364,128446,2,0,P|368:323|290:239,1,270,0|0,3:0|3:0,0:0:0:0:
211,220,129646,6,0,P|222:131|199:44,1,180,4|0,0:1|0:0,0:0:0:0:
120,29,130546,1,0,0:0:0:0:
43,56,130846,2,0,P|31:144|54:231,1,180,2|0,0:0|0:0,0:0:0:0:
134,249,131746,1,2,0:0:0:0:
211,220,132046,6,0,B|296:252|296:187|386:222,1,180,0|0,3:0|3:0,0:0:0:0:
451,270,132946,1,0,3:0:0:0:
509,214,133246,2,0,L|517:114,1,90,0|4,3:0|3:1,0:0:0:0:
496,45,133846,2,0,L|408:17,1,90,0|0,3:0|0:0,0:0:0:0:
330,34,134446,6,0,P|270:63|204:63,2,135,6|0|8,0:0|0:0|0:0,0:0:0:0:
411,37,135646,2,0,L|398:138,1,90,2|8,0:0|0:0,0:0:0:0:
329,166,136246,2,0,L|362:249,1,90,2|8,0:0|0:0,0:0:0:0:
418,308,136846,6,0,P|477:277|511:220,2,135,2|0|8,0:0|0:0|0:0,0:0:0:0:
338,323,138046,2,0,P|293:314|249:322,1,90,2|8,0:0|0:0,0:0:0:0:
177,357,138646,2,0,P|132:365|88:359,1,90,2|8,0:0|0:0,0:0:0:0:
45,290,139246,6,0,L|44:102,1,180,2|2,0:0|0:0,0:0:0:0:
188,36,140446,2,0,B|272:66|272:9|364:44,1,180,2|0,0:0|0:0,0:0:0:0:
492,142,141646,6,0,B|464:226|521:225|489:319,1,180,2|2,0:0|0:0,0:0:0:0:
331,353,142846,2,0,L|235:335,1,90,2|8,0:0|0:0,0:0:0:0:
162,321,143446,2,0,P|147:273|112:232,1,90,2|8,0:0|0:0,0:0:0:0:
116,160,144046,6,0,L|254:169,2,135,6|0|8,0:0|0:0|0:0,0:0:0:0:
48,114,145246,2,0,P|70:74|78:30,1,90,2|8,0:0|0:0,0:0:0:0:
159,34,145846,2,0,L|258:41,1,90,2|8,0:0|0:0,0:0:0:0:
323,72,146446,6,0,P|383:56|450:29,2,135,2|0|8,0:0|0:0|0:0,0:0:0:0:
260,124,147646,2,0,P|270:167|264:211,1,90,2|8,0:0|0:0,0:0:0:0:
249,291,148246,2,0,L|340:281,1,90,2|8,0:0|0:0,0:0:0:0:
419,271,148846,6,0,P|432:228|428:183,1,90,2|8,0:0|0:0,0:0:0:0:
401,107,149446,2,0,L|298:93,1,90,2|8,0:0|0:0,0:0:0:0:
230,90,150046,2,0,P|229:134|208:173,1,90,2|8,0:0|0:0,0:0:0:0:
214,254,150646,2,0,L|322:224,1,90,2|8,0:0|0:0,0:0:0:0:
256,192,151246,12,2,153646,0:0:0:0:
249,156,163246,6,0,P|277:263|354:183,2,270,2|8|8,0:0|0:0|0:0,0:0:0:0:
226,77,165346,1,8,0:0:0:0:
155,118,165646,6,0,P|139:249|225:347,2,270,8|8|8,0:0|0:0|0:0,0:0:0:0:
226,77,167746,1,8,0:0:0:0:
306,65,168046,6,0,B|368:78|418:52|418:52|428:107|487:145,2,225,2|0|0,0:0|0:0|0:0,0:0:0:0:
279,142,169846,2,0,L|282:240,1,90,0|0,3:0|3:0,0:0:0:0:
281,313,170446,6,0,P|215:309|165:314,1,90,4|0,0:0|0:0,0:0:0:0:
113,334,171046,2,0,L|98:236,1,90,4|0,0:0|0:0,0:0:0:0:
82,165,171646,2,0,L|-6:204,2,90,4|0|4,0:0|0:0|0:1,0:0:0:0:
231,100,172846,6,0,P|237:166|285:216,2,135,6|0|8,0:0|0:0|0:0,0:0:0:0:
259,24,174046,2,0,L|355:31,1,90,2|8,0:0|0:0,0:0:0:0:
429,34,174646,2,0,P|423:78|435:121,1,90,2|8,0:0|0:0,0:0:0:0:
428,202,175246,6,0,L|295:225,2,135,2|0|8,0:0|0:0|0:0,0:0:0:0:
500,238,176446,2,0,L|493:333,1,90,2|8,0:0|0:0,0:0:0:0:
422,367,177046,2,0,P|385:341|342:329,1,90,2|8,0:0|0:0,0:0:0:0:
263,347,177646,6,0,B|175:382|175:322|88:345,1,180,2|2,0:0|0:0,0:0:0:0:
24,195,178846,2,0,B|41:147|27:73|27:73|74:106,1,180,2|0,0:0|0:0,0:0:0:0:
214,189,180046,6,0,B|307:157|270:113|354:82,1,180,2|2,0:0|0:0,0:0:0:0:
510,126,181246,2,0,L|497:240,1,90,2|8,0:0|0:0,0:0:0:0:
477,293,181846,2,0,P|434:279|389:279,1,90,2|8,0:0|0:0,0:0:0:0:
308,274,182446,6,0,L|295:113,2,135,6|0|8,0:0|0:0|0:0,0:0:0:0:
266,343,183646,2,0,P|222:353|178:344,1,90,2|8,0:0|0:0,0:0:0:0:
115,294,184246,2,0,P|130:252|134:207,1,90,2|8,0:0|0:0,0:0:0:0:
120,127,184846,6,0,L|-10:191,2,135,2|0|8,0:0|0:0|0:0,0:0:0:0:
198,106,186046,2,0,P|211:148|244:177,1,90,2|8,0:0|0:0,0:0:0:0:
324,189,186646,2,0,L|306:289,1,90,2|8,0:0|0:0,0:0:0:0:
321,357,187246,6,0,P|362:342|407:344,1,90,2|8,0:0|0:0,0:0:0:0:
488,351,187846,2,0,L|484:261,1,90,2|8,0:0|0:0,0:0:0:0:
473,180,188446,2,0,P|429:190|386:178,1,90,2|8,0:0|0:0,0:0:0:0:
318,135,189046,2,0,P|274:126|230:134,1,90,2|0,0:0|0:0,0:0:0:0:
256,192,189646,12,8,191746,0:0:0:0:
