osu file format v14

[General]
AudioFilename: audio.mp3
AudioLeadIn: 0
PreviewTime: 63864
Countdown: 0
SampleSet: Normal
StackLeniency: 0.2
Mode: 1
LetterboxInBreaks: 0
WidescreenStoryboard: 0

[Editor]
DistanceSpacing: 0.8
BeatDivisor: 4
GridSize: 32
TimelineZoom: 2

[Metadata]
Title:Dream Catcher (TV Size)
TitleUnicode:ドリームキャッチャー (TV Size)
Artist:BERRY GOODMAN
ArtistUnicode:ベリーグッドマン
Creator:Poii
Version:Kantan
Source:メジャーセカンド
Tags:MAJOR 2nd season baseball opening op yales
BeatmapID:1787576
BeatmapSetID:855524

[Difficulty]
HPDrainRate:8
CircleSize:2
OverallDifficulty:2
ApproachRate:10
SliderMultiplier:1.4
SliderTickRate:1

[Events]
//Background and Video events
0,0,"at least its baseball wallpaper.jpg",0,-30
//Break Periods
//Storyboard Layer 0 (Background)
//Storyboard Layer 1 (Fail)
//Storyboard Layer 2 (Pass)
//Storyboard Layer 3 (Foreground)
//Storyboard Sound Samples

[TimingPoints]
811,530.973451327434,4,1,0,50,1,0
17802,-100,3,1,0,65,0,0
64527,-100,3,1,0,65,0,1
83111,-100,3,1,0,5,0,1
83908,-100,3,1,0,5,0,0

[HitObjects]
64,192,811,5,0,0:0:0:0:
64,192,1872,1,8,0:0:0:0:
64,192,2934,1,8,0:0:0:0:
64,192,3996,1,0,0:0:0:0:
64,192,5058,1,8,0:0:0:0:
64,192,6120,1,8,0:0:0:0:
64,192,7182,1,0,0:0:0:0:
64,192,8244,1,8,0:0:0:0:
64,192,9306,1,0,0:0:0:0:
64,192,10368,1,0,0:0:0:0:
64,192,11430,1,0,0:0:0:0:
64,192,11961,1,8,0:0:0:0:
64,192,12492,1,8,0:0:0:0:
64,192,13554,1,0,0:0:0:0:
64,192,14616,1,0,0:0:0:0:
64,192,15678,1,8,0:0:0:0:
64,192,17271,1,8,0:0:0:0:
64,192,17802,1,4,0:0:0:0:
64,192,18864,1,0,0:0:0:0:
64,192,19395,1,8,0:0:0:0:
64,192,19926,1,0,0:0:0:0:
64,192,20987,1,0,0:0:0:0:
64,192,21518,1,0,0:0:0:0:
64,192,22049,1,8,0:0:0:0:
64,192,23111,1,0,0:0:0:0:
64,192,23642,1,8,0:0:0:0:
64,192,24173,1,0,0:0:0:0:
64,192,25235,1,8,0:0:0:0:
64,192,25766,1,0,0:0:0:0:
64,192,26297,1,4,0:0:0:0:
64,192,27359,1,8,0:0:0:0:
64,192,28421,1,0,0:0:0:0:
64,192,28952,1,8,0:0:0:0:
64,192,29483,1,8,0:0:0:0:
64,192,30545,1,8,0:0:0:0:
64,192,31607,1,8,0:0:0:0:
64,192,32669,1,8,0:0:0:0:
64,192,34262,1,0,0:0:0:0:
64,192,34793,1,0,0:0:0:0:
64,192,35324,1,8,0:0:0:0:
64,192,35855,1,0,0:0:0:0:
64,192,36917,1,0,0:0:0:0:
64,192,37448,1,0,0:0:0:0:
64,192,37979,1,8,0:0:0:0:
64,192,39041,1,0,0:0:0:0:
64,192,39572,1,0,0:0:0:0:
64,192,40103,1,8,0:0:0:0:
64,192,41164,1,8,0:0:0:0:
64,192,42757,1,0,0:0:0:0:
64,192,43288,1,12,0:0:0:0:
64,192,44350,1,8,0:0:0:0:
64,192,45412,1,8,0:0:0:0:
64,192,45943,1,0,0:0:0:0:
64,192,46474,1,0,0:0:0:0:
64,192,47536,1,0,0:0:0:0:
64,192,48067,1,0,0:0:0:0:
64,192,48598,1,8,0:0:0:0:
64,192,49660,1,8,0:0:0:0:
64,192,50722,1,0,0:0:0:0:
64,192,51253,1,0,0:0:0:0:
64,192,51784,1,8,0:0:0:0:
64,192,52846,1,8,0:0:0:0:
64,192,53908,1,0,0:0:0:0:
64,192,54439,1,8,0:0:0:0:
64,192,54970,1,0,0:0:0:0:
64,192,56032,1,12,0:0:0:0:
64,192,57094,1,0,0:0:0:0:
64,192,57625,1,0,0:0:0:0:
64,192,58156,1,8,0:0:0:0:
64,192,59749,1,0,0:0:0:0:
64,192,60280,1,12,0:0:0:0:
64,192,61341,1,8,0:0:0:0:
64,192,62403,1,8,0:0:0:0:
64,192,63996,1,12,0:0:0:0:
64,192,64527,1,4,0:0:0:0:
64,192,65589,1,8,0:0:0:0:
64,192,66120,1,8,0:0:0:0:
64,192,66651,1,0,0:0:0:0:
64,192,67182,1,0,0:0:0:0:
64,192,67713,1,8,0:0:0:0:
64,192,68775,1,12,0:0:0:0:
64,192,69306,1,0,0:0:0:0:
64,192,69837,1,8,0:0:0:0:
64,192,70899,1,0,0:0:0:0:
64,192,71961,1,8,0:0:0:0:
64,192,73023,1,4,0:0:0:0:
64,192,74085,1,0,0:0:0:0:
64,192,74616,1,8,0:0:0:0:
64,192,75147,1,0,0:0:0:0:
64,192,75678,1,0,0:0:0:0:
64,192,76209,1,8,0:0:0:0:
64,192,77271,1,4,0:0:0:0:
64,192,78333,1,0,0:0:0:0:
64,192,79395,1,12,0:0:0:0:
64,192,80457,1,0,0:0:0:0:
64,192,80987,1,8,0:0:0:0:
64,192,81518,1,4,0:0:0:0:
256,192,82049,12,8,83908,0:0:0:0:
