osu file format v14

[General]
AudioFilename: audio.mp3
AudioLeadIn: 0
PreviewTime: 89355
Countdown: 0
SampleSet: Soft
StackLeniency: 0.7
Mode: 3
LetterboxInBreaks: 0
SpecialStyle: 0
WidescreenStoryboard: 1

[Editor]
DistanceSpacing: 0.5
BeatDivisor: 4
GridSize: 32
TimelineZoom: 0.1

[Metadata]
Title:TWO-TORIAL
TitleUnicode:TWO-TORIAL
Artist:BEMANI Sound Team(PHQUASE vs DJ TOTTO)
ArtistUnicode:BEMANI Sound Team(PHQUASE vs DJ TOTTO)
Creator:Fresh Chicken
Version:EXHAUST
Source:SOUND VOLTEX IV HEAVENLY HAVEN
Tags:SDVX Listen Go ボルテナイザー・マキシマ Bottenizer Maxima Omega Dimension Phase 2 Ω TUTORIAL
BeatmapID:1539512
BeatmapSetID:729331

[Difficulty]
HPDrainRate:8
CircleSize:4
OverallDifficulty:8
ApproachRate:5
SliderMultiplier:1.4
SliderTickRate:1

[Events]
//Background and Video events
0,0,"listen..png",0,0
//Break Periods
2,49344,50550
2,53922,55057
2,58429,61817
2,67443,70831
2,85753,88015
2,111386,114775
//Storyboard Layer 0 (Background)
//Storyboard Layer 1 (Fail)
//Storyboard Layer 2 (Pass)
//Storyboard Layer 3 (Foreground)
//Storyboard Layer 4 (Overlay)
//Storyboard Sound Samples
Sample,25024,0,"shisih.wav",70
Sample,25060,0,"shisih.wav",70
Sample,25588,0,"shisih.wav",70
Sample,25623,0,"shisih.wav",70
Sample,26151,0,"shisih.wav",70
Sample,26186,0,"shisih.wav",70
Sample,26961,0,"crash.wav",50
Sample,49496,0,"kk.wav",50
Sample,49496,0,"crash.wav",50
Sample,49778,0,"snare.wav",50
Sample,50200,0,"kk.wav",50
Sample,50341,0,"snare.wav",50
Sample,50623,0,"kk.wav",50
Sample,50905,0,"snare.wav",50
Sample,51045,0,"kk.wav",50
Sample,51327,0,"kk.wav",50
Sample,51468,0,"snare.wav",50
Sample,54003,0,"kk.wav",50
Sample,54003,0,"crash.wav",50
Sample,54285,0,"snare.wav",50
Sample,54426,0,"kk.wav",50
Sample,54707,0,"kk.wav",50
Sample,54848,0,"snare.wav",50
Sample,55130,0,"kk.wav",50
Sample,55271,0,"kk.wav",50
Sample,55412,0,"snare.wav",50
Sample,55553,0,"kk.wav",50
Sample,55834,0,"kk.wav",50
Sample,55975,0,"snare.wav",50
Sample,58510,0,"snare.wav",50
Sample,58510,0,"crash.wav",50
Sample,58792,0,"snare.wav",50
Sample,58933,0,"kk.wav",50
Sample,59215,0,"kk.wav",50
Sample,59355,0,"snare.wav",50
Sample,59637,0,"kk.wav",50
Sample,59778,0,"kk.wav",50
Sample,59919,0,"snare.wav",50
Sample,60060,0,"kk.wav",50
Sample,60200,0,"kk.wav",50
Sample,60341,0,"kk.wav",50
Sample,60412,0,"kk.wav",50
Sample,60482,0,"snare.wav",50
Sample,60623,0,"kk.wav",50
Sample,60764,0,"kk.wav",50
Sample,60905,0,"kk.wav",50
Sample,61045,0,"snare.wav",50
Sample,61186,0,"kk.wav",50
Sample,61327,0,"kk.wav",50
Sample,61468,0,"kk.wav",50
Sample,61609,0,"snare.wav",50
Sample,61750,0,"kk.wav",50
Sample,61891,0,"kk.wav",50
Sample,62031,0,"kk.wav",50
Sample,62102,0,"kk.wav",50
Sample,62172,0,"snare.wav",50
Sample,62313,0,"kk.wav",50
Sample,62454,0,"kk.wav",50
Sample,62595,0,"kk.wav",50
Sample,62736,0,"snare.wav",50
Sample,67524,0,"snare.wav",50
Sample,67524,0,"crash.wav",50
Sample,67806,0,"snare.wav",50
Sample,67947,0,"kk.wav",50
Sample,68088,0,"kk.wav",50
Sample,68229,0,"kk.wav",50
Sample,68369,0,"snare.wav",50
Sample,68510,0,"kk.wav",50
Sample,68651,0,"kk.wav",50
Sample,68792,0,"kk.wav",50
Sample,68933,0,"snare.wav",50
Sample,69074,0,"kk.wav",50
Sample,69215,0,"kk.wav",50
Sample,69285,0,"kk.wav",50
Sample,69355,0,"kk.wav",50
Sample,69426,0,"kk.wav",50
Sample,69496,0,"snare.wav",50
Sample,69637,0,"kk.wav",50
Sample,69778,0,"kk.wav",50
Sample,69919,0,"kk.wav",50
Sample,70060,0,"snare.wav",50
Sample,70200,0,"kk.wav",50
Sample,70271,0,"kk.wav",50
Sample,70341,0,"kk.wav",50
Sample,70482,0,"kk.wav",50
Sample,70623,0,"snare.wav",50
Sample,70764,0,"kk.wav",50
Sample,70905,0,"kk.wav",50
Sample,70975,0,"kk.wav",50
Sample,71045,0,"kk.wav",50
Sample,71116,0,"kk.wav",50
Sample,71186,0,"snare.wav",50
Sample,71327,0,"kk.wav",50
Sample,71468,0,"kk.wav",50
Sample,71609,0,"kk.wav",50
Sample,71750,0,"snare.wav",50
Sample,111468,0,"kk.wav",50
Sample,111468,0,"crash.wav",50
Sample,111609,0,"kk.wav",50
Sample,111679,0,"kk.wav",50
Sample,111750,0,"snare.wav",50
Sample,111891,0,"kk.wav",50
Sample,112031,0,"kk.wav",50
Sample,112102,0,"kk.wav",50
Sample,112172,0,"snare.wav",50
Sample,112313,0,"kk.wav",50
Sample,112454,0,"kk.wav",50
Sample,112595,0,"snare.wav",50
Sample,112736,0,"kk.wav",50
Sample,112876,0,"snare.wav",50
Sample,113017,0,"kk.wav",50
Sample,113158,0,"kk.wav",50
Sample,113299,0,"kk.wav",50
Sample,113369,0,"kk.wav",50
Sample,113440,0,"snare.wav",50
Sample,113581,0,"kk.wav",50
Sample,113722,0,"kk.wav",50
Sample,113862,0,"kk.wav",50
Sample,113933,0,"kk.wav",50
Sample,114003,0,"snare.wav",50
Sample,114144,0,"kk.wav",50
Sample,114285,0,"snare.wav",50
Sample,114426,0,"kk.wav",50
Sample,114567,0,"snare.wav",50
Sample,114707,0,"kk.wav",50
Sample,114848,0,"kk.wav",50
Sample,114919,0,"kk.wav",50
Sample,114989,0,"kk.wav",50
Sample,115060,0,"kk.wav",50
Sample,115130,0,"snare.wav",50
Sample,115271,0,"kk.wav",50
Sample,115412,0,"kk.wav",50
Sample,115553,0,"kk.wav",50
Sample,115693,0,"snare.wav",50

[TimingPoints]
1046,281.69014084507,4,2,1,40,1,0

[HitObjects]
192,192,1046,5,0,0:0:0:50:crash.wav
64,192,1046,1,0,0:0:0:0:
448,192,1046,128,0,3299:0:0:0:0:
320,192,3299,1,0,0:0:0:50:kk.wav
64,192,3299,128,0,3440:0:0:0:0:
192,192,3440,128,0,3581:0:0:0:0:
320,192,3581,128,0,3722:0:0:0:0:
448,192,3722,1,0,0:0:0:0:
64,192,3722,1,0,0:0:0:0:
192,192,3933,1,0,0:0:0:0:
448,192,4003,128,0,4144:0:0:0:0:
64,192,4144,1,0,0:0:0:0:
192,192,4215,1,0,0:0:0:0:
320,192,4285,1,0,0:0:0:0:
448,192,4355,1,0,0:0:0:0:
64,192,4426,1,0,0:0:0:0:
192,192,4496,1,0,0:0:0:0:
448,192,4567,1,0,0:0:0:0:
320,192,4637,1,0,0:0:0:0:
192,192,4707,1,0,0:0:0:0:
64,192,4778,1,0,0:0:0:0:
448,192,4848,1,0,0:0:0:0:
320,192,4919,1,0,0:0:0:0:
192,192,4989,1,0,0:0:0:50:kk.wav
64,192,4989,1,0,0:0:0:0:
320,192,5060,1,0,0:0:0:50:kk.wav
448,192,5130,1,0,0:0:0:50:kk.wav
64,192,5130,1,0,0:0:0:0:
192,192,5200,1,0,0:0:0:50:kk.wav
320,192,5271,1,0,0:0:0:50:kk.wav
448,192,5271,1,0,0:0:0:0:
192,192,5341,1,0,0:0:0:50:kk.wav
448,192,5412,1,0,0:0:0:50:kk.wav
64,192,5412,1,0,0:0:0:0:
320,192,5482,128,0,5834:0:0:0:50:kk.wav
448,192,5834,1,0,0:0:0:50:kk.wav
64,192,5834,128,0,7806:0:0:0:0:
192,192,7524,1,0,0:0:0:0:
320,192,7595,1,0,0:0:0:0:
448,192,7665,1,0,0:0:0:0:
192,192,7736,1,0,0:0:0:0:
448,192,7806,1,0,0:0:0:0:
320,192,7876,1,0,0:0:0:0:
192,192,7947,1,0,0:0:0:0:
64,192,8017,1,0,0:0:0:0:
448,192,8088,1,0,0:0:0:0:
320,192,8158,1,0,0:0:0:0:
192,192,8229,1,0,0:0:0:0:
64,192,8299,1,0,0:0:0:0:
448,192,8369,1,0,0:0:0:0:
320,192,8440,1,0,0:0:0:0:
192,192,8510,1,0,0:0:0:50:kk.wav
64,192,8510,1,0,0:0:0:0:
320,192,8651,1,0,0:0:0:50:snare.wav
448,192,8651,1,0,0:0:0:0:
64,192,8933,1,0,0:0:0:50:kk.wav
448,192,8933,128,0,9215:0:0:0:0:
64,192,9215,1,0,0:0:0:50:crash.wav
192,192,9215,1,0,0:0:0:50:snare.wav
448,192,9355,1,0,0:0:0:0:
320,192,9426,1,0,0:0:0:0:
192,192,9496,1,0,0:0:0:50:kk.wav
320,192,9567,1,0,0:0:0:0:
448,192,9637,1,0,0:0:0:0:
192,192,9778,1,0,0:0:0:50:snare.wav
64,192,9778,128,0,9919:0:0:0:0:
448,192,9919,1,0,0:0:0:0:
192,192,9989,1,0,0:0:0:0:
448,192,10060,1,0,0:0:0:50:kk.wav
64,192,10130,1,0,0:0:0:0:
64,192,10271,1,0,0:0:0:0:
320,192,10341,1,0,0:0:0:50:snare.wav
448,192,10341,1,0,0:0:0:0:
192,192,10482,1,0,0:0:0:0:
64,192,10553,1,0,0:0:0:0:
320,192,10623,1,0,0:0:0:50:kk.wav
192,192,10693,1,0,0:0:0:0:
448,192,10764,1,0,0:0:0:0:
320,192,10834,1,0,0:0:0:0:
192,192,10905,128,0,11045:0:0:0:50:snare.wav
64,192,10905,1,0,0:0:0:0:
448,192,11045,1,0,0:0:0:0:
64,192,11186,128,0,11327:0:0:0:50:kk.wav
192,192,11327,128,0,11398:0:0:0:0:
320,192,11398,128,0,11468:0:0:0:0:
448,192,11468,1,0,0:0:0:50:snare.wav
64,192,11468,1,0,0:0:0:0:
192,192,11609,1,0,0:0:0:0:
320,192,11679,1,0,0:0:0:0:
448,192,11750,1,0,0:0:0:50:kk.wav
320,192,11820,1,0,0:0:0:0:
192,192,11891,1,0,0:0:0:0:
320,192,12031,1,0,0:0:0:50:snare.wav
448,192,12031,128,0,12172:0:0:0:0:
64,192,12172,1,0,0:0:0:0:
192,192,12243,1,0,0:0:0:0:
448,192,12313,1,0,0:0:0:50:kk.wav
64,192,12384,1,0,0:0:0:0:
448,192,12454,1,0,0:0:0:0:
64,192,12524,1,0,0:0:0:0:
320,192,12595,1,0,0:0:0:50:snare.wav
448,192,12595,1,0,0:0:0:0:
192,192,12665,1,0,0:0:0:0:
320,192,12736,1,0,0:0:0:0:
192,192,12806,1,0,0:0:0:0:
448,192,12876,1,0,0:0:0:50:kk.wav
320,192,13017,1,0,0:0:0:0:
448,192,13158,1,0,0:0:0:50:snare.wav
64,192,13158,1,0,0:0:0:0:
192,192,13299,1,0,0:0:0:0:
64,192,13440,128,0,13722:0:0:0:50:kk.wav
320,192,13440,128,0,13722:0:0:0:0:
192,192,13722,1,0,0:0:0:50:snare.wav
448,192,13722,1,0,0:0:0:0:
64,192,13862,1,0,0:0:0:0:
192,192,13933,1,0,0:0:0:0:
320,192,14003,1,0,0:0:0:50:kk.wav
192,192,14074,1,0,0:0:0:0:
64,192,14144,1,0,0:0:0:0:
320,192,14285,1,0,0:0:0:50:snare.wav
448,192,14285,128,0,14426:0:0:0:0:
64,192,14426,1,0,0:0:0:0:
320,192,14496,1,0,0:0:0:0:
64,192,14567,1,0,0:0:0:50:kk.wav
448,192,14637,1,0,0:0:0:0:
448,192,14778,1,0,0:0:0:0:
64,192,14848,1,0,0:0:0:50:snare.wav
192,192,14848,1,0,0:0:0:0:
320,192,14989,1,0,0:0:0:0:
448,192,15060,1,0,0:0:0:0:
192,192,15130,1,0,0:0:0:50:kk.wav
320,192,15200,1,0,0:0:0:0:
192,192,15271,1,0,0:0:0:0:
64,192,15341,1,0,0:0:0:0:
448,192,15412,1,0,0:0:0:50:snare.wav
320,192,15412,1,0,0:0:0:0:
64,192,15482,1,0,0:0:0:0:
192,192,15553,128,0,15693:0:0:0:0:
448,192,15693,1,0,0:0:0:50:kk.wav
64,192,15764,1,0,0:0:0:0:
192,192,15834,1,0,0:0:0:0:
320,192,15905,1,0,0:0:0:0:
448,192,15975,1,0,0:0:0:50:snare.wav
64,192,15975,1,0,0:0:0:0:
192,192,16116,1,0,0:0:0:0:
320,192,16186,1,0,0:0:0:0:
64,192,16257,1,0,0:0:0:50:kk.wav
320,192,16398,1,0,0:0:0:0:
64,192,16468,1,0,0:0:0:0:
192,192,16538,1,0,0:0:0:50:snare.wav
448,192,16538,1,0,0:0:0:0:
320,192,16609,1,0,0:0:0:0:
64,192,16679,1,0,0:0:0:0:
192,192,16750,1,0,0:0:0:0:
320,192,16820,1,0,0:0:0:50:kk.wav
64,192,16891,1,0,0:0:0:0:
448,192,16961,1,0,0:0:0:0:
192,192,17031,1,0,0:0:0:0:
320,192,17102,1,0,0:0:0:0:
192,192,17243,128,0,17384:0:0:0:0:
448,192,17384,1,0,0:0:0:50:kk.wav
64,192,17454,1,0,0:0:0:50:kk.wav
448,192,17524,1,0,0:0:0:50:kk.wav
64,192,17595,1,0,0:0:0:50:kk.wav
448,192,17665,1,0,0:0:0:50:kk.wav
64,192,17806,1,0,0:0:0:50:kk.wav
448,192,17947,128,0,18229:0:0:0:50:kk.wav
320,192,17947,1,0,0:0:0:0:
64,192,18229,1,0,0:0:0:50:snare.wav
192,192,18229,1,0,0:0:0:50:crash.wav
320,192,18369,1,0,0:0:0:0:
448,192,18440,1,0,0:0:0:0:
192,192,18510,1,0,0:0:0:50:kk.wav
64,192,18510,1,0,0:0:0:0:
448,192,18581,1,0,0:0:0:0:
320,192,18651,1,0,0:0:0:0:
192,192,18722,1,0,0:0:0:0:
64,192,18792,128,0,18933:0:0:0:50:snare.wav
448,192,18792,1,0,0:0:0:0:
320,192,18933,1,0,0:0:0:0:
192,192,19074,1,0,0:0:0:50:kk.wav
448,192,19074,1,0,0:0:0:0:
320,192,19144,1,0,0:0:0:0:
64,192,19215,1,0,0:0:0:0:
192,192,19285,1,0,0:0:0:0:
320,192,19355,1,0,0:0:0:50:snare.wav
448,192,19355,1,0,0:0:0:0:
64,192,19496,1,0,0:0:0:0:
320,192,19637,1,0,0:0:0:50:kk.wav
448,192,19637,1,0,0:0:0:0:
192,192,19707,1,0,0:0:0:0:
320,192,19778,1,0,0:0:0:0:
192,192,19848,1,0,0:0:0:0:
64,192,19919,1,0,0:0:0:50:snare.wav
320,192,19919,128,0,20060:0:0:0:0:
192,192,20060,1,0,0:0:0:0:
448,192,20200,128,0,20482:0:0:0:50:kk.wav
64,192,20200,1,0,0:0:0:0:
192,192,20271,1,0,0:0:0:0:
320,192,20341,1,0,0:0:0:0:
192,192,20412,1,0,0:0:0:0:
320,192,20482,1,0,0:0:0:50:snare.wav
64,192,20482,1,0,0:0:0:0:
192,192,20623,1,0,0:0:0:0:
448,192,20693,1,0,0:0:0:0:
320,192,20764,1,0,0:0:0:50:kk.wav
64,192,20764,1,0,0:0:0:0:
448,192,20834,1,0,0:0:0:0:
192,192,20905,1,0,0:0:0:0:
320,192,21045,128,0,21186:0:0:0:50:snare.wav
64,192,21045,1,0,0:0:0:0:
192,192,21186,1,0,0:0:0:0:
64,192,21327,1,0,0:0:0:50:kk.wav
448,192,21327,1,0,0:0:0:0:
192,192,21398,1,0,0:0:0:0:
448,192,21468,1,0,0:0:0:0:
192,192,21538,1,0,0:0:0:0:
448,192,21609,1,0,0:0:0:50:snare.wav
64,192,21609,1,0,0:0:0:0:
320,192,21679,1,0,0:0:0:0:
64,192,21750,1,0,0:0:0:0:
320,192,21820,1,0,0:0:0:0:
192,192,21891,1,0,0:0:0:50:kk.wav
64,192,21891,1,0,0:0:0:0:
320,192,22031,1,0,0:0:0:50:kk.wav
448,192,22031,1,0,0:0:0:0:
448,192,22172,1,0,0:0:0:50:snare.wav
192,192,22172,1,0,0:0:0:0:
320,192,22313,1,0,0:0:0:50:kk.wav
64,192,22313,1,0,0:0:0:0:
192,192,22454,1,0,0:0:0:50:crash.wav
320,192,22454,1,0,0:0:0:50:kk.wav
448,192,22454,128,0,22665:0:0:0:0:
192,192,22665,1,0,0:0:0:50:kk.wav
64,192,22665,1,0,0:0:0:0:
320,192,22736,1,0,0:0:0:50:snare.wav
448,192,22736,1,0,0:0:0:0:
192,192,22876,1,0,0:0:0:0:
320,192,22947,1,0,0:0:0:0:
448,192,23017,1,0,0:0:0:50:kk.wav
64,192,23017,1,0,0:0:0:0:
320,192,23158,1,0,0:0:0:50:kk.wav
192,192,23158,1,0,0:0:0:0:
448,192,23299,1,0,0:0:0:50:snare.wav
64,192,23299,1,0,0:0:0:0:
448,192,23440,1,0,0:0:0:50:kk.wav
64,192,23440,1,0,0:0:0:0:
64,192,23581,128,0,23792:0:0:0:50:crash.wav
320,192,23581,1,0,0:0:0:50:kk.wav
192,192,23581,1,0,0:0:0:0:
448,192,23792,1,0,0:0:0:50:kk.wav
320,192,23792,1,0,0:0:0:0:
64,192,23862,1,0,0:0:0:50:snare.wav
192,192,23862,1,0,0:0:0:0:
320,192,24003,1,0,0:0:0:0:
192,192,24074,1,0,0:0:0:0:
448,192,24144,1,0,0:0:0:50:kk.wav
64,192,24144,1,0,0:0:0:0:
320,192,24285,1,0,0:0:0:50:kk.wav
192,192,24285,1,0,0:0:0:0:
448,192,24426,1,0,0:0:0:50:snare.wav
64,192,24426,1,0,0:0:0:0:
192,192,24567,1,0,0:0:0:0:
320,192,24637,1,0,0:0:0:0:
64,192,24707,1,0,0:0:0:50:kk.wav
448,192,24707,1,0,0:0:0:70:shisih.wav
192,192,24801,1,0,0:0:0:70:shisih.wav
64,192,24895,1,0,0:0:0:70:shisih.wav
192,192,24989,128,0,25177:0:0:0:70:shisih.wav
320,192,25177,1,0,0:0:0:0:
448,192,25271,1,0,0:0:0:50:kk.wav
64,192,25271,1,0,0:0:0:70:shisih.wav
320,192,25365,1,0,0:0:0:70:shisih.wav
448,192,25459,1,0,0:0:0:70:shisih.wav
320,192,25553,128,0,25740:0:0:0:70:shisih.wav
192,192,25740,1,0,0:0:0:0:
64,192,25834,1,0,0:0:0:50:kk.wav
448,192,25834,1,0,0:0:0:70:shisih.wav
192,192,25928,1,0,0:0:0:70:shisih.wav
64,192,26022,1,0,0:0:0:70:shisih.wav
192,192,26116,128,0,26304:0:0:0:70:shisih.wav
64,192,26304,1,0,0:0:0:0:
320,192,26538,1,0,0:0:0:50:kk.wav
448,192,26679,128,0,26961:0:0:0:50:snare.wav
64,192,26679,128,0,26961:0:0:0:0:
320,192,26961,1,0,0:0:0:50:kk.wav
192,192,27055,1,0,0:0:0:0:
64,192,27149,1,0,0:0:0:0:
320,192,27243,128,0,27430:0:0:0:0:
192,192,27430,1,0,0:0:0:0:
448,192,27524,1,0,0:0:0:50:snare.wav
320,192,27618,1,0,0:0:0:0:
192,192,27712,1,0,0:0:0:0:
320,192,27806,128,0,27994:0:0:0:0:
192,192,27994,1,0,0:0:0:0:
64,192,28088,1,0,0:0:0:0:
192,192,28182,1,0,0:0:0:0:
320,192,28276,1,0,0:0:0:0:
64,192,28369,128,0,28557:0:0:0:50:kk.wav
448,192,28557,1,0,0:0:0:0:
192,192,28651,1,0,0:0:0:50:snare.wav
320,192,28745,1,0,0:0:0:0:
448,192,28839,1,0,0:0:0:0:
64,192,28933,1,0,0:0:0:0:
448,192,29027,1,0,0:0:0:0:
64,192,29121,1,0,0:0:0:0:
192,192,29215,1,0,0:0:0:50:kk.wav
320,192,29308,1,0,0:0:0:0:
448,192,29402,1,0,0:0:0:0:
192,192,29496,128,0,29684:0:0:0:0:
320,192,29684,1,0,0:0:0:0:
64,192,29778,1,0,0:0:0:50:snare.wav
192,192,29872,1,0,0:0:0:0:
320,192,29966,1,0,0:0:0:0:
192,192,30060,128,0,30247:0:0:0:0:
320,192,30247,1,0,0:0:0:0:
448,192,30341,1,0,0:0:0:0:
320,192,30435,1,0,0:0:0:0:
192,192,30529,1,0,0:0:0:0:
448,192,30623,128,0,30811:0:0:0:50:kk.wav
64,192,30811,1,0,0:0:0:0:
320,192,30905,1,0,0:0:0:50:snare.wav
192,192,30999,1,0,0:0:0:0:
64,192,31092,1,0,0:0:0:0:
448,192,31186,1,0,0:0:0:0:
64,192,31280,1,0,0:0:0:0:
448,192,31374,1,0,0:0:0:0:
320,192,31468,1,0,0:0:0:50:kk.wav
192,192,31562,1,0,0:0:0:0:
64,192,31656,1,0,0:0:0:0:
320,192,31750,128,0,31938:0:0:0:0:
192,192,31938,1,0,0:0:0:0:
448,192,32031,1,0,0:0:0:50:snare.wav
320,192,32125,1,0,0:0:0:0:
192,192,32219,1,0,0:0:0:0:
320,192,32313,128,0,32501:0:0:0:0:
192,192,32501,1,0,0:0:0:0:
64,192,32595,1,0,0:0:0:0:
192,192,32689,1,0,0:0:0:0:
320,192,32783,1,0,0:0:0:0:
64,192,32876,128,0,33064:0:0:0:50:kk.wav
448,192,33064,1,0,0:0:0:0:
192,192,33158,1,0,0:0:0:50:snare.wav
320,192,33252,1,0,0:0:0:0:
448,192,33346,1,0,0:0:0:0:
64,192,33440,1,0,0:0:0:0:
448,192,33534,1,0,0:0:0:0:
64,192,33628,1,0,0:0:0:0:
320,192,33722,1,0,0:0:0:50:kk.wav
192,192,33815,1,0,0:0:0:0:
64,192,33909,1,0,0:0:0:0:
320,192,34003,128,0,34191:0:0:0:0:
192,192,34191,1,0,0:0:0:0:
448,192,34285,1,0,0:0:0:50:snare.wav
320,192,34379,1,0,0:0:0:0:
192,192,34473,1,0,0:0:0:0:
320,192,34567,128,0,34754:0:0:0:0:
192,192,34754,1,0,0:0:0:0:
64,192,34848,1,0,0:0:0:0:
192,192,34942,1,0,0:0:0:0:
320,192,35036,1,0,0:0:0:0:
64,192,35130,128,0,35318:0:0:0:0:
448,192,35318,1,0,0:0:0:0:
192,192,35412,1,0,0:0:0:50:snare.wav
64,192,35412,1,0,0:0:0:0:
192,192,35975,1,0,0:0:0:50:crash.wav
64,192,35975,1,0,0:0:0:50:kk.wav
320,192,36257,1,0,0:0:0:50:kk.wav
64,192,36257,1,0,0:0:0:0:
320,192,36398,1,0,0:0:0:50:kk.wav
64,192,36398,1,0,0:0:0:0:
192,192,36679,1,0,0:0:0:50:kk.wav
448,192,36679,1,0,0:0:0:0:
448,192,36820,1,0,0:0:0:50:kk.wav
192,192,36820,1,0,0:0:0:0:
320,192,37102,1,0,0:0:0:50:kk.wav
192,192,37102,1,0,0:0:0:0:
320,192,37243,1,0,0:0:0:50:kk.wav
192,192,37243,1,0,0:0:0:0:
320,192,37524,1,0,0:0:0:50:kk.wav
64,192,37524,1,0,0:0:0:0:
320,192,37665,1,0,0:0:0:50:kk.wav
64,192,37665,1,0,0:0:0:0:
320,192,37947,1,0,0:0:0:50:kk.wav
448,192,37947,1,0,0:0:0:0:
320,192,38088,1,0,0:0:0:50:kk.wav
448,192,38088,1,0,0:0:0:0:
192,192,38369,1,0,0:0:0:50:kk.wav
64,192,38369,1,0,0:0:0:0:
192,192,38510,1,0,0:0:0:50:kk.wav
64,192,38510,1,0,0:0:0:0:
448,192,38792,1,0,0:0:0:50:kk.wav
64,192,38792,1,0,0:0:0:0:
448,192,38933,1,0,0:0:0:50:kk.wav
64,192,38933,1,0,0:0:0:0:
320,192,39215,1,0,0:0:0:50:kk.wav
192,192,39215,1,0,0:0:0:0:
320,192,39355,1,0,0:0:0:50:kk.wav
192,192,39355,1,0,0:0:0:0:
448,192,39637,1,0,0:0:0:50:kk.wav
192,192,39637,1,0,0:0:0:0:
448,192,39778,1,0,0:0:0:50:kk.wav
192,192,39778,1,0,0:0:0:0:
320,192,40060,1,0,0:0:0:50:kk.wav
64,192,40060,1,0,0:0:0:0:
192,192,40200,1,0,0:0:0:50:kk.wav
448,192,40200,1,0,0:0:0:0:
320,192,40341,1,0,0:0:0:50:kk.wav
192,192,40341,1,0,0:0:0:0:
64,192,40482,1,0,0:0:0:50:kk.wav
320,192,40482,128,0,40764:0:0:0:0:
192,192,40764,1,0,0:0:0:50:kk.wav
64,192,40764,1,0,0:0:0:0:
64,192,40905,1,0,0:0:0:50:kk.wav
192,192,40905,128,0,41186:0:0:0:0:
448,192,41186,1,0,0:0:0:50:kk.wav
320,192,41186,1,0,0:0:0:0:
448,192,41327,1,0,0:0:0:50:kk.wav
320,192,41327,128,0,41609:0:0:0:0:
448,192,41609,1,0,0:0:0:50:kk.wav
64,192,41609,1,0,0:0:0:0:
448,192,41750,1,0,0:0:0:50:kk.wav
64,192,41750,128,0,42031:0:0:0:0:
320,192,42031,1,0,0:0:0:50:kk.wav
192,192,42031,1,0,0:0:0:0:
320,192,42172,1,0,0:0:0:50:kk.wav
192,192,42172,128,0,42454:0:0:0:0:
64,192,42454,1,0,0:0:0:50:kk.wav
448,192,42454,1,0,0:0:0:0:
448,192,42595,1,0,0:0:0:50:kk.wav
64,192,42595,1,0,0:0:0:0:
320,192,42736,1,0,0:0:0:50:snare.wav
64,192,42736,1,0,0:0:0:0:
192,192,42806,1,0,0:0:0:50:snare.wav
64,192,42876,1,0,0:0:0:50:kk.wav
320,192,43017,1,0,0:0:0:50:kk.wav
448,192,43158,1,0,0:0:0:50:snare.wav
192,192,43158,1,0,0:0:0:0:
320,192,43229,1,0,0:0:0:50:snare.wav
448,192,43299,1,0,0:0:0:50:kk.wav
192,192,43440,1,0,0:0:0:50:kk.wav
64,192,43581,1,0,0:0:0:50:snare.wav
320,192,43581,1,0,0:0:0:0:
192,192,43651,1,0,0:0:0:50:snare.wav
64,192,43722,1,0,0:0:0:50:kk.wav
192,192,43862,1,0,0:0:0:50:kk.wav
448,192,43862,1,0,0:0:0:0:
320,192,43933,1,0,0:0:0:50:kk.wav
448,192,44003,1,0,0:0:0:50:kk.wav
192,192,44074,1,0,0:0:0:50:kk.wav
320,192,44144,1,0,0:0:0:50:kk.wav
64,192,44144,1,0,0:0:0:0:
192,192,44215,1,0,0:0:0:50:kk.wav
448,192,44285,1,0,0:0:0:50:kk.wav
320,192,44355,1,0,0:0:0:50:kk.wav
64,192,44426,1,0,0:0:0:0:
192,192,44496,1,0,0:0:0:0:
320,192,44567,1,0,0:0:0:0:
448,192,44637,1,0,0:0:0:0:
192,192,44707,1,0,0:0:0:0:
64,192,44707,128,0,44989:0:0:0:0:
192,192,44989,1,0,0:0:0:0:
448,192,44989,128,0,48369:0:0:0:0:
64,192,48369,1,0,0:0:0:0:
192,192,48510,1,0,0:0:0:0:
448,192,48651,1,0,0:0:0:0:
320,192,48722,1,0,0:0:0:0:
192,192,48792,1,0,0:0:0:0:
64,192,48862,1,0,0:0:0:0:
192,192,48933,1,0,0:0:0:0:
320,192,49003,1,0,0:0:0:0:
448,192,49074,1,0,0:0:0:0:
192,192,49144,1,0,0:0:0:0:
320,192,51750,5,0,0:0:0:50:kk.wav
448,192,51750,1,0,0:0:0:50:crash.wav
64,192,51750,1,0,0:0:0:0:
192,192,52031,1,0,0:0:0:50:snare.wav
448,192,52031,1,0,0:0:0:0:
320,192,52454,1,0,0:0:0:50:kk.wav
448,192,52595,1,0,0:0:0:50:snare.wav
64,192,52595,1,0,0:0:0:0:
192,192,52876,1,0,0:0:0:50:kk.wav
320,192,53158,1,0,0:0:0:50:snare.wav
64,192,53158,1,0,0:0:0:0:
192,192,53299,1,0,0:0:0:50:kk.wav
320,192,53581,1,0,0:0:0:50:kk.wav
448,192,53722,1,0,0:0:0:50:snare.wav
64,192,53722,1,0,0:0:0:0:
192,192,56257,5,0,0:0:0:50:kk.wav
64,192,56257,1,0,0:0:0:50:crash.wav
448,192,56257,1,0,0:0:0:0:
448,192,56538,1,0,0:0:0:50:snare.wav
64,192,56538,1,0,0:0:0:0:
320,192,56679,1,0,0:0:0:50:kk.wav
320,192,56961,1,0,0:0:0:50:kk.wav
448,192,57102,1,0,0:0:0:50:snare.wav
64,192,57102,1,0,0:0:0:0:
192,192,57384,1,0,0:0:0:50:kk.wav
192,192,57524,1,0,0:0:0:50:kk.wav
448,192,57665,1,0,0:0:0:50:snare.wav
64,192,57665,1,0,0:0:0:0:
320,192,57806,1,0,0:0:0:50:kk.wav
192,192,58088,1,0,0:0:0:50:kk.wav
320,192,58229,1,0,0:0:0:50:snare.wav
64,192,58229,1,0,0:0:0:0:
448,192,63017,5,0,0:0:0:50:crash.wav
320,192,63017,1,0,0:0:0:50:snare.wav
64,192,63017,1,0,0:0:0:0:
192,192,63299,1,0,0:0:0:50:snare.wav
448,192,63299,1,0,0:0:0:0:
320,192,63440,1,0,0:0:0:50:kk.wav
320,192,63722,1,0,0:0:0:50:kk.wav
448,192,63862,1,0,0:0:0:50:snare.wav
64,192,63862,1,0,0:0:0:0:
192,192,64144,1,0,0:0:0:50:kk.wav
192,192,64285,1,0,0:0:0:50:kk.wav
320,192,64426,1,0,0:0:0:50:snare.wav
64,192,64426,1,0,0:0:0:0:
192,192,64567,1,0,0:0:0:50:kk.wav
448,192,64707,1,0,0:0:0:50:kk.wav
192,192,64848,1,0,0:0:0:50:kk.wav
320,192,64919,1,0,0:0:0:50:kk.wav
448,192,64989,1,0,0:0:0:50:snare.wav
64,192,64989,1,0,0:0:0:0:
192,192,65130,1,0,0:0:0:50:kk.wav
192,192,65412,1,0,0:0:0:50:kk.wav
448,192,65553,1,0,0:0:0:50:snare.wav
64,192,65553,1,0,0:0:0:0:
320,192,65693,1,0,0:0:0:50:kk.wav
320,192,65834,1,0,0:0:0:50:kk.wav
192,192,65975,1,0,0:0:0:50:kk.wav
448,192,66116,1,0,0:0:0:50:snare.wav
64,192,66116,1,0,0:0:0:0:
192,192,66257,1,0,0:0:0:50:kk.wav
192,192,66398,1,0,0:0:0:50:kk.wav
448,192,66538,1,0,0:0:0:50:kk.wav
320,192,66609,1,0,0:0:0:50:kk.wav
192,192,66679,1,0,0:0:0:50:snare.wav
64,192,66679,1,0,0:0:0:0:
448,192,66820,1,0,0:0:0:50:kk.wav
64,192,66961,1,0,0:0:0:50:kk.wav
192,192,67102,1,0,0:0:0:50:kk.wav
320,192,67243,1,0,0:0:0:50:snare.wav
448,192,67243,1,0,0:0:0:0:
192,192,72031,5,0,0:0:0:50:crash.wav
64,192,72031,1,0,0:0:0:50:snare.wav
448,192,72031,1,0,0:0:0:0:
448,192,72313,1,0,0:0:0:50:snare.wav
64,192,72313,1,0,0:0:0:0:
320,192,72454,1,0,0:0:0:50:kk.wav
320,192,72595,1,0,0:0:0:50:kk.wav
192,192,72736,1,0,0:0:0:50:kk.wav
448,192,72876,1,0,0:0:0:50:snare.wav
64,192,72876,1,0,0:0:0:0:
192,192,73017,1,0,0:0:0:50:kk.wav
192,192,73158,1,0,0:0:0:50:kk.wav
320,192,73299,1,0,0:0:0:50:kk.wav
448,192,73440,1,0,0:0:0:50:snare.wav
64,192,73440,1,0,0:0:0:0:
320,192,73581,1,0,0:0:0:50:kk.wav
64,192,73722,1,0,0:0:0:50:kk.wav
448,192,73792,1,0,0:0:0:50:kk.wav
192,192,73862,1,0,0:0:0:50:kk.wav
320,192,73933,1,0,0:0:0:50:kk.wav
448,192,74003,1,0,0:0:0:50:snare.wav
64,192,74003,1,0,0:0:0:0:
192,192,74144,1,0,0:0:0:50:kk.wav
320,192,74285,1,0,0:0:0:50:kk.wav
320,192,74426,1,0,0:0:0:50:kk.wav
448,192,74567,1,0,0:0:0:50:snare.wav
192,192,74567,1,0,0:0:0:0:
64,192,74707,1,0,0:0:0:50:kk.wav
192,192,74778,1,0,0:0:0:50:kk.wav
320,192,74848,1,0,0:0:0:50:kk.wav
192,192,74989,1,0,0:0:0:50:kk.wav
448,192,75130,5,0,0:0:0:50:snare.wav
64,192,75130,1,0,0:0:0:0:
192,192,75271,1,0,0:0:0:50:kk.wav
64,192,75412,1,0,0:0:0:50:kk.wav
448,192,75482,1,0,0:0:0:50:kk.wav
320,192,75553,1,0,0:0:0:50:kk.wav
192,192,75623,1,0,0:0:0:50:kk.wav
448,192,75693,1,0,0:0:0:50:snare.wav
64,192,75693,1,0,0:0:0:0:
320,192,75834,1,0,0:0:0:50:kk.wav
192,192,75975,1,0,0:0:0:50:kk.wav
448,192,76116,1,0,0:0:0:50:kk.wav
192,192,76257,5,0,0:0:0:50:snare.wav
320,192,76257,128,0,76538:0:0:0:0:
448,192,76538,1,0,0:0:0:50:kk.wav
64,192,76538,1,0,0:0:0:50:crash.wav
192,192,76679,1,0,0:0:0:50:kk.wav
448,192,76679,1,0,0:0:0:0:
320,192,76750,1,0,0:0:0:50:kk.wav
320,192,76891,1,0,0:0:0:50:kk.wav
64,192,76891,1,0,0:0:0:0:
192,192,76961,1,0,0:0:0:50:kk.wav
448,192,77102,1,0,0:0:0:50:kk.wav
64,192,77102,1,0,0:0:0:0:
320,192,77243,1,0,0:0:0:50:kk.wav
192,192,77243,1,0,0:0:0:0:
448,192,77384,1,0,0:0:0:50:kk.wav
64,192,77384,1,0,0:0:0:0:
320,192,77524,1,0,0:0:0:50:kk.wav
192,192,77524,1,0,0:0:0:0:
64,192,77595,1,0,0:0:0:50:kk.wav
192,192,77806,1,0,0:0:0:50:kk.wav
448,192,77806,1,0,0:0:0:0:
320,192,77947,1,0,0:0:0:50:kk.wav
64,192,77947,1,0,0:0:0:0:
64,192,78088,1,0,0:0:0:50:kk.wav
448,192,78088,1,0,0:0:0:0:
320,192,78158,1,0,0:0:0:50:kk.wav
192,192,78299,1,0,0:0:0:50:kk.wav
448,192,78299,1,0,0:0:0:0:
448,192,78440,1,0,0:0:0:50:kk.wav
64,192,78440,1,0,0:0:0:0:
64,192,78581,1,0,0:0:0:50:kk.wav
320,192,78581,1,0,0:0:0:0:
192,192,78651,1,0,0:0:0:50:kk.wav
64,192,78792,1,0,0:0:0:50:kk.wav
448,192,78792,1,0,0:0:0:50:crash.wav
64,192,78933,1,0,0:0:0:50:kk.wav
320,192,78933,1,0,0:0:0:0:
192,192,79003,1,0,0:0:0:50:kk.wav
192,192,79144,1,0,0:0:0:50:kk.wav
448,192,79144,1,0,0:0:0:0:
320,192,79215,1,0,0:0:0:50:kk.wav
448,192,79355,1,0,0:0:0:50:kk.wav
64,192,79355,1,0,0:0:0:0:
320,192,79496,1,0,0:0:0:50:kk.wav
192,192,79496,1,0,0:0:0:0:
64,192,79637,1,0,0:0:0:50:kk.wav
448,192,79637,1,0,0:0:0:0:
192,192,79778,1,0,0:0:0:50:kk.wav
320,192,79778,1,0,0:0:0:0:
448,192,79848,1,0,0:0:0:50:kk.wav
320,192,80060,1,0,0:0:0:50:kk.wav
64,192,80060,1,0,0:0:0:0:
448,192,80200,1,0,0:0:0:50:kk.wav
192,192,80200,1,0,0:0:0:0:
64,192,80341,1,0,0:0:0:50:kk.wav
448,192,80341,1,0,0:0:0:0:
192,192,80412,1,0,0:0:0:50:kk.wav
320,192,80553,1,0,0:0:0:50:kk.wav
64,192,80553,1,0,0:0:0:0:
448,192,80693,1,0,0:0:0:50:kk.wav
64,192,80693,1,0,0:0:0:0:
448,192,80834,1,0,0:0:0:50:kk.wav
192,192,80834,1,0,0:0:0:0:
320,192,80905,1,0,0:0:0:50:kk.wav
64,192,81045,1,0,0:0:0:50:kk.wav
448,192,81045,1,0,0:0:0:50:crash.wav
320,192,81186,1,0,0:0:0:50:kk.wav
448,192,81186,1,0,0:0:0:0:
192,192,81257,1,0,0:0:0:50:kk.wav
64,192,81398,1,0,0:0:0:50:kk.wav
192,192,81398,1,0,0:0:0:0:
320,192,81468,1,0,0:0:0:50:kk.wav
448,192,81609,1,0,0:0:0:50:kk.wav
64,192,81609,1,0,0:0:0:0:
448,192,81750,1,0,0:0:0:50:kk.wav
64,192,81750,1,0,0:0:0:0:
64,192,81891,1,0,0:0:0:50:kk.wav
448,192,81891,1,0,0:0:0:0:
192,192,82031,1,0,0:0:0:50:kk.wav
448,192,82031,1,0,0:0:0:0:
320,192,82102,1,0,0:0:0:50:kk.wav
64,192,82313,1,0,0:0:0:50:kk.wav
192,192,82313,1,0,0:0:0:0:
192,192,82454,1,0,0:0:0:50:kk.wav
64,192,82454,1,0,0:0:0:0:
64,192,82595,1,0,0:0:0:50:kk.wav
320,192,82595,1,0,0:0:0:0:
192,192,82665,1,0,0:0:0:50:kk.wav
448,192,82806,1,0,0:0:0:50:kk.wav
64,192,82806,1,0,0:0:0:0:
448,192,82947,1,0,0:0:0:50:kk.wav
64,192,82947,1,0,0:0:0:0:
448,192,83088,1,0,0:0:0:50:kk.wav
64,192,83088,1,0,0:0:0:0:
320,192,83158,1,0,0:0:0:50:kk.wav
448,192,83299,1,0,0:0:0:50:kk.wav
64,192,83299,1,0,0:0:0:50:crash.wav
64,192,83440,1,0,0:0:0:50:kk.wav
192,192,83440,1,0,0:0:0:0:
320,192,83510,1,0,0:0:0:50:kk.wav
448,192,83651,1,0,0:0:0:50:kk.wav
320,192,83651,1,0,0:0:0:0:
192,192,83722,1,0,0:0:0:50:kk.wav
64,192,83862,1,0,0:0:0:50:kk.wav
448,192,83862,1,0,0:0:0:0:
64,192,84003,1,0,0:0:0:50:kk.wav
448,192,84003,1,0,0:0:0:0:
64,192,84144,1,0,0:0:0:50:kk.wav
448,192,84144,1,0,0:0:0:0:
64,192,84285,1,0,0:0:0:50:kk.wav
320,192,84285,1,0,0:0:0:0:
192,192,84355,1,0,0:0:0:50:kk.wav
448,192,84567,1,0,0:0:0:50:kk.wav
320,192,84567,1,0,0:0:0:0:
448,192,84707,1,0,0:0:0:50:kk.wav
320,192,84707,1,0,0:0:0:0:
448,192,84848,1,0,0:0:0:50:kk.wav
192,192,84848,1,0,0:0:0:0:
320,192,84919,1,0,0:0:0:50:kk.wav
64,192,85060,1,0,0:0:0:50:kk.wav
448,192,85060,1,0,0:0:0:0:
448,192,85200,1,0,0:0:0:50:kk.wav
64,192,85200,1,0,0:0:0:0:
448,192,85341,1,0,0:0:0:50:kk.wav
64,192,85341,1,0,0:0:0:0:
192,192,85412,1,0,0:0:0:50:kk.wav
64,192,85553,1,0,0:0:0:50:crash.wav
448,192,85553,1,0,0:0:0:50:kk.wav
448,192,89215,5,0,0:0:0:50:kk.wav
64,192,89215,1,0,0:0:0:0:
192,192,89355,1,0,0:0:0:0:
320,192,89426,1,0,0:0:0:0:
448,192,89496,1,0,0:0:0:0:
320,192,89637,1,0,0:0:0:0:
192,192,89778,1,0,0:0:0:50:snare.wav
64,192,89919,1,0,0:0:0:0:
192,192,90060,1,0,0:0:0:50:crash.wav
448,192,90060,1,0,0:0:0:50:kk.wav
320,192,90130,1,0,0:0:0:0:
192,192,90200,1,0,0:0:0:0:
64,192,90271,1,0,0:0:0:0:
320,192,90341,1,0,0:0:0:50:snare.wav
448,192,90341,128,0,90482:0:0:0:0:
192,192,90482,1,0,0:0:0:0:
64,192,90553,1,0,0:0:0:0:
448,192,90623,128,0,90764:0:0:0:50:kk.wav
192,192,90623,1,0,0:0:0:0:
320,192,90764,128,0,90905:0:0:0:0:
192,192,90905,128,0,91045:0:0:0:50:snare.wav
448,192,90905,1,0,0:0:0:0:
64,192,91045,128,0,91186:0:0:0:0:
192,192,91186,1,0,0:0:0:50:kk.wav
448,192,91186,1,0,0:0:0:0:
320,192,91257,1,0,0:0:0:0:
192,192,91327,1,0,0:0:0:0:
64,192,91398,1,0,0:0:0:0:
448,192,91468,128,0,91609:0:0:0:50:snare.wav
320,192,91468,1,0,0:0:0:0:
192,192,91609,1,0,0:0:0:0:
64,192,91679,1,0,0:0:0:0:
448,192,91750,128,0,91891:0:0:0:50:kk.wav
192,192,91750,1,0,0:0:0:0:
320,192,91891,128,0,92031:0:0:0:0:
448,192,92031,1,0,0:0:0:50:snare.wav
192,192,92031,1,0,0:0:0:0:
64,192,92102,1,0,0:0:0:0:
320,192,92172,1,0,0:0:0:0:
448,192,92243,1,0,0:0:0:0:
64,192,92313,1,0,0:0:0:50:kk.wav
192,192,92313,128,0,92454:0:0:0:0:
320,192,92454,1,0,0:0:0:0:
448,192,92595,128,0,92736:0:0:0:50:snare.wav
64,192,92595,1,0,0:0:0:0:
192,192,92736,1,0,0:0:0:0:
320,192,92876,128,0,93017:0:0:0:50:kk.wav
448,192,92876,1,0,0:0:0:0:
192,192,93017,1,0,0:0:0:0:
64,192,93158,128,0,93299:0:0:0:50:snare.wav
448,192,93158,1,0,0:0:0:0:
320,192,93299,1,0,0:0:0:0:
192,192,93440,1,0,0:0:0:50:kk.wav
448,192,93440,128,0,93581:0:0:0:0:
320,192,93581,128,0,93722:0:0:0:0:
192,192,93722,128,0,93862:0:0:0:50:snare.wav
448,192,93722,1,0,0:0:0:0:
64,192,93862,128,0,94003:0:0:0:0:
448,192,94003,1,0,0:0:0:50:kk.wav
320,192,94074,1,0,0:0:0:0:
448,192,94144,1,0,0:0:0:0:
192,192,94215,1,0,0:0:0:0:
448,192,94285,1,0,0:0:0:50:snare.wav
64,192,94285,1,0,0:0:0:0:
192,192,94355,1,0,0:0:0:0:
448,192,94426,1,0,0:0:0:0:
320,192,94496,1,0,0:0:0:0:
192,192,94567,1,0,0:0:0:50:crash.wav
64,192,94567,1,0,0:0:0:50:kk.wav
448,192,94637,1,0,0:0:0:0:
320,192,94707,1,0,0:0:0:0:
192,192,94778,1,0,0:0:0:0:
64,192,94848,128,0,94989:0:0:0:50:snare.wav
320,192,94848,1,0,0:0:0:0:
448,192,94989,1,0,0:0:0:0:
192,192,95130,128,0,95412:0:0:0:50:kk.wav
64,192,95130,1,0,0:0:0:0:
64,192,95271,128,0,95412:0:0:0:0:
320,192,95412,128,0,95693:0:0:0:50:snare.wav
448,192,95412,1,0,0:0:0:0:
448,192,95553,128,0,95693:0:0:0:0:
64,192,95693,1,0,0:0:0:50:kk.wav
192,192,95693,1,0,0:0:0:0:
448,192,95764,1,0,0:0:0:0:
320,192,95834,1,0,0:0:0:0:
192,192,95905,1,0,0:0:0:0:
64,192,95975,128,0,96116:0:0:0:50:snare.wav
320,192,95975,1,0,0:0:0:0:
448,192,96116,1,0,0:0:0:0:
192,192,96257,128,0,96538:0:0:0:50:kk.wav
64,192,96257,1,0,0:0:0:0:
64,192,96398,128,0,96538:0:0:0:0:
448,192,96538,1,0,0:0:0:50:snare.wav
320,192,96538,1,0,0:0:0:0:
192,192,96609,1,0,0:0:0:0:
448,192,96679,1,0,0:0:0:0:
320,192,96750,1,0,0:0:0:0:
192,192,96820,1,0,0:0:0:50:crash.wav
64,192,96820,1,0,0:0:0:50:kk.wav
192,192,97031,1,0,0:0:0:50:kk.wav
64,192,97031,1,0,0:0:0:0:
320,192,97243,1,0,0:0:0:50:kk.wav
192,192,97243,1,0,0:0:0:0:
320,192,97384,1,0,0:0:0:50:kk.wav
448,192,97384,1,0,0:0:0:50:crash.wav
320,192,97595,1,0,0:0:0:50:kk.wav
448,192,97595,1,0,0:0:0:0:
320,192,97806,1,0,0:0:0:50:kk.wav
192,192,97806,1,0,0:0:0:0:
448,192,97947,1,0,0:0:0:50:kk.wav
64,192,97947,1,0,0:0:0:0:
192,192,98017,1,0,0:0:0:0:
64,192,98088,1,0,0:0:0:0:
320,192,98158,1,0,0:0:0:0:
64,192,98229,1,0,0:0:0:0:
448,192,98299,1,0,0:0:0:0:
64,192,98369,1,0,0:0:0:0:
320,192,98440,1,0,0:0:0:0:
448,192,98510,128,0,98651:0:0:0:0:
320,192,98651,128,0,98792:0:0:0:0:
64,192,98792,128,0,98933:0:0:0:50:snare.wav
448,192,98792,1,0,0:0:0:0:
192,192,98933,128,0,99074:0:0:0:0:
320,192,99074,1,0,0:0:0:50:crash.wav
448,192,99074,1,0,0:0:0:50:kk.wav
64,192,99144,1,0,0:0:0:0:
448,192,99215,1,0,0:0:0:0:
192,192,99285,1,0,0:0:0:0:
448,192,99355,1,0,0:0:0:50:snare.wav
320,192,99355,1,0,0:0:0:0:
64,192,99496,1,0,0:0:0:0:
192,192,99567,1,0,0:0:0:0:
448,192,99637,128,0,99778:0:0:0:50:kk.wav
64,192,99637,128,0,99778:0:0:0:0:
320,192,99778,128,0,99919:0:0:0:0:
448,192,99919,128,0,100060:0:0:0:50:snare.wav
192,192,99919,128,0,100060:0:0:0:0:
64,192,100060,128,0,100200:0:0:0:0:
448,192,100200,1,0,0:0:0:50:kk.wav
320,192,100200,1,0,0:0:0:0:
64,192,100271,1,0,0:0:0:0:
448,192,100341,1,0,0:0:0:0:
192,192,100412,1,0,0:0:0:0:
448,192,100482,1,0,0:0:0:50:snare.wav
320,192,100482,1,0,0:0:0:0:
64,192,100623,1,0,0:0:0:0:
192,192,100693,1,0,0:0:0:0:
448,192,100764,128,0,100905:0:0:0:50:kk.wav
64,192,100764,128,0,100905:0:0:0:0:
320,192,100905,128,0,101045:0:0:0:0:
448,192,101045,1,0,0:0:0:50:snare.wav
64,192,101045,1,0,0:0:0:0:
192,192,101116,1,0,0:0:0:0:
448,192,101186,1,0,0:0:0:0:
320,192,101257,1,0,0:0:0:0:
192,192,101327,128,0,101609:0:0:0:50:kk.wav
320,192,101609,1,0,0:0:0:50:snare.wav
64,192,101609,1,0,0:0:0:50:crash.wav
448,192,101609,128,0,101750:0:0:0:0:
192,192,101750,1,0,0:0:0:0:
320,192,101820,1,0,0:0:0:0:
64,192,101891,128,0,102031:0:0:0:50:kk.wav
448,192,102031,1,0,0:0:0:0:
64,192,102102,1,0,0:0:0:0:
320,192,102172,128,0,102313:0:0:0:50:snare.wav
64,192,102313,1,0,0:0:0:0:
448,192,102384,1,0,0:0:0:0:
192,192,102454,128,0,102595:0:0:0:50:kk.wav
64,192,102454,1,0,0:0:0:0:
320,192,102595,128,0,102736:0:0:0:0:
448,192,102736,128,0,102876:0:0:0:50:snare.wav
192,192,102736,1,0,0:0:0:0:
64,192,102876,128,0,103017:0:0:0:0:
192,192,103017,1,0,0:0:0:50:kk.wav
448,192,103017,1,0,0:0:0:0:
320,192,103088,1,0,0:0:0:0:
448,192,103158,1,0,0:0:0:0:
192,192,103229,1,0,0:0:0:0:
320,192,103299,1,0,0:0:0:50:snare.wav
64,192,103369,1,0,0:0:0:0:
192,192,103440,1,0,0:0:0:0:
64,192,103510,1,0,0:0:0:0:
320,192,103581,1,0,0:0:0:50:crash.wav
448,192,103581,1,0,0:0:0:50:kk.wav
192,192,103651,1,0,0:0:0:0:
320,192,103722,1,0,0:0:0:0:
192,192,103792,1,0,0:0:0:0:
64,192,103862,1,0,0:0:0:50:snare.wav
448,192,103862,128,0,104003:0:0:0:0:
64,192,104003,1,0,0:0:0:0:
192,192,104074,1,0,0:0:0:0:
320,192,104144,128,0,104426:0:0:0:50:kk.wav
448,192,104144,1,0,0:0:0:0:
448,192,104285,128,0,104426:0:0:0:0:
64,192,104426,1,0,0:0:0:50:snare.wav
192,192,104426,128,0,104707:0:0:0:0:
64,192,104567,128,0,104707:0:0:0:0:
320,192,104707,1,0,0:0:0:50:kk.wav
448,192,104707,1,0,0:0:0:0:
192,192,104778,1,0,0:0:0:0:
320,192,104848,1,0,0:0:0:0:
192,192,104919,1,0,0:0:0:0:
64,192,104989,1,0,0:0:0:50:snare.wav
448,192,104989,128,0,105130:0:0:0:0:
320,192,105130,1,0,0:0:0:0:
192,192,105200,1,0,0:0:0:0:
320,192,105271,128,0,105553:0:0:0:50:kk.wav
448,192,105271,1,0,0:0:0:0:
448,192,105412,128,0,105553:0:0:0:0:
64,192,105553,1,0,0:0:0:50:snare.wav
192,192,105553,1,0,0:0:0:0:
448,192,105623,1,0,0:0:0:0:
320,192,105693,1,0,0:0:0:0:
192,192,105764,1,0,0:0:0:0:
448,192,105834,1,0,0:0:0:50:kk.wav
64,192,105834,128,0,105975:0:0:0:50:crash.wav
192,192,105975,128,0,106116:0:0:0:0:
320,192,106116,128,0,106257:0:0:0:50:snare.wav
448,192,106257,128,0,106398:0:0:0:0:
320,192,106398,1,0,0:0:0:50:crash.wav
64,192,106398,128,0,106538:0:0:0:50:kk.wav
192,192,106538,128,0,106679:0:0:0:0:
320,192,106679,128,0,106820:0:0:0:50:snare.wav
448,192,106820,128,0,106961:0:0:0:0:
320,192,106961,1,0,0:0:0:50:crash.wav
64,192,106961,1,0,0:0:0:50:kk.wav
192,192,107031,1,0,0:0:0:0:
64,192,107102,1,0,0:0:0:0:
448,192,107172,1,0,0:0:0:0:
320,192,107243,1,0,0:0:0:0:
448,192,107313,1,0,0:0:0:0:
64,192,107384,1,0,0:0:0:0:
448,192,107454,1,0,0:0:0:0:
64,192,107524,128,0,107736:0:0:0:50:crash.wav
192,192,107524,1,0,0:0:0:50:kk.wav
192,192,107736,128,0,107947:0:0:0:50:crash.wav
320,192,107736,1,0,0:0:0:50:kk.wav
320,192,107947,128,0,108088:0:0:0:50:crash.wav
448,192,107947,1,0,0:0:0:50:kk.wav
192,192,108088,1,0,0:0:0:50:kk.wav
64,192,108088,1,0,0:0:0:0:
448,192,108158,1,0,0:0:0:0:
320,192,108229,1,0,0:0:0:50:kk.wav
192,192,108299,1,0,0:0:0:0:
448,192,108369,1,0,0:0:0:50:kk.wav
64,192,108440,1,0,0:0:0:0:
192,192,108510,1,0,0:0:0:50:kk.wav
64,192,108581,1,0,0:0:0:0:
320,192,108651,1,0,0:0:0:50:kk.wav
192,192,108722,1,0,0:0:0:0:
448,192,108792,1,0,0:0:0:50:kk.wav
320,192,108862,1,0,0:0:0:0:
448,192,108933,1,0,0:0:0:50:kk.wav
64,192,109003,1,0,0:0:0:0:
192,192,109074,1,0,0:0:0:50:kk.wav
320,192,109144,1,0,0:0:0:0:
64,192,109215,1,0,0:0:0:50:kk.wav
448,192,109285,1,0,0:0:0:50:kk.wav
64,192,109355,1,0,0:0:0:50:kk.wav
448,192,109426,1,0,0:0:0:50:kk.wav
192,192,109496,1,0,0:0:0:50:kk.wav
448,192,109567,1,0,0:0:0:50:kk.wav
192,192,109637,1,0,0:0:0:50:kk.wav
448,192,109707,1,0,0:0:0:50:kk.wav
64,192,109778,1,0,0:0:0:50:kk.wav
448,192,109848,1,0,0:0:0:50:kk.wav
64,192,109919,1,0,0:0:0:50:kk.wav
448,192,109989,1,0,0:0:0:50:kk.wav
192,192,110060,1,0,0:0:0:50:kk.wav
448,192,110130,1,0,0:0:0:50:kk.wav
192,192,110200,1,0,0:0:0:50:kk.wav
448,192,110271,1,0,0:0:0:50:kk.wav
64,192,110341,128,0,110905:0:0:0:0:
192,192,110905,1,0,0:0:0:0:
320,192,111045,1,0,0:0:0:0:
448,192,111186,1,0,0:0:0:50:snare.wav
64,192,111186,1,0,0:0:0:0:
320,192,115975,5,0,0:0:0:50:kk.wav
448,192,115975,1,0,0:0:0:50:crash.wav
64,192,115975,1,0,0:0:0:0:
192,192,116116,1,0,0:0:0:50:kk.wav
64,192,116186,1,0,0:0:0:50:kk.wav
448,192,116257,1,0,0:0:0:50:snare.wav
320,192,116257,1,0,0:0:0:0:
192,192,116398,1,0,0:0:0:50:kk.wav
320,192,116538,1,0,0:0:0:50:kk.wav
448,192,116609,1,0,0:0:0:50:kk.wav
192,192,116679,1,0,0:0:0:50:snare.wav
64,192,116679,1,0,0:0:0:0:
320,192,116820,1,0,0:0:0:50:kk.wav
320,192,116961,1,0,0:0:0:50:kk.wav
448,192,117102,1,0,0:0:0:50:snare.wav
192,192,117102,1,0,0:0:0:0:
64,192,117243,1,0,0:0:0:50:kk.wav
192,192,117384,1,0,0:0:0:50:snare.wav
320,192,117384,1,0,0:0:0:0:
448,192,117524,1,0,0:0:0:50:kk.wav
320,192,117665,1,0,0:0:0:50:kk.wav
192,192,117806,1,0,0:0:0:50:kk.wav
320,192,117876,1,0,0:0:0:50:kk.wav
448,192,117947,1,0,0:0:0:50:snare.wav
64,192,117947,1,0,0:0:0:0:
192,192,118088,1,0,0:0:0:50:kk.wav
320,192,118229,1,0,0:0:0:50:kk.wav
192,192,118369,1,0,0:0:0:50:kk.wav
320,192,118440,1,0,0:0:0:50:kk.wav
448,192,118510,1,0,0:0:0:50:snare.wav
64,192,118510,1,0,0:0:0:0:
192,192,118651,1,0,0:0:0:50:kk.wav
320,192,118792,1,0,0:0:0:50:snare.wav
448,192,118792,1,0,0:0:0:0:
64,192,118933,1,0,0:0:0:50:kk.wav
448,192,119074,1,0,0:0:0:50:snare.wav
320,192,119074,1,0,0:0:0:0:
192,192,119215,1,0,0:0:0:50:kk.wav
448,192,119355,1,0,0:0:0:50:kk.wav
192,192,119426,1,0,0:0:0:50:kk.wav
320,192,119496,1,0,0:0:0:50:kk.wav
192,192,119567,1,0,0:0:0:50:kk.wav
448,192,119637,1,0,0:0:0:50:snare.wav
64,192,119637,1,0,0:0:0:0:
192,192,119778,1,0,0:0:0:50:kk.wav
320,192,119919,1,0,0:0:0:50:kk.wav
320,192,120060,1,0,0:0:0:50:kk.wav
448,192,120200,1,0,0:0:0:50:snare.wav
64,192,120200,1,0,0:0:0:0:
192,192,120482,1,0,0:0:0:50:kk.wav
64,192,120482,1,0,0:0:0:0:
192,192,120623,1,0,0:0:0:50:kk.wav
64,192,120623,1,0,0:0:0:0:
448,192,120905,1,0,0:0:0:50:kk.wav
64,192,120905,1,0,0:0:0:0:
448,192,121045,1,0,0:0:0:50:kk.wav
64,192,121045,1,0,0:0:0:0:
320,192,121327,1,0,0:0:0:50:kk.wav
192,192,121327,1,0,0:0:0:0:
320,192,121468,1,0,0:0:0:50:kk.wav
192,192,121468,1,0,0:0:0:0:
320,192,121750,1,0,0:0:0:0:
192,192,121891,1,0,0:0:0:50:crash.wav
64,192,121891,128,0,124989:0:0:0:50:kk.wav
448,192,121891,128,0,124989:0:0:0:0:
