osu file format v14

[General]
AudioFilename: audio.mp3
AudioLeadIn: 0
PreviewTime: 36045
Countdown: 0
SampleSet: Normal
StackLeniency: 0.7
Mode: 3
LetterboxInBreaks: 0
EpilepsyWarning: 1
SpecialStyle: 0
WidescreenStoryboard: 1

[Editor]
DistanceSpacing: 0.5
BeatDivisor: 8
GridSize: 32
TimelineZoom: 1.908

[Metadata]
Title:TWO-TORIAL
TitleUnicode:TWO-TORIAL
Artist:BEMANI Sound Team(PHQUASE vs DJ TOTTO)
ArtistUnicode:BEMANI Sound Team(PHQUASE vs DJ TOTTO)
Creator:Aste-
Version:NOVICE
Source:SOUNDVOLTEX IV HEAVENLY HAVEN
Tags:omega dimension extrack final song
BeatmapID:1473662
BeatmapSetID:695540

[Difficulty]
HPDrainRate:7
CircleSize:4
OverallDifficulty:7
ApproachRate:5
SliderMultiplier:1.4
SliderTickRate:1

[Events]
//Background and Video events
0,0,"maxima ngamox.png",0,0
//Break Periods
2,58217,61887
2,67231,70901
2,110611,114845
//Storyboard Layer 0 (Background)
//Storyboard Layer 1 (Fail)
//Storyboard Layer 2 (Pass)
//Storyboard Layer 3 (Foreground)
//Storyboard Sound Samples
Sample,7876,0,"vox1let.wav",70
Sample,8158,0,"vox2battle.wav",70
Sample,8439,0,"vox3com.wav",70
Sample,8580,0,"vox4mence.wav",70
Sample,13228,0,"uh.wav",70
Sample,13510,0,"quell.wav",25
Sample,13527,0,"quell.wav",25
Sample,13545,0,"quell.wav",25
Sample,13563,0,"quell.wav",25
Sample,13580,0,"quell.wav",25
Sample,13598,0,"quell.wav",25
Sample,13615,0,"quell.wav",25
Sample,13633,0,"quell.wav",25
Sample,13651,0,"quell.wav",25
Sample,13668,0,"quell.wav",25
Sample,13686,0,"quell.wav",25
Sample,13703,0,"quell.wav",25
Sample,13721,0,"quell.wav",25
Sample,13739,0,"quell.wav",25
Sample,13756,0,"quell.wav",25
Sample,13774,0,"quell.wav",25
Sample,16890,0,"count1.wav",70
Sample,17031,0,"count2.wav",70
Sample,17172,0,"count3.wav",70
Sample,17313,0,"count4.wav",70
Sample,17453,0,"count5.wav",70
Sample,17594,0,"count6.wav",70
Sample,17735,0,"count7.wav",70
Sample,18299,0,"how.wav",70
Sample,21961,0,"hoo.wav",70
Sample,22101,0,"hoo.wav",70
Sample,22242,0,"hoo.wav",70
Sample,22383,0,"hoo.wav",70
Sample,22524,0,"quell.wav",25
Sample,22524,0,"how.wav",70
Sample,22541,0,"quell.wav",25
Sample,22559,0,"quell.wav",25
Sample,22577,0,"quell.wav",25
Sample,22594,0,"quell.wav",25
Sample,22612,0,"quell.wav",25
Sample,22630,0,"quell.wav",25
Sample,22647,0,"quell.wav",25
Sample,22665,0,"quell.wav",25
Sample,22682,0,"quell.wav",25
Sample,22700,0,"quell.wav",25
Sample,22718,0,"quell.wav",25
Sample,22735,0,"quell.wav",25
Sample,22753,0,"quell.wav",25
Sample,22770,0,"quell.wav",25
Sample,22788,0,"quell.wav",25
Sample,23651,0,"quell.wav",25
Sample,23651,0,"how.wav",70
Sample,23668,0,"quell.wav",25
Sample,23686,0,"quell.wav",25
Sample,23703,0,"quell.wav",25
Sample,23721,0,"quell.wav",25
Sample,23739,0,"quell.wav",25
Sample,23756,0,"quell.wav",25
Sample,23774,0,"quell.wav",25
Sample,23791,0,"quell.wav",25
Sample,23809,0,"quell.wav",25
Sample,23827,0,"quell.wav",25
Sample,23844,0,"quell.wav",25
Sample,23862,0,"quell.wav",25
Sample,23880,0,"quell.wav",25
Sample,23897,0,"quell.wav",25
Sample,23915,0,"quell.wav",25
Sample,26749,0,"how.wav",70
Sample,29003,0,"ting.wav",70
Sample,31256,0,"ting.wav",70
Sample,33510,0,"ting.wav",70
Sample,35622,0,"01break.wav",70
Sample,35763,0,"quell.wav",25
Sample,35763,0,"02down.wav",70
Sample,35781,0,"quell.wav",25
Sample,35799,0,"quell.wav",25
Sample,35816,0,"quell.wav",25
Sample,35834,0,"quell.wav",25
Sample,35851,0,"quell.wav",25
Sample,35869,0,"quell.wav",25
Sample,35887,0,"quell.wav",25
Sample,35904,0,"quell.wav",25
Sample,35922,0,"quell.wav",25
Sample,35939,0,"quell.wav",25
Sample,35957,0,"quell.wav",25
Sample,35975,0,"quell.wav",25
Sample,35992,0,"quell.wav",25
Sample,36010,0,"quell.wav",25
Sample,36027,0,"quell.wav",25
Sample,40130,0,"ting.wav",70
Sample,49566,0,"clap_left.wav",70
Sample,50130,0,"clap_right.wav",70
Sample,50693,0,"hoo.wav",70
Sample,51256,0,"how.wav",70
Sample,54073,0,"clap_left.wav",70
Sample,54637,0,"clap_left.wav",70
Sample,55200,0,"hey1.wav",50
Sample,55763,0,"ting.wav",100
Sample,58580,0,"clap_right.wav",70
Sample,59144,0,"hoo.wav",70
Sample,59707,0,"clap_right.wav",70
Sample,60270,0,"hoo.wav",70
Sample,60834,0,"count1.wav",70
Sample,61397,0,"count5.wav",70
Sample,61961,0,"count1.wav",70
Sample,62524,0,"count5.wav",70
Sample,67594,0,"hoo.wav",70
Sample,68158,0,"hoo.wav",70
Sample,68721,0,"hoo.wav",70
Sample,69284,0,"how.wav",70
Sample,69848,0,"hoo.wav",70
Sample,70411,0,"how.wav",70
Sample,70975,0,"ting.wav",70
Sample,71538,0,"02down.wav",70
Sample,85622,0,"quell.wav",100
Sample,85904,0,"quell.wav",80
Sample,86186,0,"quell.wav",60
Sample,86468,0,"quell.wav",40
Sample,86749,0,"quell.wav",20
Sample,89003,0,"vox1let.wav",100
Sample,89284,0,"vox2battle.wav",100
Sample,89566,0,"vox3com.wav",100
Sample,89707,0,"vox4mence.wav",100
Sample,90130,0,"slam.wav",70
Sample,94355,0,"how.wav",70
Sample,94637,0,"slam.wav",70
Sample,96608,0,"uh.wav",70
Sample,98017,0,"count1.wav",70
Sample,98158,0,"count2.wav",70
Sample,98299,0,"count3.wav",70
Sample,98439,0,"count4.wav",70
Sample,98580,0,"count5.wav",70
Sample,98721,0,"count6.wav",70
Sample,98862,0,"count7.wav",70
Sample,99144,0,"slam.wav",70
Sample,99144,0,"how.wav",70
Sample,101538,0,"hoo.wav",70
Sample,101608,0,"hoo.wav",70
Sample,101679,0,"how.wav",70
Sample,101679,0,"slam.wav",70
Sample,103087,0,"hoo.wav",70
Sample,103228,0,"hoo.wav",70
Sample,103369,0,"hoo.wav",70
Sample,103510,0,"hoo.wav",70
Sample,103651,0,"how.wav",70
Sample,103651,0,"slam.wav",70
Sample,104777,0,"how.wav",70
Sample,104777,0,"slam.wav",70
Sample,105904,0,"how.wav",70
Sample,106186,0,"how.wav",70
Sample,106468,0,"how.wav",70
Sample,106749,0,"how.wav",70
Sample,107031,0,"how.wav",70
Sample,109284,0,"hoo.wav",10
Sample,109284,0,"slam.wav",33
Sample,109355,0,"slam.wav",33
Sample,109355,0,"hoo.wav",15
Sample,109425,0,"hoo.wav",20
Sample,109425,0,"slam.wav",33
Sample,109496,0,"hoo.wav",25
Sample,109496,0,"slam.wav",33
Sample,109566,0,"hoo.wav",30
Sample,109566,0,"slam.wav",33
Sample,109637,0,"slam.wav",33
Sample,109637,0,"hoo.wav",35
Sample,109707,0,"slam.wav",33
Sample,109707,0,"hoo.wav",40
Sample,109777,0,"slam.wav",33
Sample,109777,0,"hoo.wav",45
Sample,109848,0,"hoo.wav",50
Sample,109848,0,"slam.wav",33
Sample,109918,0,"hoo.wav",55
Sample,109918,0,"slam.wav",33
Sample,109989,0,"hoo.wav",60
Sample,109989,0,"slam.wav",33
Sample,110059,0,"slam.wav",33
Sample,110059,0,"hoo.wav",65
Sample,110130,0,"slam.wav",33
Sample,110130,0,"hoo.wav",70
Sample,110200,0,"slam.wav",33
Sample,110200,0,"hoo.wav",75
Sample,110270,0,"hoo.wav",80
Sample,110270,0,"slam.wav",33
Sample,110341,0,"hoo.wav",85
Sample,110341,0,"slam.wav",33
Sample,111538,0,"how.wav",70
Sample,112101,0,"clap_left.wav",70
Sample,112665,0,"hoo.wav",70
Sample,113228,0,"how.wav",70
Sample,113791,0,"clap_left.wav",70
Sample,114355,0,"hoo.wav",70
Sample,114918,0,"how.wav",70
Sample,115482,0,"clap_left.wav",70
Sample,121961,0,"slam.wav",70
Sample,121961,0,"quell.wav",100
Sample,122242,0,"quell.wav",80
Sample,122524,0,"quell.wav",60
Sample,122806,0,"quell.wav",40
Sample,123087,0,"quell.wav",20
Sample,123369,0,"quell.wav",10
Sample,123387,0,"quell.wav",10
Sample,123404,0,"quell.wav",10
Sample,123422,0,"quell.wav",10
Sample,123439,0,"quell.wav",10
Sample,123457,0,"quell.wav",10
Sample,123475,0,"quell.wav",10
Sample,123492,0,"quell.wav",10
Sample,123510,0,"quell.wav",10
Sample,123545,0,"quell.wav",10
Sample,123580,0,"quell.wav",10
Sample,123615,0,"quell.wav",10
Sample,123651,0,"quell.wav",10
Sample,123698,0,"quell.wav",10
Sample,123745,0,"quell.wav",10
Sample,123791,0,"quell.wav",10
Sample,123862,0,"quell.wav",10
Sample,123932,0,"quell.wav",10
Sample,124026,0,"quell.wav",10
Sample,124120,0,"quell.wav",10
Sample,124214,0,"quell.wav",10
Sample,124355,0,"quell.wav",10

[TimingPoints]
1115.93111406663,281.69014084507,4,1,0,40,1,0
1186,-200,4,1,0,40,0,0
8721,-100,4,1,0,40,0,0
8862,-133.333333333333,4,1,0,40,0,0
9284,-100,4,1,0,40,0,0
27031,-200,4,1,0,40,0,0
31538,-133.333333333333,4,1,0,40,0,0
35482,-1000,4,1,0,40,0,0
35622,-400,4,1,0,40,0,0
35763,-200,4,1,0,40,0,0
35904,-133.333333333333,4,1,0,40,0,0
36045,-100,4,1,0,40,0,0
45059,-400,4,1,0,40,0,0
48439,-200,4,1,0,40,0,0
49284,-10000,4,1,0,40,0,0
51256,-100,4,1,0,40,0,0
51538,-10000,4,1,0,40,0,0
51820,-10,4,1,0,40,0,0
53791,-10000,4,1,0,40,0,0
55763,-100,4,1,0,40,0,0
56045,-10000,4,1,0,40,0,0
56327,-10,4,1,0,40,0,0
58299,-10000,4,1,0,40,0,0
62524,-100,4,1,0,40,0,0
62806,-10000,4,1,0,40,0,0
63087,-10,4,1,0,40,0,0
67313,-10000,4,1,0,40,0,0
71538,-100,4,1,0,40,0,0
71820,-10000,4,1,0,40,0,0
76045,-10000,4,1,0,40,0,0
76327,-2000,4,1,0,40,0,0
76608,-100,4,1,0,40,0,0
85622,-400,4,1,0,40,0,0
87876,-200,4,1,0,40,0,0
89003,-100,4,1,0,40,0,0
89848,-200,4,1,0,40,0,0
90130,-100,4,1,0,40,0,0
110411,-10,4,1,0,40,0,0
110975,-10000,4,1,0,40,0,0
115482,-100,4,1,0,40,0,0
115763,-10000,4,1,0,40,0,0
116045,-10,4,1,0,40,0,0
120270,-200,4,1,0,40,0,0
120552,-100,4,1,0,40,0,0

[HitObjects]
448,192,1115,128,0,3369:0:0:0:70:slam.wav
64,192,3369,128,0,3791:0:0:0:0:
448,192,3791,1,0,0:0:0:0:
64,192,4214,128,0,5059:0:0:0:0:
448,192,5059,128,2,5482:0:0:0:0:
64,192,5482,1,2,0:0:0:0:
448,192,5904,1,2,0:0:0:0:
64,192,5904,1,2,0:0:0:0:
64,192,8721,5,2,0:0:0:0:
64,192,9284,1,0,0:0:0:70:slam.wav
192,192,9566,1,2,0:0:0:0:
320,192,9848,1,2,0:0:0:0:
448,192,10130,1,2,0:0:0:0:
192,192,10411,1,2,0:0:0:0:
448,192,10693,1,2,0:0:0:0:
192,192,10975,1,2,0:0:0:0:
64,192,11256,128,2,11538:0:0:0:0:
448,192,11538,1,2,0:0:0:0:
320,192,11820,1,2,0:0:0:0:
192,192,12101,1,2,0:0:0:0:
64,192,12383,1,2,0:0:0:0:
448,192,12665,128,2,12946:0:0:0:0:
64,192,12946,128,2,13228:0:0:0:0:
448,192,13228,128,2,13510:0:0:0:0:
192,192,13510,128,2,13791:0:0:0:0:
448,192,13791,1,2,0:0:0:0:
320,192,14073,1,2,0:0:0:0:
192,192,14355,1,2,0:0:0:0:
64,192,14637,1,2,0:0:0:0:
320,192,14918,1,2,0:0:0:0:
192,192,15200,1,2,0:0:0:0:
448,192,15482,1,2,0:0:0:0:
192,192,15763,1,2,0:0:0:0:
448,192,16045,1,2,0:0:0:0:
64,192,16327,1,2,0:0:0:0:
192,192,16608,1,2,0:0:0:0:
320,192,16890,1,2,0:0:0:0:
320,192,17453,1,2,0:0:0:0:
64,192,18017,1,2,0:0:0:0:
448,192,18299,1,0,0:0:0:70:slam.wav
320,192,18580,1,2,0:0:0:0:
192,192,18862,1,2,0:0:0:0:
64,192,19144,1,2,0:0:0:0:
320,192,19425,1,2,0:0:0:0:
64,192,19707,1,2,0:0:0:0:
320,192,19989,1,2,0:0:0:0:
64,192,20270,128,2,20552:0:0:0:0:
448,192,20552,1,2,0:0:0:0:
320,192,20834,1,2,0:0:0:0:
192,192,21115,1,2,0:0:0:0:
64,192,21397,1,2,0:0:0:0:
320,192,21679,1,2,0:0:0:0:
192,192,21961,1,2,0:0:0:0:
448,192,22242,1,2,0:0:0:0:
64,192,22524,128,6,22806:0:0:0:0:
448,192,22806,1,2,0:0:0:0:
320,192,23087,1,2,0:0:0:0:
192,192,23369,1,2,0:0:0:0:
64,192,23651,128,2,23932:0:0:0:0:
448,192,23932,1,2,0:0:0:0:
320,192,24214,1,2,0:0:0:0:
192,192,24496,1,2,0:0:0:0:
64,192,24777,128,0,25341:0:0:0:0:
448,192,25341,128,0,25904:0:0:0:0:
192,192,25904,128,0,26468:0:0:0:0:
320,192,26749,1,8,0:0:0:70:slam.wav
448,192,27031,1,0,0:0:0:0:
64,192,27031,1,0,0:0:0:0:
192,192,27453,1,0,0:0:0:0:
320,192,27594,1,0,0:0:0:0:
64,192,28439,1,0,0:0:0:0:
320,192,28721,1,0,0:0:0:0:
64,192,29284,1,0,0:0:0:0:
192,192,29707,1,0,0:0:0:0:
448,192,29848,1,0,0:0:0:0:
64,192,30693,1,0,0:0:0:0:
448,192,30975,1,0,0:0:0:0:
448,192,31538,1,0,0:0:0:0:
320,192,31961,1,0,0:0:0:0:
64,192,32101,1,0,0:0:0:0:
448,192,32946,1,0,0:0:0:0:
64,192,33228,1,0,0:0:0:0:
320,192,33791,1,0,0:0:0:0:
448,192,34214,1,0,0:0:0:0:
64,192,34355,5,0,0:0:0:0:
320,192,35341,1,0,0:0:0:0:
64,192,35482,128,8,36045:0:0:0:0:
448,192,36045,1,6,0:0:0:0:
448,192,36468,1,2,0:0:0:0:
192,192,36890,1,6,0:0:0:0:
192,192,37313,1,2,0:0:0:0:
320,192,37735,1,6,0:0:0:0:
320,192,38158,1,6,0:0:0:0:
64,192,38580,1,2,0:0:0:0:
64,192,39003,1,2,0:0:0:0:
448,192,39425,1,6,0:0:0:0:
448,192,39848,1,6,0:0:0:0:
64,192,40270,1,0,0:0:0:0:
448,192,40552,1,6,0:0:0:0:
448,192,40975,1,6,0:0:0:0:
64,192,41397,1,6,0:0:0:0:
64,192,41820,1,6,0:0:0:0:
320,192,42242,1,6,0:0:0:0:
192,192,42524,1,2,0:0:0:0:
64,192,42806,1,0,0:0:0:0:
448,192,43087,1,2,0:0:0:0:
320,192,43369,1,8,0:0:0:0:
192,192,43651,1,8,0:0:0:0:
64,192,43932,1,2,0:0:0:0:
192,192,44214,1,2,0:0:0:0:
320,192,44496,1,0,0:0:0:0:
64,192,44777,1,0,0:0:0:0:
320,192,45059,1,0,0:0:0:70:slam.wav
448,192,45059,128,4,49284:0:0:0:0:
448,192,51820,5,0,0:0:0:35:clap_left.wav
320,192,52383,1,0,0:0:0:35:clap_right.wav
192,192,52946,1,0,0:0:0:70:hoo.wav
64,192,53510,1,0,0:0:0:70:how.wav
64,192,56327,1,0,0:0:0:35:clap_left.wav
192,192,56890,1,0,0:0:0:35:clap_left.wav
320,192,57453,1,0,0:0:0:35:hey1.wav
448,192,58017,1,0,0:0:0:25:ting.wav
64,192,63087,5,0,0:0:0:70:clap_right.wav
192,192,63651,1,0,0:0:0:35:hoo.wav
320,192,64214,1,0,0:0:0:70:clap_right.wav
448,192,64777,1,0,0:0:0:35:hoo.wav
64,192,65341,1,0,0:0:0:70:count1.wav
192,192,65904,1,0,0:0:0:70:count5.wav
320,192,66468,1,0,0:0:0:70:count1.wav
448,192,67031,1,0,0:0:0:70:count5.wav
448,192,72101,5,0,0:0:0:35:hoo.wav
320,192,72665,1,0,0:0:0:35:hoo.wav
192,192,73228,1,0,0:0:0:35:hoo.wav
64,192,73791,1,0,0:0:0:35:how.wav
448,192,74355,1,0,0:0:0:35:hoo.wav
320,192,74918,1,0,0:0:0:35:how.wav
192,192,75482,1,0,0:0:0:35:ting.wav
64,192,76045,1,0,0:0:0:19:02down.wav
64,192,76608,1,2,0:0:0:0:
320,192,77172,1,2,0:0:0:0:
64,192,77665,1,0,0:0:0:0:
320,192,78228,1,0,0:0:0:0:
192,192,78862,1,2,0:0:0:0:
448,192,79425,1,2,0:0:0:0:
64,192,79918,1,0,0:0:0:0:
448,192,80482,1,0,0:0:0:0:
64,192,81115,1,2,0:0:0:0:
192,192,81679,1,2,0:0:0:0:
448,192,82172,1,0,0:0:0:0:
320,192,82735,1,0,0:0:0:0:
64,192,83369,1,2,0:0:0:0:
192,192,83932,1,2,0:0:0:0:
448,192,84425,1,0,0:0:0:0:
320,192,84989,1,0,0:0:0:0:
64,192,85622,1,4,0:0:0:0:
448,192,85622,1,0,0:0:0:70:slam.wav
64,192,90130,1,2,0:0:0:0:
192,192,90411,1,2,0:0:0:0:
320,192,90693,1,2,0:0:0:0:
448,192,90975,1,2,0:0:0:0:
64,192,91256,1,2,0:0:0:0:
192,192,91538,1,2,0:0:0:0:
448,192,91820,1,2,0:0:0:0:
320,192,92101,1,2,0:0:0:0:
64,192,92383,1,2,0:0:0:0:
192,192,92665,1,2,0:0:0:0:
64,192,92946,1,2,0:0:0:0:
192,192,93228,1,2,0:0:0:0:
448,192,93510,1,2,0:0:0:0:
320,192,93791,1,2,0:0:0:0:
448,192,94073,1,2,0:0:0:0:
320,192,94355,1,2,0:0:0:0:
64,192,94637,1,2,0:0:0:0:
320,192,94918,1,2,0:0:0:0:
64,192,95200,1,2,0:0:0:0:
320,192,95482,1,2,0:0:0:0:
192,192,95763,1,2,0:0:0:0:
448,192,96045,1,2,0:0:0:0:
192,192,96327,1,2,0:0:0:0:
448,192,96608,1,2,0:0:0:0:
64,192,96890,1,2,0:0:0:0:
64,192,97453,1,2,0:0:0:0:
448,192,98017,1,2,0:0:0:0:
448,192,98580,1,0,0:0:0:0:
64,192,99144,1,2,0:0:0:0:
192,192,99425,1,2,0:0:0:0:
320,192,99707,1,2,0:0:0:0:
448,192,99989,1,2,0:0:0:0:
448,192,100270,1,2,0:0:0:0:
320,192,100552,1,2,0:0:0:0:
192,192,100834,1,2,0:0:0:0:
64,192,101115,1,2,0:0:0:0:
448,192,101397,1,0,0:0:0:70:hoo.wav
320,192,101679,1,2,0:0:0:0:
448,192,101961,1,2,0:0:0:0:
320,192,102242,1,2,0:0:0:0:
64,192,102524,1,2,0:0:0:0:
192,192,102806,1,2,0:0:0:0:
64,192,103087,1,2,0:0:0:0:
192,192,103369,1,2,0:0:0:0:
448,192,103651,1,2,0:0:0:0:
320,192,103932,1,2,0:0:0:0:
192,192,104214,1,2,0:0:0:0:
64,192,104496,1,2,0:0:0:0:
64,192,104777,1,2,0:0:0:0:
192,192,105059,1,2,0:0:0:0:
320,192,105341,1,2,0:0:0:0:
448,192,105622,1,2,0:0:0:0:
64,192,105904,1,2,0:0:0:0:
320,192,106186,1,4,0:0:0:0:
64,192,106468,1,2,0:0:0:0:
320,192,106749,1,2,0:0:0:0:
64,192,107031,1,2,0:0:0:0:
192,192,107313,1,0,0:0:0:0:
320,192,107594,1,2,0:0:0:0:
448,192,107876,1,0,0:0:0:0:
64,192,108158,1,2,0:0:0:0:
64,192,108439,1,2,0:0:0:0:
448,192,108721,1,2,0:0:0:0:
448,192,109003,1,2,0:0:0:0:
192,192,109284,1,2,0:0:0:0:
192,192,109566,1,2,0:0:0:0:
320,192,109848,1,2,0:0:0:0:
320,192,110130,1,2,0:0:0:0:
64,192,110411,1,0,0:0:0:0:
64,192,116045,5,0,0:0:0:35:how.wav
64,192,116608,1,0,0:0:0:35:clap_left.wav
448,192,117172,1,0,0:0:0:35:hoo.wav
448,192,117735,1,0,0:0:0:35:how.wav
192,192,118299,1,0,0:0:0:35:clap_left.wav
192,192,118862,1,0,0:0:0:35:hoo.wav
320,192,119425,1,0,0:0:0:35:how.wav
320,192,119989,1,0,0:0:0:35:clap_left.wav
64,192,120552,1,2,0:0:0:0:
64,192,120975,1,4,0:0:0:0:
448,192,121397,1,2,0:0:0:0:
448,192,121820,1,4,0:0:0:0:
64,192,121961,1,4,0:0:0:0:
