osu file format v14

[General]
AudioFilename: audio.mp3
AudioLeadIn: 0
PreviewTime: -1
Countdown: 1
SampleSet: None
StackLeniency: 0.7
Mode: 0
LetterboxInBreaks: 0
WidescreenStoryboard: 0

[Editor]
Bookmarks: 44210,48717,49140,49844,50266,50971,53224,53365,53647,53788,54351,54774,55478,57731,57872,58013,58154,58295,58576,58858,58999,59140,59281,59421,59703,59985,60266,60407,60548,61112,62238,66745,67027,67309,67590,67872,68436,68529,68623,68717,68999,69093,69187,69281,69562,69656,69750,69844,70126,70220,70313,70407,70501,70595,70689,70783,70877,70971,71252,75759,110689,115196,119703
DistanceSpacing: 0.6
BeatDivisor: 4
GridSize: 8
TimelineZoom: 3.399999

[Metadata]
Title:TWO-TORIAL
TitleUnicode:TWO-TORIAL
Artist:BEMANI Sound Team(PHQUASE vs DJ TOTTO)
ArtistUnicode:BEMANI Sound Team(PHQUASE vs DJ TOTTO)
Creator:- raspy
Version:
Source:
Tags:
BeatmapID:1703581
BeatmapSetID:812162

[Difficulty]
HPDrainRate:3
CircleSize:4
OverallDifficulty:7
ApproachRate:10
SliderMultiplier:2.1
SliderTickRate:1

[Events]
//Background and Video events
//Break Periods
2,17579,50521
2,52943,55028
2,57450,61788
2,66664,70802
//Storyboard Layer 0 (Background)
//Storyboard Layer 1 (Fail)
//Storyboard Layer 2 (Pass)
//Storyboard Layer 3 (Foreground)
//Storyboard Sound Samples

[TimingPoints]
267,281.69014084507,4,1,0,5,1,0
267,-33.3333333333333,4,1,0,5,0,0
2802,-66.6666666666667,4,1,0,5,0,0
3928,-50,4,1,0,5,0,0
8154,-133.333333333333,4,1,0,5,0,0
8999,-50,4,1,0,5,0,0
9140,-133.333333333333,4,1,0,5,0,0
9562,-66.6666666666667,4,1,0,5,0,0
10407,-200,4,1,0,5,0,0
10689,-50,4,1,0,5,0,0
10900,-66.6666666666667,4,1,0,5,0,0
11252,-40,4,1,0,5,0,0
11393,-133.333333333333,4,1,0,5,0,0
12097,-45.4545454545455,4,1,0,5,0,0
13506,-50,4,1,0,5,0,0
13647,-133.333333333333,4,1,0,5,0,0
13788,-50,4,1,0,5,0,0
16886,-40,4,1,0,5,0,0
17168,-133.333333333333,4,1,0,5,0,0

[HitObjects]
316,137,267,6,0,P|339:210|255:159,1,157.500006008148
256,192,548,12,0,2520,0:0:0:0:
240,204,2802,6,0,P|295:178|338:182,1,78.7500030040742
165,219,2943,2,0,P|168:113|221:57,1,157.500006008148
235,56,3154,1,0,0:0:0:0:
216,272,3224,2,0,B|255:279|255:279|267:298|267:298|294:287|294:287|307:306|307:306|354:315,1,157.500006008148
450,212,3506,1,0,0:0:0:0:
144,291,3647,2,0,P|63:211|98:141,1,157.500006008148
240,204,3928,2,0,B|301:215|360:236|360:236|331:222|310:174,1,183.75
306,152,4069,1,0,0:0:0:0:
411,44,4210,5,0,0:0:0:0:
420,96,4281,1,0,0:0:0:0:
429,147,4351,1,0,0:0:0:0:
438,198,4421,1,0,0:0:0:0:
393,243,4492,5,0,0:0:0:0:
388,273,4562,1,0,0:0:0:0:
383,304,4633,1,0,0:0:0:0:
378,334,4703,1,0,0:0:0:0:
373,365,4774,6,0,L|171:328,1,157.5
17,144,4914,2,0,P|127:183|136:259,1,157.5
77,335,5055,1,0,0:0:0:0:
256,192,5337,12,0,7714,0:0:0:0:
267,57,7749,5,0,0:0:0:0:
100,104,7872,2,0,P|219:106|321:97,1,210
477,54,8154,2,0,P|489:109|479:173,1,118.125004506111
400,272,8436,5,0,0:0:0:0:
224,300,8576,1,0,0:0:0:0:
195,272,8647,1,0,0:0:0:0:
156,264,8717,1,0,0:0:0:0:
144,225,8788,1,0,0:0:0:0:
115,198,8858,1,0,0:0:0:0:
240,80,8999,2,0,P|293:125|301:182,1,105
322,315,9140,2,0,P|287:271|285:252,1,39.3750015020371
208,169,9281,5,0,0:0:0:0:
388,80,9421,1,0,0:0:0:0:
398,118,9492,1,0,0:0:0:0:
405,156,9562,2,0,L|425:256,1,78.7500030040742
354,319,9703,2,0,L|338:241,1,78.7500030040742
195,272,9844,5,0,0:0:0:0:
126,233,9914,1,0,0:0:0:0:
106,156,9985,1,0,0:0:0:0:
137,84,10055,1,0,0:0:0:0:
210,54,10126,2,0,L|310:34,1,78.7500030040742
482,171,10266,2,0,L|382:151,1,78.7500030040742
233,164,10407,6,0,L|183:173,3,26.25
182,251,10689,2,0,B|142:237|142:237|113:91,1,105
64,36,10830,1,0,0:0:0:0:
41,55,10900,2,0,L|156:73,1,78.7500030040742
317,88,11041,1,0,0:0:0:0:
340,107,11111,2,0,L|225:125,1,78.7500030040742
26,208,11252,2,0,B|30:275|30:275|140:326,1,131.25
259,234,11393,2,0,B|257:214|257:214|229:192,1,39.3750015020371
158,321,11534,5,0,0:0:0:0:
196,329,11605,1,0,0:0:0:0:
234,337,11675,1,0,0:0:0:0:
272,345,11745,1,0,0:0:0:0:
316,305,11816,1,0,0:0:0:0:
354,297,11887,1,0,0:0:0:0:
392,289,11957,1,0,0:0:0:0:
430,281,12027,1,0,0:0:0:0:
487,267,12097,6,0,P|466:174|430:130,1,115.50000352478
317,88,12238,2,0,P|338:181|374:225,1,115.50000352478
512,291,12379,2,0,P|507:195|479:146,1,115.50000352478
292,64,12520,2,0,P|297:160|325:209,1,115.50000352478
392,289,12661,2,0,B|367:306|367:306|350:276|350:276|331:294|331:294|324:270|324:270|299:282|299:282|261:296|206:273|206:273|153:225|184:121,1,346.500010574341
288,125,12943,6,0,P|283:191|236:265,1,115.50000352478
119,308,13083,1,0,0:0:0:0:
101,277,13154,1,0,0:0:0:0:
114,245,13224,1,0,0:0:0:0:
96,214,13295,1,0,0:0:0:0:
101,180,13365,1,0,0:0:0:0:
464,117,13506,2,0,L|314:124,1,105
174,130,13647,2,0,L|251:127,1,39.3750015020371
420,308,13788,6,0,P|341:283|299:215,1,105
213,128,13928,1,0,0:0:0:0:
263,143,13999,1,0,0:0:0:0:
311,163,14069,2,0,P|232:188|190:256,1,105
399,95,14210,2,0,P|325:56|247:75,1,105
119,239,14351,6,0,P|72:194|112:141,1,105
42,84,14492,2,0,P|89:129|49:182,1,105
27,299,14633,1,0,0:0:0:0:
207,283,14774,2,0,P|179:321|79:338,1,105
154,172,14914,1,0,0:0:0:0:
218,134,14985,1,0,0:0:0:0:
289,118,15055,1,0,0:0:0:0:
362,123,15126,1,0,0:0:0:0:
430,149,15196,6,0,B|454:193|454:193|402:359,1,210
338,319,15478,2,0,B|314:275|314:275|366:109,1,210
265,73,15759,2,0,B|289:117|289:117|237:283,1,210
138,242,16041,1,0,0:0:0:0:
145,222,16112,1,0,0:0:0:0:
152,202,16182,1,0,0:0:0:0:
159,182,16252,1,0,0:0:0:0:
167,162,16323,1,0,0:0:0:0:
79,298,16464,2,0,B|55:254|55:254|101:103,1,105
109,69,16605,5,0,0:0:0:0:
170,79,16675,1,0,0:0:0:0:
231,89,16745,1,0,0:0:0:0:
293,99,16816,1,0,0:0:0:0:
354,110,16886,2,0,P|425:145|465:207,1,131.25
281,205,17027,2,0,P|237:138|233:64,1,131.25
392,344,17168,6,0,B|333:351|333:351|254:351,1,118.125004506111
168,192,50971,5,0,0:0:0:0:
168,192,51394,1,0,0:0:0:0:
344,192,52098,1,0,0:0:0:0:
344,192,52521,1,0,0:0:0:0:
184,192,55478,5,0,0:0:0:0:
176,192,55619,1,0,0:0:0:0:
328,192,55901,5,0,0:0:0:0:
336,192,56042,1,0,0:0:0:0:
256,192,56605,5,0,0:0:0:0:
256,192,57028,1,0,0:0:0:0:
200,232,62238,5,0,0:0:0:0:
200,152,62379,1,0,0:0:0:0:
192,240,62520,1,0,0:0:0:0:
192,144,62661,1,0,0:0:0:0:
128,192,62802,1,0,0:0:0:0:
120,192,63083,1,0,0:0:0:0:
312,232,63365,5,0,0:0:0:0:
312,152,63506,1,0,0:0:0:0:
320,240,63647,1,0,0:0:0:0:
320,144,63788,1,0,0:0:0:0:
384,192,63929,1,0,0:0:0:0:
392,192,64210,1,0,0:0:0:0:
256,192,64492,5,0,0:0:0:0:
208,256,64773,1,0,0:0:0:0:
304,256,64914,1,0,0:0:0:0:
256,152,65055,1,0,0:0:0:0:
256,144,65126,1,0,0:0:0:0:
256,136,65196,1,0,0:0:0:0:
256,128,65266,1,0,0:0:0:0:
256,120,65337,1,0,0:0:0:0:
200,192,65619,5,0,0:0:0:0:
192,192,65690,1,0,0:0:0:0:
184,192,65760,1,0,0:0:0:0:
176,192,65830,1,0,0:0:0:0:
168,192,65901,1,0,0:0:0:0:
312,192,66182,5,0,0:0:0:0:
320,192,66253,1,0,0:0:0:0:
328,192,66323,1,0,0:0:0:0:
336,192,66393,1,0,0:0:0:0:
344,192,66464,1,0,0:0:0:0:
200,152,71252,5,0,0:0:0:0:
312,152,71534,1,0,0:0:0:0:
256,264,71816,5,0,0:0:0:0:
256,120,71957,1,0,0:0:0:0:
256,256,72097,1,0,0:0:0:0:
168,192,72379,5,0,0:0:0:0:
248,192,72520,1,0,0:0:0:0:
256,192,72590,1,0,0:0:0:0:
264,192,72661,1,0,0:0:0:0:
344,192,72802,1,0,0:0:0:0:
208,112,72943,5,0,0:0:0:0:
240,112,73036,1,0,0:0:0:0:
272,112,73130,1,0,0:0:0:0:
304,112,73223,1,0,0:0:0:0:
176,192,73506,5,0,0:0:0:0:
208,192,73599,1,0,0:0:0:0:
240,192,73693,1,0,0:0:0:0:
272,192,73786,1,0,0:0:0:0:
144,272,74069,5,0,0:0:0:0:
176,272,74162,1,0,0:0:0:0:
208,272,74256,1,0,0:0:0:0:
240,272,74349,1,0,0:0:0:0:
384,112,74633,5,0,0:0:0:0:
377,128,74726,1,0,0:0:0:0:
370,144,74820,1,0,0:0:0:0:
364,160,74914,1,0,0:0:0:0:
357,176,75008,1,0,0:0:0:0:
351,193,75102,1,0,0:0:0:0:
344,209,75196,1,0,0:0:0:0:
338,225,75290,1,0,0:0:0:0:
331,241,75384,1,0,0:0:0:0:
325,258,75478,1,0,0:0:0:0:
