osu file format v14

[General]
AudioFilename: audio.mp3
AudioLeadIn: 0
PreviewTime: 11196
Countdown: 0
SampleSet: Normal
StackLeniency: 0.7
Mode: 1
LetterboxInBreaks: 0
WidescreenStoryboard: 0

[Editor]
DistanceSpacing: 0.8
BeatDivisor: 3
GridSize: 32
TimelineZoom: 2.5

[Metadata]
Title:Bad Encryption
TitleUnicode:Bad Encryption
Artist:BEMANI Sound Team "ZAQUVA" respect for teranoid
ArtistUnicode:BEMANI Sound Team "ZAQUVA" respect for teranoid
Creator:davidminh0111
Version:Muzukashii
Source:beatmania IIDX 30 RESIDENT
Tags:kors_k kors k electronic instrumental konami video game videogame neo industrial
BeatmapID:4432893
BeatmapSetID:2111637

[Difficulty]
HPDrainRate:6
CircleSize:2
OverallDifficulty:5
ApproachRate:10
SliderMultiplier:1.4
SliderTickRate:1

[Events]
//Background and Video events
0,0,"bg.jpg",0,50
//Break Periods
//Storyboard Layer 0 (Background)
//Storyboard Layer 1 (Fail)
//Storyboard Layer 2 (Pass)
//Storyboard Layer 3 (Foreground)
//Storyboard Layer 4 (Overlay)
//Storyboard Sound Samples

[TimingPoints]
1596,300,4,1,0,100,1,0
11121,-100,4,1,0,100,0,0
11196,-100,4,1,0,100,0,1
20796,-100,4,1,0,100,0,0
20946,-100,4,1,0,100,0,1
30396,-100,4,1,0,100,0,0
78396,-100,4,1,0,100,0,1
97596,-100,4,1,0,100,0,0
97614,-100,4,1,0,80,0,0
108396,-100,4,1,0,100,0,1
111996,-100,4,1,0,100,0,0

[HitObjects]
256,192,11196,5,4,0:0:0:0:
256,192,11496,1,0,0:0:0:0:
256,192,11646,1,8,0:0:0:0:
256,192,11796,1,0,0:0:0:0:
256,192,11946,1,8,0:0:0:0:
256,192,12021,1,8,0:0:0:0:
256,192,12096,1,8,0:0:0:0:
256,192,12246,1,8,0:0:0:0:
256,192,12396,1,0,0:0:0:0:
256,192,12546,1,0,0:0:0:0:
256,192,12696,1,8,0:0:0:0:
256,192,12996,1,8,0:0:0:0:
256,192,13146,1,8,0:0:0:0:
256,192,13296,1,0,0:0:0:0:
256,192,13371,1,0,0:0:0:0:
256,192,13446,1,0,0:0:0:0:
256,192,13596,1,0,0:0:0:0:
256,192,13746,1,0,0:0:0:0:
256,192,13896,1,0,0:0:0:0:
256,192,14196,1,0,0:0:0:0:
256,192,14496,1,0,0:0:0:0:
256,192,14796,1,0,0:0:0:0:
256,192,14946,1,8,0:0:0:0:
256,192,15096,1,0,0:0:0:0:
256,192,15246,1,8,0:0:0:0:
256,192,15396,1,8,0:0:0:0:
256,192,15471,1,8,0:0:0:0:
256,192,15546,1,8,0:0:0:0:
256,192,15696,1,0,0:0:0:0:
256,192,15846,1,8,0:0:0:0:
256,192,15996,1,4,0:0:0:0:
256,192,16296,1,0,0:0:0:0:
256,192,16446,1,8,0:0:0:0:
256,192,16596,1,0,0:0:0:0:
256,192,16671,1,0,0:0:0:0:
256,192,16746,1,0,0:0:0:0:
256,192,16896,1,8,0:0:0:0:
256,192,17046,1,8,0:0:0:0:
256,192,17121,1,8,0:0:0:0:
256,192,17196,1,8,0:0:0:0:
256,192,17346,1,0,0:0:0:0:
256,192,17496,1,8,0:0:0:0:
256,192,17796,1,8,0:0:0:0:
256,192,17946,1,0,0:0:0:0:
256,192,18096,1,8,0:0:0:0:
256,192,18246,1,0,0:0:0:0:
256,192,18321,1,0,0:0:0:0:
256,192,18396,1,0,0:0:0:0:
256,192,18546,1,0,0:0:0:0:
256,192,18696,1,0,0:0:0:0:
256,192,18996,1,0,0:0:0:0:
256,192,19296,1,0,0:0:0:0:
256,192,19446,1,8,0:0:0:0:
256,192,19521,1,8,0:0:0:0:
256,192,19596,1,8,0:0:0:0:
256,192,19896,1,8,0:0:0:0:
256,192,20196,1,0,0:0:0:0:
256,192,20496,1,0,0:0:0:0:
256,192,20646,1,0,0:0:0:0:
256,192,20946,1,4,0:0:0:0:
256,192,21096,1,4,0:0:0:0:
256,192,21396,1,0,0:0:0:0:
256,192,21546,1,8,0:0:0:0:
256,192,21696,1,0,0:0:0:0:
256,192,21771,1,0,0:0:0:0:
256,192,21846,1,0,0:0:0:0:
256,192,21996,1,8,0:0:0:0:
256,192,22146,1,0,0:0:0:0:
256,192,22296,1,8,0:0:0:0:
256,192,22596,1,8,0:0:0:0:
256,192,22746,1,8,0:0:0:0:
256,192,22896,1,0,0:0:0:0:
256,192,22971,1,0,0:0:0:0:
256,192,23046,1,0,0:0:0:0:
256,192,23196,1,0,0:0:0:0:
256,192,23346,1,0,0:0:0:0:
256,192,23496,1,0,0:0:0:0:
256,192,23796,1,0,0:0:0:0:
256,192,24096,1,0,0:0:0:0:
256,192,24396,1,8,0:0:0:0:
256,192,24546,1,8,0:0:0:0:
256,192,24696,1,8,0:0:0:0:
256,192,24846,1,0,0:0:0:0:
256,192,24996,1,8,0:0:0:0:
256,192,25071,1,8,0:0:0:0:
256,192,25146,1,8,0:0:0:0:
256,192,25296,1,0,0:0:0:0:
256,192,25446,1,8,0:0:0:0:
256,192,25596,1,4,0:0:0:0:
256,192,25896,1,0,0:0:0:0:
256,192,26046,1,8,0:0:0:0:
256,192,26196,1,0,0:0:0:0:
256,192,26271,1,0,0:0:0:0:
256,192,26346,1,0,0:0:0:0:
256,192,26496,1,8,0:0:0:0:
256,192,26646,1,8,0:0:0:0:
256,192,26721,1,8,0:0:0:0:
256,192,26796,1,8,0:0:0:0:
256,192,26946,1,0,0:0:0:0:
256,192,27096,1,8,0:0:0:0:
256,192,27396,1,8,0:0:0:0:
256,192,27546,1,0,0:0:0:0:
256,192,27696,1,8,0:0:0:0:
256,192,27846,1,0,0:0:0:0:
256,192,27996,1,8,0:0:0:0:
256,192,28221,1,8,0:0:0:0:
256,192,28446,1,8,0:0:0:0:
256,192,28596,1,8,0:0:0:0:
256,192,28746,1,8,0:0:0:0:
256,192,28896,1,8,0:0:0:0:
256,192,28971,1,8,0:0:0:0:
256,192,29046,1,8,0:0:0:0:
256,192,29196,12,0,30096,0:0:0:0:
256,192,30396,5,4,0:0:0:0:
256,192,30696,1,0,0:0:0:0:
256,192,30996,1,8,0:0:0:0:
256,192,31146,1,0,0:0:0:0:
256,192,31296,1,8,0:0:0:0:
256,192,31446,1,0,0:0:0:0:
256,192,31596,1,8,0:0:0:0:
256,192,31896,1,8,0:0:0:0:
256,192,32196,1,8,0:0:0:0:
256,192,32346,1,0,0:0:0:0:
256,192,32496,1,0,0:0:0:0:
256,192,32796,1,8,0:0:0:0:
256,192,33096,1,0,0:0:0:0:
256,192,33396,1,8,0:0:0:0:
256,192,33546,1,0,0:0:0:0:
256,192,33696,1,0,0:0:0:0:
256,192,33846,1,8,0:0:0:0:
256,192,33996,1,0,0:0:0:0:
256,192,34296,1,0,0:0:0:0:
256,192,34596,1,8,0:0:0:0:
256,192,34746,1,0,0:0:0:0:
256,192,34896,1,8,0:0:0:0:
256,192,35196,1,12,0:0:0:0:
256,192,35496,1,0,0:0:0:0:
256,192,35796,1,8,0:0:0:0:
256,192,35946,1,0,0:0:0:0:
256,192,36096,1,8,0:0:0:0:
256,192,36246,1,0,0:0:0:0:
256,192,36396,1,8,0:0:0:0:
256,192,36696,1,8,0:0:0:0:
256,192,36996,1,8,0:0:0:0:
256,192,37146,1,8,0:0:0:0:
256,192,37296,1,0,0:0:0:0:
256,192,37446,1,0,0:0:0:0:
256,192,37596,1,8,0:0:0:0:
256,192,37896,1,0,0:0:0:0:
256,192,38196,1,8,0:0:0:0:
256,192,38496,1,8,0:0:0:0:
256,192,38646,1,0,0:0:0:0:
256,192,38796,1,8,0:0:0:0:
256,192,39096,1,0,0:0:0:0:
256,192,39246,1,0,0:0:0:0:
256,192,39396,1,8,0:0:0:0:
256,192,39996,1,12,0:0:0:0:
256,192,40296,1,0,0:0:0:0:
256,192,40446,1,8,0:0:0:0:
256,192,40746,1,0,0:0:0:0:
256,192,40896,1,8,0:0:0:0:
256,192,41046,1,8,0:0:0:0:
256,192,41196,1,0,0:0:0:0:
256,192,41496,1,0,0:0:0:0:
256,192,41646,1,8,0:0:0:0:
256,192,41946,1,8,0:0:0:0:
256,192,42096,1,0,0:0:0:0:
256,192,42246,1,0,0:0:0:0:
256,192,42396,1,8,0:0:0:0:
256,192,42696,1,0,0:0:0:0:
256,192,42846,1,8,0:0:0:0:
256,192,43146,1,8,0:0:0:0:
256,192,43296,1,8,0:0:0:0:
256,192,43446,1,0,0:0:0:0:
256,192,43596,1,8,0:0:0:0:
256,192,43896,1,0,0:0:0:0:
256,192,44046,1,8,0:0:0:0:
256,192,44346,1,8,0:0:0:0:
256,192,44796,1,8,0:0:0:0:
256,192,45096,1,8,0:0:0:0:
256,192,45246,1,0,0:0:0:0:
256,192,45396,1,8,0:0:0:0:
256,192,45621,1,0,0:0:0:0:
256,192,45696,1,0,0:0:0:0:
256,192,45846,1,0,0:0:0:0:
256,192,45996,1,8,0:0:0:0:
256,192,46296,1,8,0:0:0:0:
256,192,46446,1,0,0:0:0:0:
256,192,46596,1,8,0:0:0:0:
256,192,46821,1,0,0:0:0:0:
256,192,46896,1,0,0:0:0:0:
256,192,47046,1,0,0:0:0:0:
256,192,47196,1,8,0:0:0:0:
256,192,47496,1,8,0:0:0:0:
256,192,47646,1,0,0:0:0:0:
256,192,47796,1,8,0:0:0:0:
256,192,48021,1,0,0:0:0:0:
256,192,48096,1,0,0:0:0:0:
256,192,48246,1,0,0:0:0:0:
256,192,48396,1,8,0:0:0:0:
256,192,48621,1,8,0:0:0:0:
256,192,48846,1,8,0:0:0:0:
256,192,49071,1,0,0:0:0:0:
256,192,49296,1,0,0:0:0:0:
256,192,49596,1,4,0:0:0:0:
256,192,49896,1,8,0:0:0:0:
256,192,50196,1,0,0:0:0:0:
256,192,50346,1,0,0:0:0:0:
256,192,50421,1,0,0:0:0:0:
256,192,50496,1,0,0:0:0:0:
256,192,50646,1,8,0:0:0:0:
256,192,50796,1,0,0:0:0:0:
256,192,51096,1,0,0:0:0:0:
256,192,51246,1,8,0:0:0:0:
256,192,51396,1,0,0:0:0:0:
256,192,51471,1,0,0:0:0:0:
256,192,51546,1,0,0:0:0:0:
256,192,51696,1,8,0:0:0:0:
256,192,51846,1,8,0:0:0:0:
256,192,51996,1,0,0:0:0:0:
256,192,52146,1,0,0:0:0:0:
256,192,52296,1,8,0:0:0:0:
256,192,52596,1,8,0:0:0:0:
256,192,52746,1,0,0:0:0:0:
256,192,52896,1,8,0:0:0:0:
256,192,53046,1,0,0:0:0:0:
256,192,53121,1,0,0:0:0:0:
256,192,53196,1,0,0:0:0:0:
256,192,53346,1,0,0:0:0:0:
256,192,53496,1,8,0:0:0:0:
256,192,53796,1,8,0:0:0:0:
256,192,53871,1,8,0:0:0:0:
256,192,53946,1,8,0:0:0:0:
256,192,54096,1,0,0:0:0:0:
256,192,54246,1,8,0:0:0:0:
256,192,54396,1,0,0:0:0:0:
256,192,54696,1,8,0:0:0:0:
256,192,54996,1,0,0:0:0:0:
256,192,55296,1,8,0:0:0:0:
256,192,55446,1,0,0:0:0:0:
256,192,55521,1,0,0:0:0:0:
256,192,55596,1,0,0:0:0:0:
256,192,55896,1,8,0:0:0:0:
256,192,56046,1,0,0:0:0:0:
256,192,56196,1,8,0:0:0:0:
256,192,56271,1,8,0:0:0:0:
256,192,56346,1,8,0:0:0:0:
256,192,56496,1,8,0:0:0:0:
256,192,56796,1,8,0:0:0:0:
256,192,56946,1,0,0:0:0:0:
256,192,57096,1,8,0:0:0:0:
256,192,57246,1,0,0:0:0:0:
256,192,57396,1,8,0:0:0:0:
256,192,57471,1,8,0:0:0:0:
256,192,57546,1,8,0:0:0:0:
256,192,57696,1,8,0:0:0:0:
256,192,57996,1,0,0:0:0:0:
256,192,58146,1,8,0:0:0:0:
256,192,58221,1,8,0:0:0:0:
256,192,58296,1,8,0:0:0:0:
256,192,58446,1,0,0:0:0:0:
256,192,58596,1,8,0:0:0:0:
256,192,58746,1,8,0:0:0:0:
256,192,58821,1,8,0:0:0:0:
256,192,58896,1,8,0:0:0:0:
256,192,59046,1,0,0:0:0:0:
256,192,59196,1,12,0:0:0:0:
256,192,60396,1,0,0:0:0:0:
256,192,60621,1,0,0:0:0:0:
256,192,60846,1,8,0:0:0:0:
256,192,61071,1,8,0:0:0:0:
256,192,61296,1,0,0:0:0:0:
256,192,61371,1,0,0:0:0:0:
256,192,61446,1,0,0:0:0:0:
256,192,61596,1,8,0:0:0:0:
256,192,61746,1,0,0:0:0:0:
256,192,61821,1,0,0:0:0:0:
256,192,61896,1,0,0:0:0:0:
256,192,62046,1,0,0:0:0:0:
256,192,62196,1,8,0:0:0:0:
256,192,62346,1,8,0:0:0:0:
256,192,62496,1,0,0:0:0:0:
256,192,62796,1,0,0:0:0:0:
256,192,62946,1,0,0:0:0:0:
256,192,63096,1,8,0:0:0:0:
256,192,63246,1,8,0:0:0:0:
256,192,63321,1,8,0:0:0:0:
256,192,63396,1,8,0:0:0:0:
256,192,63546,1,0,0:0:0:0:
256,192,63621,1,0,0:0:0:0:
256,192,63696,1,0,0:0:0:0:
256,192,63996,1,4,0:0:0:0:
256,192,65196,1,0,0:0:0:0:
256,192,65346,1,0,0:0:0:0:
256,192,65496,1,8,0:0:0:0:
256,192,65646,1,0,0:0:0:0:
256,192,65796,1,8,0:0:0:0:
256,192,65946,1,0,0:0:0:0:
256,192,66096,1,8,0:0:0:0:
256,192,66396,1,4,0:0:0:0:
256,192,67596,1,0,0:0:0:0:
256,192,67746,1,8,0:0:0:0:
256,192,67896,1,0,0:0:0:0:
256,192,68046,1,8,0:0:0:0:
256,192,68196,1,8,0:0:0:0:
256,192,68346,1,0,0:0:0:0:
256,192,68496,1,8,0:0:0:0:
256,192,68796,1,4,0:0:0:0:
256,192,69996,1,8,0:0:0:0:
256,192,70146,1,8,0:0:0:0:
256,192,70296,1,8,0:0:0:0:
256,192,70446,1,0,0:0:0:0:
256,192,70596,1,0,0:0:0:0:
256,192,70746,1,8,0:0:0:0:
256,192,70896,1,8,0:0:0:0:
256,192,71196,1,4,0:0:0:0:
256,192,72396,1,8,0:0:0:0:
256,192,72546,1,0,0:0:0:0:
256,192,72621,1,0,0:0:0:0:
256,192,72771,1,8,0:0:0:0:
256,192,72846,1,8,0:0:0:0:
256,192,72996,1,8,0:0:0:0:
256,192,73146,1,0,0:0:0:0:
256,192,73296,1,8,0:0:0:0:
256,192,73596,1,4,0:0:0:0:
256,192,73896,1,0,0:0:0:0:
256,192,74046,1,8,0:0:0:0:
256,192,74196,1,0,0:0:0:0:
256,192,74346,1,0,0:0:0:0:
256,192,74496,1,8,0:0:0:0:
256,192,74646,1,8,0:0:0:0:
256,192,74721,1,8,0:0:0:0:
256,192,74796,1,8,0:0:0:0:
256,192,74946,1,0,0:0:0:0:
256,192,75096,1,8,0:0:0:0:
256,192,75246,1,0,0:0:0:0:
256,192,75321,1,0,0:0:0:0:
256,192,75396,1,0,0:0:0:0:
256,192,75546,1,0,0:0:0:0:
256,192,75696,1,8,0:0:0:0:
256,192,75996,1,0,0:0:0:0:
256,192,76146,1,0,0:0:0:0:
256,192,76296,1,8,0:0:0:0:
256,192,76446,1,8,0:0:0:0:
256,192,76596,1,0,0:0:0:0:
256,192,76746,1,0,0:0:0:0:
256,192,76821,1,0,0:0:0:0:
256,192,76896,1,0,0:0:0:0:
256,192,77046,1,8,0:0:0:0:
256,192,77121,1,8,0:0:0:0:
256,192,77196,1,8,0:0:0:0:
256,192,78396,1,4,0:0:0:0:
256,192,78696,1,8,0:0:0:0:
256,192,78846,1,8,0:0:0:0:
256,192,78996,1,0,0:0:0:0:
256,192,79071,1,0,0:0:0:0:
256,192,79146,1,0,0:0:0:0:
256,192,79296,1,8,0:0:0:0:
256,192,79446,1,8,0:0:0:0:
256,192,79596,1,8,0:0:0:0:
256,192,79746,1,0,0:0:0:0:
256,192,79896,1,8,0:0:0:0:
256,192,80046,1,8,0:0:0:0:
256,192,80121,1,8,0:0:0:0:
256,192,80196,1,8,0:0:0:0:
256,192,80346,1,0,0:0:0:0:
256,192,80496,1,8,0:0:0:0:
256,192,80646,1,8,0:0:0:0:
256,192,80796,1,0,0:0:0:0:
256,192,81096,1,8,0:0:0:0:
256,192,81246,1,8,0:0:0:0:
256,192,81396,1,0,0:0:0:0:
256,192,81471,1,0,0:0:0:0:
256,192,81546,1,0,0:0:0:0:
256,192,81696,1,8,0:0:0:0:
256,192,81846,1,8,0:0:0:0:
256,192,81996,1,8,0:0:0:0:
256,192,82146,1,0,0:0:0:0:
256,192,82296,1,8,0:0:0:0:
256,192,82371,1,8,0:0:0:0:
256,192,82446,1,8,0:0:0:0:
256,192,82596,1,8,0:0:0:0:
256,192,82746,1,0,0:0:0:0:
256,192,82896,1,8,0:0:0:0:
256,192,83196,1,0,0:0:0:0:
256,192,83496,1,0,0:0:0:0:
256,192,83796,1,0,0:0:0:0:
256,192,83946,1,8,0:0:0:0:
256,192,84096,1,0,0:0:0:0:
256,192,84171,1,0,0:0:0:0:
256,192,84246,1,0,0:0:0:0:
256,192,84396,1,8,0:0:0:0:
256,192,84546,1,8,0:0:0:0:
256,192,84696,1,0,0:0:0:0:
256,192,84846,1,8,0:0:0:0:
256,192,84996,1,8,0:0:0:0:
256,192,85071,1,8,0:0:0:0:
256,192,85146,1,8,0:0:0:0:
256,192,85296,1,0,0:0:0:0:
256,192,85446,1,8,0:0:0:0:
256,192,85596,1,4,0:0:0:0:
256,192,85821,1,4,0:0:0:0:
256,192,86046,1,12,0:0:0:0:
256,192,86271,1,12,0:0:0:0:
256,192,86496,1,8,0:0:0:0:
256,192,86796,1,8,0:0:0:0:
256,192,87096,1,0,0:0:0:0:
256,192,87396,1,8,0:0:0:0:
256,192,87546,1,0,0:0:0:0:
256,192,87696,1,8,0:0:0:0:
256,192,87996,1,4,0:0:0:0:
256,192,88296,1,8,0:0:0:0:
256,192,88446,1,0,0:0:0:0:
256,192,88596,1,8,0:0:0:0:
256,192,88746,1,8,0:0:0:0:
256,192,88821,1,8,0:0:0:0:
256,192,88896,1,8,0:0:0:0:
256,192,89046,1,0,0:0:0:0:
256,192,89196,1,8,0:0:0:0:
256,192,89496,1,8,0:0:0:0:
256,192,89646,1,0,0:0:0:0:
256,192,89796,1,8,0:0:0:0:
256,192,89946,1,0,0:0:0:0:
256,192,90021,1,0,0:0:0:0:
256,192,90096,1,0,0:0:0:0:
256,192,90246,1,0,0:0:0:0:
256,192,90396,1,12,0:0:0:0:
256,192,90696,1,0,0:0:0:0:
256,192,90996,1,8,0:0:0:0:
256,192,91296,1,0,0:0:0:0:
256,192,91446,1,8,0:0:0:0:
256,192,91521,1,8,0:0:0:0:
256,192,91596,1,8,0:0:0:0:
256,192,91746,1,0,0:0:0:0:
256,192,91896,1,8,0:0:0:0:
256,192,92046,1,0,0:0:0:0:
256,192,92196,1,8,0:0:0:0:
256,192,92346,1,0,0:0:0:0:
256,192,92421,1,0,0:0:0:0:
256,192,92496,1,0,0:0:0:0:
256,192,92796,1,8,0:0:0:0:
256,192,92946,1,0,0:0:0:0:
256,192,93096,1,0,0:0:0:0:
256,192,93246,1,8,0:0:0:0:
256,192,93396,1,0,0:0:0:0:
256,192,93471,1,0,0:0:0:0:
256,192,93546,1,0,0:0:0:0:
256,192,93696,1,8,0:0:0:0:
256,192,93996,1,8,0:0:0:0:
256,192,94146,1,0,0:0:0:0:
256,192,94296,1,8,0:0:0:0:
256,192,94371,1,8,0:0:0:0:
256,192,94446,1,8,0:0:0:0:
256,192,94596,1,0,0:0:0:0:
256,192,94746,1,0,0:0:0:0:
256,192,94821,1,0,0:0:0:0:
256,192,94896,1,0,0:0:0:0:
256,192,95046,1,8,0:0:0:0:
256,192,95196,1,4,0:0:0:0:
256,192,95421,1,4,0:0:0:0:
256,192,95646,1,4,0:0:0:0:
256,192,95871,1,4,0:0:0:0:
256,192,96096,1,4,0:0:0:0:
256,192,96546,1,12,0:0:0:0:
256,192,96771,1,12,0:0:0:0:
256,192,96996,1,12,0:0:0:0:
256,192,97221,1,12,0:0:0:0:
256,192,97446,1,8,0:0:0:0:
256,192,97596,1,4,0:0:0:0:
256,192,98796,1,8,0:0:0:0:
256,192,99996,1,0,0:0:0:0:
256,192,101196,1,8,0:0:0:0:
256,192,102396,1,0,0:0:0:0:
256,192,103596,1,8,0:0:0:0:
256,192,104796,1,0,0:0:0:0:
256,192,105996,1,8,0:0:0:0:
256,192,108396,1,0,0:0:0:0:
256,192,108546,1,8,0:0:0:0:
256,192,108696,1,8,0:0:0:0:
256,192,108771,1,8,0:0:0:0:
256,192,108846,1,8,0:0:0:0:
256,192,108996,1,0,0:0:0:0:
256,192,109146,1,0,0:0:0:0:
256,192,109296,1,8,0:0:0:0:
256,192,109596,1,0,0:0:0:0:
256,192,109746,1,0,0:0:0:0:
256,192,109821,1,0,0:0:0:0:
256,192,109896,1,0,0:0:0:0:
256,192,110046,1,8,0:0:0:0:
256,192,110121,1,8,0:0:0:0:
256,192,110196,1,8,0:0:0:0:
256,192,110346,1,0,0:0:0:0:
256,192,110496,1,8,0:0:0:0:
256,192,110796,1,0,0:0:0:0:
256,192,111096,1,0,0:0:0:0:
256,192,111396,1,0,0:0:0:0:
256,192,111596,1,8,0:0:0:0:
256,192,111796,1,8,0:0:0:0:
256,192,111996,1,4,0:0:0:0:
