osu file format v14

[General]
AudioFilename: Yvya.mp3
AudioLeadIn: 0
PreviewTime: 75631
Countdown: 0
SampleSet: Drum
StackLeniency: 0.8
Mode: 0
LetterboxInBreaks: 0
WidescreenStoryboard: 0

[Editor]
Bookmarks: 9210,15785,22360,28936,32223,34329,45374,58525,65100,70032,73319,76607,89758,102908,107840,114415,116059
DistanceSpacing: 1.2
BeatDivisor: 4
GridSize: 8
TimelineZoom: 2.850001

[Metadata]
Title:Vitrum
TitleUnicode:Vitrum
Artist:BEMANI Sound Team "Yvya"
ArtistUnicode:BEMANI Sound Team "Yvya"
Creator:Lince Cosmico
Version:Normal
Source:beatmania IIDX 28 BISTROVER
Tags:PDC2021 PDC 2021 pending cup mapping contest instrumental track chekito crissa waefwerf captin captin1 yuya yokoyama -atri- atri firis mistlud KuranteMelodii krt KKipalt kip kipalt thzz marcobrolo zhen electronic rock maot maotovisk progressive metal bms
BeatmapID:3388336
BeatmapSetID:1581126

[Difficulty]
HPDrainRate:4
CircleSize:3.5
OverallDifficulty:4
ApproachRate:5
SliderMultiplier:1.4
SliderTickRate:1

[Events]
//Background and Video events
0,0,"ESLEqqgUcAIHfOK.jpg",0,0
//Break Periods
//Storyboard Layer 0 (Background)
//Storyboard Layer 1 (Fail)
//Storyboard Layer 2 (Pass)
//Storyboard Layer 3 (Foreground)
//Storyboard Layer 4 (Overlay)
//Storyboard Sound Samples

[TimingPoints]
1042,410.958904109589,4,3,1,30,1,0
1042,-100,4,3,1,30,0,0
1093,-100,4,2,1,30,0,0
2634,-100,4,3,1,5,0,0
2685,-100,4,3,1,60,0,0
2839,-100,4,3,1,5,0,0
2891,-100,4,3,1,60,0,0
3918,-100,4,3,10,60,0,0
4021,-100,4,3,11,60,0,0
4124,-100,4,3,1,60,0,0
4329,-100,4,3,4,60,0,0
4535,-100,4,3,1,60,0,0
5973,-100,4,3,12,60,0,0
6178,-100,4,3,10,60,0,0
6281,-100,4,3,12,60,0,0
6487,-100,4,3,1,60,0,0
6692,-100,4,3,3,60,0,0
6744,-100,4,3,1,60,0,0
7206,-100,4,3,10,60,0,0
7617,-100,4,3,1,60,0,0
8233,-100,4,3,10,60,0,0
8302,-100,4,3,11,60,0,0
8370,-100,4,3,12,60,0,0
8439,-100,4,3,1,60,0,0
8850,-100,4,3,10,50,0,0
9261,-100,4,3,4,70,0,0
9312,-100,4,3,1,70,0,0
10237,-100,4,3,1,5,0,0
10288,-100,4,3,1,70,0,0
10442,-100,4,3,1,5,0,0
10494,-100,4,3,1,70,0,0
11315,-100,4,3,3,70,0,0
11367,-100,4,3,1,70,0,0
12137,-100,4,3,12,70,0,0
12240,-100,4,3,11,70,0,0
12343,-100,4,3,10,70,0,0
12446,-100,4,3,1,70,0,0
12702,-100,4,3,1,5,0,0
12754,-100,4,3,1,70,0,0
14192,-100,4,3,10,70,0,0
14261,-100,4,3,12,70,0,0
14329,-100,4,3,1,70,0,0
14398,-100,4,3,12,70,0,0
14500,-100,4,3,1,70,0,0
16812,-100,4,3,1,5,0,0
16863,-100,4,3,1,70,0,0
17018,-100,4,3,1,5,0,0
17069,-100,4,3,1,70,0,0
17737,-100,4,3,3,70,0,0
18199,-100,4,3,1,70,0,0
18713,-100,4,3,12,70,0,0
18781,-100,4,3,11,70,0,0
18850,-100,4,3,10,70,0,0
19124,-100,4,3,1,70,0,0
20562,-100,4,3,11,70,0,0
20768,-100,4,3,1,70,0,0
20819,-100,4,3,1,5,0,0
20870,-100,4,3,1,70,0,0
21024,-100,4,3,1,5,0,0
21076,-100,4,3,1,70,0,0
21127,-100,4,3,1,5,0,0
21178,-100,4,3,1,70,0,0
21333,-100,4,3,1,5,0,0
21384,-100,4,3,1,70,0,0
21435,-100,4,3,1,5,0,0
21486,-100,4,3,4,70,0,0
21538,-100,4,3,1,70,0,0
21641,-100,4,3,1,5,0,0
21692,-100,4,3,1,70,0,0
21795,-100,4,3,12,70,0,0
21863,-100,4,3,11,70,0,0
21932,-100,4,3,10,70,0,0
22000,-100,4,3,1,70,0,0
22206,-100,4,3,10,70,0,0
22274,-100,4,3,11,70,0,0
22343,-100,4,3,12,70,0,0
22411,-100,4,3,3,50,0,0
22463,-100,4,3,1,50,0,0
24004,-100,4,3,1,5,0,0
24055,-100,4,3,1,50,0,0
24928,-100,4,3,1,5,0,0
24980,-100,4,3,1,50,0,0
25648,-100,4,3,1,5,0,0
25699,-100,4,3,1,50,0,0
25853,-100,4,3,1,5,0,0
25905,-100,4,3,1,50,0,0
26059,-100,4,3,1,5,0,0
26110,-100,4,3,1,50,0,0
26264,-100,4,3,1,5,0,0
26315,-100,4,3,1,50,0,0
26367,-100,4,3,1,5,0,0
26418,-100,4,3,1,50,0,0
26572,-100,4,3,1,5,0,0
26624,-100,4,3,1,50,0,0
27137,-100,4,3,10,50,0,0
27206,-100,4,3,11,50,0,0
27274,-100,4,3,12,50,0,0
27343,-100,4,3,1,50,0,0
28011,-100,4,3,1,5,0,0
28062,-100,4,3,1,50,0,0
28165,-100,4,3,12,50,0,0
28233,-100,4,3,11,50,0,0
28302,-100,4,3,10,50,0,0
28370,-100,4,3,12,50,0,0
28438,-100,4,3,11,50,0,0
28507,-100,4,3,10,50,0,0
28576,-100,4,3,1,50,0,0
28730,-100,4,3,1,5,0,0
28781,-100,4,3,1,50,0,0
28935,-100,4,3,1,5,0,0
28987,-100,4,3,3,50,0,0
30425,-100,4,3,12,45,0,0
30494,-100,4,3,11,45,0,0
30562,-100,4,3,10,45,0,0
30631,-100,4,3,1,45,0,0
30682,-100,4,3,1,15,0,0
30733,-100,4,3,1,20,0,0
30785,-100,4,3,1,25,0,0
30836,-100,4,3,1,30,0,0
30887,-100,4,3,1,35,0,0
30939,-100,4,3,1,40,0,0
31042,-100,4,3,10,40,0,0
31110,-100,4,3,12,40,0,0
31178,-100,4,3,10,40,0,0
31247,-100,4,3,11,40,0,0
31315,-100,4,3,12,40,0,0
31384,-100,4,3,11,40,0,0
31452,-100,4,3,10,60,0,0
31658,-100,4,3,1,60,0,0
32069,-100,4,3,12,50,0,0
32172,-100,4,3,1,50,0,0
32274,-125,4,3,4,40,0,0
33610,-125,4,3,1,40,0,0
33713,-125,4,3,4,40,0,0
35151,-125,4,3,3,40,0,0
35202,-125,4,3,4,40,0,0
37206,-125,4,3,1,40,0,0
37720,-125,4,3,4,40,0,0
38439,-125,4,3,10,40,0,0
38850,-125,4,3,1,40,0,0
38952,-125,4,3,4,40,0,0
40494,-125,4,3,12,50,0,0
40699,-125,4,3,11,50,0,0
40905,-125,4,3,10,50,0,0
41315,-125,4,3,3,50,0,0
41470,-125,4,3,1,5,0,0
41521,-125,4,3,1,40,0,0
41726,-125,4,3,4,40,0,0
43370,-125,4,3,1,40,0,0
43781,-125,4,3,3,40,0,0
43884,-125,4,3,4,40,0,0
44603,-125,4,3,1,50,0,0
44877,-125,4,3,10,50,0,0
45014,-125,4,3,4,50,0,0
45168,-125,4,3,1,5,0,0
45220,-125,4,3,1,50,0,0
45425,-111.111111111111,4,3,1,55,0,0
46504,-111.111111111111,4,3,1,5,0,0
46555,-111.111111111111,4,3,1,55,0,0
46812,-111.111111111111,4,3,1,5,0,0
46863,-111.111111111111,4,3,1,55,0,0
47120,-111.111111111111,4,3,1,5,0,0
47172,-111.111111111111,4,3,1,55,0,0
47428,-111.111111111111,4,3,1,5,0,0
47480,-111.111111111111,4,3,1,55,0,0
48713,-111.111111111111,4,3,3,55,0,0
48764,-111.111111111111,4,3,1,55,0,0
51384,-111.111111111111,4,3,10,55,0,0
51589,-111.111111111111,4,3,1,55,0,0
51795,-111.111111111111,4,3,4,55,0,0
52000,-111.111111111111,4,3,1,55,0,0
54466,-111.111111111111,4,3,4,55,0,0
54672,-111.111111111111,4,3,10,55,0,0
54877,-111.111111111111,4,3,3,55,0,0
55031,-111.111111111111,4,3,1,5,0,0
55083,-111.111111111111,4,3,1,55,0,0
55288,-111.111111111111,4,3,4,35,0,0
55357,-111.111111111111,4,3,1,5,0,0
55425,-111.111111111111,4,3,1,45,0,0
55494,-111.111111111111,4,3,1,5,0,0
55562,-111.111111111111,4,3,1,55,0,0
55631,-111.111111111111,4,3,1,5,0,0
55699,-111.111111111111,4,3,1,45,0,0
55768,-111.111111111111,4,3,1,5,0,0
55836,-111.111111111111,4,3,1,55,0,0
55973,-111.111111111111,4,3,1,65,0,0
56042,-111.111111111111,4,3,1,5,0,0
56110,-111.111111111111,4,3,1,65,0,0
57137,-111.111111111111,4,3,1,55,0,0
57548,-111.111111111111,4,3,1,50,0,0
57959,-111.111111111111,4,3,12,50,0,0
58028,-111.111111111111,4,3,11,50,0,0
58096,-111.111111111111,4,3,10,50,0,0
58165,-111.111111111111,4,3,1,50,0,0
58576,-111.111111111111,4,3,1,40,0,0
58987,-111.111111111111,4,3,4,60,0,0
59038,-111.111111111111,4,3,1,50,0,0
60425,-111.111111111111,4,3,10,50,0,0
60631,-111.111111111111,4,3,1,50,0,0
60836,-111.111111111111,4,3,10,50,0,0
60887,-111.111111111111,4,3,1,50,0,0
61110,-111.111111111111,4,3,12,50,0,0
61178,-111.111111111111,4,3,11,50,0,0
61247,-111.111111111111,4,3,10,50,0,0
61555,-111.111111111111,4,3,12,50,0,0
61658,-111.111111111111,4,3,10,50,0,0
61761,-111.111111111111,4,3,11,50,0,0
61863,-111.111111111111,4,3,1,50,0,0
62137,-111.111111111111,4,3,10,50,0,0
62274,-111.111111111111,4,3,1,50,0,0
62583,-111.111111111111,4,3,10,50,0,0
62788,-111.111111111111,4,3,12,50,0,0
62994,-111.111111111111,4,3,11,50,0,0
63096,-111.111111111111,4,3,10,50,0,0
63302,-111.111111111111,4,3,11,50,0,0
63405,-111.111111111111,4,3,12,50,0,0
63507,-111.111111111111,4,3,3,50,0,0
63559,-111.111111111111,4,3,1,50,0,0
63713,-111.111111111111,4,3,10,50,0,0
63918,-111.111111111111,4,3,1,50,0,0
68268,-111.111111111111,4,3,1,5,0,0
68336,-111.111111111111,4,3,1,50,0,0
68370,-111.111111111111,4,3,1,5,0,0
68439,-111.111111111111,4,3,1,50,0,0
69209,-111.111111111111,4,3,1,5,0,0
69261,-111.111111111111,4,3,10,50,0,0
69415,-111.111111111111,4,3,1,5,0,0
69466,-111.111111111111,4,3,12,50,0,0
69672,-111.111111111111,4,3,11,50,0,0
69826,-111.111111111111,4,3,1,5,0,0
69877,-111.111111111111,4,3,11,50,0,0
70031,-111.111111111111,4,3,1,5,0,0
70083,-111.111111111111,4,3,10,50,0,0
70288,-111.111111111111,4,3,1,50,0,0
73370,-100,4,3,1,50,0,0
73730,-100,4,3,1,5,0,0
73781,-100,4,3,1,50,0,0
73935,-100,4,3,1,5,0,0
73987,-100,4,3,1,50,0,0
74244,-100,4,3,1,5,0,0
74295,-100,4,3,1,50,0,0
74449,-100,4,3,1,5,0,0
74500,-100,4,3,1,50,0,0
74603,-100,4,3,12,50,0,0
74740,-100,4,3,11,50,0,0
74877,-100,4,3,10,50,0,0
75014,-100,4,3,1,50,0,0
76658,-100,4,3,4,80,0,1
77069,-100,4,3,1,80,0,1
78096,-100,4,3,3,80,0,1
78148,-100,4,3,1,80,0,1
78867,-100,4,3,1,5,0,1
78918,-100,4,3,10,80,0,1
79124,-100,4,3,1,80,0,1
79637,-100,4,3,12,80,0,1
79740,-100,4,3,11,80,0,1
79843,-100,4,3,10,80,0,1
79946,-100,4,3,1,80,0,1
80511,-100,4,3,1,5,0,1
80562,-100,4,3,1,80,0,1
82822,-100,4,3,10,80,0,1
83233,-100,4,3,1,80,0,1
84004,-100,4,3,1,5,0,1
84055,-100,4,3,1,80,0,1
84672,-100,4,3,4,80,0,1
84723,-100,4,3,1,80,0,1
85494,-100,4,3,12,80,0,1
85562,-100,4,3,11,80,0,1
85631,-100,4,3,10,80,0,1
85699,-100,4,3,1,80,0,1
85802,-100,4,3,12,80,0,1
85905,-100,4,3,11,80,0,1
86007,-100,4,3,10,80,0,1
86110,-100,4,3,1,80,0,1
86521,-100,4,3,1,70,0,1
87548,-100,4,3,10,70,0,1
87754,-100,4,3,1,70,0,1
88370,-100,4,3,10,70,0,1
88576,-100,4,3,1,70,0,1
89055,-100,4,3,12,70,0,1
89124,-100,4,3,11,70,0,1
89192,-100,4,3,10,70,0,1
89295,-100,4,3,1,70,0,1
89809,-90.9090909090909,4,3,4,80,0,1
90014,-90.9090909090909,4,3,10,80,0,1
90220,-90.9090909090909,4,3,1,80,0,1
90476,-90.9090909090909,4,3,1,5,0,1
90528,-90.9090909090909,4,3,10,80,0,1
90631,-90.9090909090909,4,3,1,80,0,1
91452,-90.9090909090909,4,3,3,80,0,1
91504,-90.9090909090909,4,3,1,80,0,1
91658,-90.9090909090909,4,3,10,80,0,1
91863,-90.9090909090909,4,3,1,80,0,1
92069,-90.9090909090909,4,3,10,80,0,1
92274,-90.9090909090909,4,3,1,80,0,1
92480,-90.9090909090909,4,3,10,80,0,1
92685,-90.9090909090909,4,3,1,80,0,1
92891,-90.9090909090909,4,3,10,80,0,1
93096,-90.9090909090909,4,3,1,80,0,1
93370,-90.9090909090909,4,3,10,80,0,1
93507,-90.9090909090909,4,3,1,80,0,1
94329,-90.9090909090909,4,3,3,80,0,1
94398,-90.9090909090909,4,3,1,80,0,1
95973,-90.9090909090909,4,3,10,80,0,1
96024,-90.9090909090909,4,3,1,5,0,1
96076,-90.9090909090909,4,3,10,80,0,1
96127,-90.9090909090909,4,3,1,5,0,1
96178,-90.9090909090909,4,3,10,80,0,1
96230,-90.9090909090909,4,3,1,5,0,1
96281,-90.9090909090909,4,3,10,80,0,1
96333,-90.9090909090909,4,3,1,5,0,1
96384,-90.9090909090909,4,3,1,80,0,1
96795,-90.9090909090909,4,3,3,80,0,1
97206,-90.9090909090909,4,3,1,80,0,1
98028,-90.9090909090909,4,3,3,80,0,1
98131,-90.9090909090909,4,3,1,80,0,1
98439,-90.9090909090909,4,3,3,80,0,1
98541,-90.9090909090909,4,3,1,80,0,1
99261,-90.9090909090909,4,3,12,80,0,1
99398,-90.9090909090909,4,3,11,80,0,1
99535,-90.9090909090909,4,3,10,80,0,1
99672,-90.9090909090909,4,3,1,80,0,1
99877,-90.9090909090909,4,3,12,80,0,1
99946,-90.9090909090909,4,3,11,80,0,1
100014,-90.9090909090909,4,3,10,80,0,1
100083,-90.9090909090909,4,3,1,80,0,1
100288,-90.9090909090909,4,3,12,80,0,1
100357,-90.9090909090909,4,3,11,80,0,1
100425,-90.9090909090909,4,3,10,80,0,1
100494,-90.9090909090909,4,3,1,80,0,1
100699,-90.9090909090909,4,3,12,80,0,1
100768,-90.9090909090909,4,3,11,80,0,1
100836,-90.9090909090909,4,3,10,80,0,1
100905,-90.9090909090909,4,3,1,80,0,1
101110,-90.9090909090909,4,3,12,80,0,1
101178,-90.9090909090909,4,3,11,80,0,1
101247,-90.9090909090909,4,3,10,80,0,1
101315,-90.9090909090909,4,3,4,80,0,0
102480,-90.9090909090909,4,3,1,20,0,0
102959,-100,4,3,4,70,0,0
103011,-100,4,3,1,70,0,0
103935,-100,4,3,1,5,0,0
103986,-100,4,3,1,70,0,0
104140,-100,4,3,1,5,0,0
104192,-100,4,3,1,70,0,0
105013,-100,4,3,3,70,0,0
105065,-100,4,3,1,70,0,0
105835,-100,4,3,12,70,0,0
105939,-100,4,3,11,70,0,0
106041,-100,4,3,10,70,0,0
106144,-100,4,3,1,70,0,0
106400,-100,4,3,1,5,0,0
106452,-100,4,3,1,70,0,0
107223,-100,4,3,1,5,0,0
107274,-100,4,3,1,70,0,0
107839,-100,4,3,1,5,0,0
107891,-100,4,3,12,60,0,0
107959,-100,4,3,11,60,0,0
108028,-100,4,3,10,60,0,0
108096,-100,4,3,1,60,0,0
108370,-100,4,3,10,60,0,0
108439,-100,4,3,1,60,0,0
108713,-100,4,3,10,60,0,0
108781,-100,4,3,11,60,0,0
108850,-100,4,3,12,60,0,0
108918,-100,4,3,1,70,0,0
109124,-100,4,3,4,80,0,0
109278,-100,4,3,1,5,0,0
109329,-100,4,3,1,60,0,0
109535,-100,4,3,1,80,0,0
109946,-100,4,3,3,80,0,0
110048,-100,4,3,1,80,0,0
110357,-100,4,3,3,80,0,0
110459,-100,4,3,1,80,0,0
110768,-100,4,3,3,80,0,0
110870,-100,4,3,1,80,0,0
111178,-100,4,3,3,80,0,0
111281,-100,4,3,1,80,0,0
111452,-100,4,3,10,80,0,0
111589,-100,4,3,3,80,0,0
111692,-100,4,3,1,80,0,0
112000,-100,4,3,3,80,0,0
112103,-100,4,3,1,80,0,0
112411,-100,4,3,10,80,0,0
112548,-100,4,3,11,80,0,0
112685,-100,4,3,12,80,0,0
112822,-100,4,3,3,80,0,0
114261,-100,4,3,3,70,0,0
114466,-100,4,3,1,50,0,0
114569,-100,4,3,1,70,0,0
114774,-100,4,3,1,50,0,0
114877,-100,4,3,3,70,0,0
115083,-100,4,3,1,50,0,0
115186,-100,4,3,4,70,0,0
115391,-100,4,3,1,50,0,0
115494,-100,4,3,1,70,0,0
115699,-100,4,3,10,70,0,0
116110,-100,4,3,1,65,0,0
116521,-100,4,3,3,65,0,0
116675,-100,4,3,1,5,0,0
116726,-100,4,3,1,65,0,0
116932,-100,4,3,3,65,0,0
117035,-100,4,3,1,65,0,0
117343,-100,4,3,3,65,0,0
117497,-100,4,3,1,5,0,0
117548,-100,4,3,1,65,0,0
117702,-100,4,3,1,5,0,0
117754,-100,4,3,1,65,0,0
117959,-100,4,3,12,65,0,0
118028,-100,4,3,11,65,0,0
118096,-100,4,3,10,65,0,0
118165,-100,4,3,1,65,0,0
118422,-100,4,3,1,5,0,0
118473,-100,4,3,1,65,0,0
118627,-100,4,3,1,5,0,0
118678,-100,4,3,1,65,0,0
118935,-100,4,3,1,5,0,0
118987,-100,4,3,1,65,0,0
119141,-100,4,3,1,5,0,0
119192,-100,4,3,1,65,0,0
119261,-100,4,3,10,65,0,0
119398,-125,4,3,1,65,0,0
119809,-125,4,3,1,20,0,0

[Colours]
Combo1 : 98,157,255
Combo2 : 159,159,159
Combo3 : 115,115,115
Combo4 : 114,222,254

[HitObjects]
256,192,1042,12,0,2274,0:0:0:0:
63,351,2685,6,0,P|94:355|127:331,1,70,0|12,0:0|0:0,0:0:0:0:
183,274,3096,2,0,L|188:200,1,70,12|0,0:0|0:0,0:0:0:0:
131,141,3507,2,0,P|119:89|193:41,1,140,8|8,0:0|0:0,0:0:0:0:
347,111,4329,6,0,L|439:122,1,70,4|0,0:0|0:0,0:0:0:0:
479,174,4740,2,0,P|499:208|485:241,1,70,6|0,0:0|0:0,0:0:0:0:
427,291,5151,1,14,0:0:0:0:
427,291,5357,1,0,0:0:0:0:
343,272,5562,1,10,0:0:0:0:
230,354,5973,5,0,0:0:0:0:
163,311,6178,1,8,0:0:0:0:
163,311,6384,2,0,P|117:323|92:331,1,70,0|0,0:0|0:0,0:0:0:0:
51,258,6795,2,0,P|84:247|118:239,2,70
1,189,7411,1,0,0:0:0:0:
1,189,7617,6,0,P|11:95|165:114,1,280,6|8,0:0|0:0,0:0:0:0:
253,2,8850,1,8,0:0:0:0:
387,42,9261,6,0,P|378:81|374:114,1,70,4|0,0:0|0:0,0:0:0:0:
422,179,9672,2,0,P|439:213|428:241,1,70,0|0,0:0|0:0,0:0:0:0:
353,283,10083,2,0,P|343:335|263:348,1,140,8|0,0:0|0:3,0:0:0:0:
128,253,10905,6,0,P|117:293|112:325,1,70,0|2,0:0|0:0,0:0:0:0:
30,302,11315,2,0,P|35:267|45:233,1,70,6|0,0:0|0:0,0:0:0:0:
9,158,11726,1,10,0:0:0:0:
9,158,11932,1,2,0:0:0:0:
80,114,12137,2,0,P|85:79|95:45,1,70,8|8,0:0|0:0,0:0:0:0:
168,3,12548,5,2,0:0:0:0:
227,62,12754,2,0,P|210:124|195:209,1,140,4|0,0:0|0:0,0:0:0:0:
223,278,13370,1,8,0:0:0:0:
360,373,13781,2,0,P|399:366|418:337,1,70,0|0,0:0|0:0,0:0:0:0:
466,280,14192,6,0,L|477:201,1,70,8|8,0:0|0:0,0:0:0:0:
418,148,14603,1,8,0:0:0:0:
418,148,14809,1,0,0:0:0:0:
494,113,15014,2,0,L|505:34,1,70,0|8,0:0|0:0,0:0:0:0:
427,7,15425,1,8,0:0:0:0:
300,66,15836,5,0,0:0:0:0:
294,149,16041,1,0,0:0:0:0:
294,149,16247,2,0,P|236:158|205:165,1,70,0|0,0:0|0:0,0:0:0:0:
194,238,16658,2,0,P|103:251|55:262,1,140,8|0,0:0|0:0,0:0:0:0:
1,103,17480,6,0,P|25:74|59:73,1,70,0|6,0:0|0:0,0:0:0:0:
123,22,17891,2,0,P|166:38|199:42,1,70,6|0,0:0|0:0,0:0:0:0:
270,19,18302,1,10,0:0:0:0:
270,19,18507,1,2,0:0:0:0:
329,78,18713,1,8,0:0:0:0:
444,177,19124,5,8,0:0:0:0:
444,177,19329,1,8,0:0:0:0:
430,260,19535,2,0,L|417:340,1,70,8|0,0:0|0:0,0:0:0:0:
336,312,19946,2,0,L|347:242,1,70,4|2,0:0|0:0,0:0:0:0:
361,159,20357,1,8,0:0:0:0:
229,226,20768,6,0,P|178:283|108:264,1,140,10|4,0:0|0:0,0:0:0:0:
109,191,21384,2,0,P|85:118|136:67,1,140,8|8,0:0|0:0,0:0:0:0:
199,47,22000,1,0,0:0:0:0:
354,111,22411,5,4,0:0:0:0:
354,111,22617,1,0,0:0:0:0:
416,166,22822,2,0,P|451:161|490:158,1,70,2|0,0:0|0:0,0:0:0:0:
501,240,23233,2,0,P|466:242|348:264,1,140,2|2,0:0|0:0,0:0:0:0:
238,373,24055,5,2,0:0:0:0:
238,373,24261,1,0,0:0:0:0:
169,324,24466,2,0,P|166:289|161:254,1,70,2|0,0:0|0:0,0:0:0:0:
214,189,24877,2,0,P|211:154|206:119,1,70,0|0,0:0|0:0,0:0:0:0:
153,53,25288,1,10,0:0:0:0:
62,202,25699,6,0,P|81:250|169:246,1,140,6|2,0:0|0:0,0:0:0:0:
214,189,26315,1,0,0:0:0:0:
214,189,26521,2,0,P|280:184|312:241,1,140,0|2,0:0|0:0,0:0:0:0:
445,344,27343,6,0,P|492:322|496:296,1,70,8|0,0:0|0:0,0:0:0:0:
473,229,27754,2,0,P|468:183|472:148,1,70,0|0,0:0|0:0,0:0:0:0:
431,90,28165,1,8,0:0:0:0:
431,90,28370,1,8,0:0:0:0:
362,42,28576,2,0,P|317:35|215:15,1,140,2|6,0:0|0:0,0:0:0:0:
292,287,30631,5,8,0:0:0:0:
176,365,31042,1,8,0:0:0:0:
51,301,31452,2,0,P|46:253|35:155,1,140,8|8,0:0|0:0,0:0:0:0:
28,77,32069,1,8,0:0:0:0:
28,77,32274,6,0,P|70:49|139:123,1,168,2|0,0:0|0:0,0:0:0:0:
169,192,33096,2,0,P|199:202|234:218,1,56,8|0,0:0|0:0,0:0:0:0:
295,185,33507,1,0,0:0:0:0:
423,272,33918,6,0,P|484:296|503:206,1,168,2|0,0:0|0:0,0:0:0:0:
493,140,34740,2,0,P|473:117|441:118,1,56,8|2,0:0|0:0,0:0:0:0:
391,59,35151,2,0,P|348:82|274:80,1,112,6|0,0:0|0:0,0:0:0:0:
170,14,35973,1,0,0:0:0:0:
84,117,36384,6,0,P|77:157|72:182,1,56,8|0,0:0|0:0,0:0:0:0:
10,218,36795,2,0,P|3:258|-2:283,1,56,2|0,0:0|0:0,0:0:0:0:
48,334,37206,2,0,P|75:366|148:346,1,112,2|0,0:0|0:0,0:0:0:0:
276,280,38028,2,0,P|282:240|284:218,1,56,8|0,0:0|0:0,0:0:0:0:
241,157,38439,1,8,0:0:0:0:
241,157,38644,1,8,0:0:0:0:
302,108,38850,6,0,P|314:55|423:69,1,168,4|0,0:0|0:0,0:0:0:0:
479,93,39672,2,0,P|486:129|492:156,1,56,8|0,0:0|0:0,0:0:0:0:
415,186,40083,1,0,0:0:0:0:
394,341,40494,6,0,B|329:340|355:378|289:378,1,112,8|8,0:0|0:0,0:0:0:0:
228,326,41110,1,8,0:0:0:0:
228,326,41315,2,0,P|191:315|167:302,1,56,4|2,0:0|0:0,0:0:0:0:
100,328,41726,2,0,P|51:306|6:262,1,112,2|0,0:0|0:0,0:0:0:0:
121,192,42548,1,0,0:0:0:0:
47,79,42959,6,0,P|86:68|117:64,1,56,8|0,0:0|0:0,0:0:0:0:
161,14,43370,2,0,P|200:25|231:29,1,56,12|0,0:0|0:0,0:0:0:0:
271,81,43781,2,0,P|304:115|292:177,1,112,4|0,0:0|0:0,0:0:0:0:
239,231,44398,1,0,0:0:0:0:
239,231,44603,2,0,P|226:283|262:324,1,112,14|12,0:0|0:0,0:0:0:0:
415,356,45425,5,6,0:0:0:0:
262,324,45836,1,10,0:0:0:0:
118,370,46247,2,0,P|75:351|73:279,1,125.999996154785,2|10,0:0|0:0,0:0:0:0:
30,208,46863,2,0,P|37:166|126:149,1,125.999996154785,0|0,0:0|0:0,0:0:0:0:
173,189,47480,1,10,0:0:0:0:
293,77,47891,2,0,P|299:141|310:211,1,125.999996154785,2|14,0:0|0:0,0:0:0:0:
373,252,48507,1,0,0:0:0:0:
313,308,48713,6,0,P|271:320|190:345,1,125.999996154785,4|10,0:0|0:0,0:0:0:0:
129,290,49329,1,0,0:0:0:0:
129,290,49535,2,0,P|97:266|122:191,1,125.999996154785,2|10,0:0|0:0,0:0:0:0:
195,166,50151,1,0,0:0:0:0:
337,82,50562,5,0,0:0:0:0:
337,82,50768,2,0,P|347:46|350:10,1,62.9999980773926,10|0,0:0|0:0,0:0:0:0:
429,1,51178,1,2,0:0:0:0:
429,1,51384,1,8,0:0:0:0:
489,55,51589,1,2,0:0:0:0:
493,205,52000,6,0,P|447:225|396:284,1,125.999996154785,6|10,0:0|0:0,0:0:0:0:
329,327,52617,2,0,P|289:278|233:251,1,125.999996154785,0|0,0:0|0:0,0:0:0:0:
157,220,53233,1,10,0:0:0:0:
321,156,53644,6,0,P|330:115|339:88,1,62.9999980773926,10|8,0:0|0:0,0:0:0:0:
280,34,54055,2,0,P|248:13|224:18,1,62.9999980773926,14|0,0:0|0:0,0:0:0:0:
158,64,54466,2,0,P|112:81|64:26,1,125.999996154785,10|4,0:0|0:0,0:0:0:0:
0,180,55288,6,0,B|77:188|39:235|111:233,1,125.999996154785,2|8,0:0|0:0,0:0:0:0:
171,285,55905,1,0,0:0:0:0:
171,285,56110,2,0,P|225:266|299:253,1,125.999996154785,6|8,0:0|0:0,0:0:0:0:
424,159,56932,6,0,P|431:118|438:93,1,62.9999980773926,0|4,0:0|0:0,0:0:0:0:
357,76,57343,2,0,P|350:117|343:142,1,62.9999980773926,4|8,0:0|0:0,0:0:0:0:
366,216,57754,1,8,0:0:0:0:
366,216,57959,1,8,0:0:0:0:
292,253,58165,1,8,0:0:0:0:
430,340,58576,5,0,0:0:0:0:
498,191,58987,1,4,0:0:0:0:
349,122,59398,6,0,B|280:131|299:77|228:84,1,125.999996154785,10|10,0:0|0:0,0:0:0:0:
180,21,60014,2,0,P|139:30|121:111,1,125.999996154785,4|8,0:0|0:0,0:0:0:0:
153,177,60631,2,0,P|143:209|129:246,1,62.9999980773926,0|8,0:0|0:0,0:0:0:0:
93,307,61041,5,8,0:0:0:0:
244,369,61452,1,8,0:0:0:0:
368,262,61863,5,4,0:0:0:0:
220,227,62274,2,0,B|222:159|183:182|186:102,1,125.999996154785,10|8,0:0|0:0,0:0:0:0:
231,41,62891,1,8,0:0:0:0:
231,41,63096,2,0,P|222:10|192:-1,1,62.9999980773926,0|8,0:0|0:0,0:0:0:0:
129,47,63507,1,6,0:0:0:0:
276,118,63918,5,10,0:0:0:0:
276,118,64124,1,0,0:0:0:0:
341,69,64329,2,0,P|386:64|417:60,1,62.9999980773926,8|8,0:0|0:0,0:0:0:0:
414,143,64740,2,0,P|382:146|351:150,1,62.9999980773926,0|0,0:0|0:0,0:0:0:0:
290,204,65151,6,0,P|245:241|235:315,1,125.999996154785,2|2,0:0|0:0,0:0:0:0:
175,364,65768,1,0,0:0:0:0:
175,364,65973,1,8,0:0:0:0:
15,328,66384,1,0,0:0:0:0:
15,249,66589,2,0,B|3:183|44:198|48:127,1,125.999996154785,2|0,0:0|0:0,0:0:0:0:
110,77,67206,5,6,0:0:0:0:
110,77,67411,2,0,P|152:67|180:59,1,62.9999980773926,0|10,0:0|0:0,0:0:0:0:
235,113,67822,1,8,0:0:0:0:
235,113,68028,2,0,P|277:103|364:77,1,125.999996154785,2|0,0:0|0:0,0:0:0:0:
434,105,68644,1,4,0:0:0:0:
316,218,69055,5,6,0:0:0:0:
316,218,69261,2,0,P|281:212|252:208,1,62.9999980773926,8|8,0:0|0:0,0:0:0:0:
190,260,69672,2,0,P|156:272|129:283,1,62.9999980773926,8|8,0:0|0:0,0:0:0:0:
87,352,70083,5,8,0:0:0:0:
255,325,71726,1,2,0:0:0:0:
423,298,73370,5,2,0:0:0:0:
490,250,73576,1,8,0:0:0:0:
490,250,73781,2,0,P|496:205|501:178,1,70,8|0,0:0|0:0,0:0:0:0:
438,123,74192,2,0,P|444:78|449:51,1,70,0|0,0:0|0:0,0:0:0:0:
382,1,74603,1,8,0:0:0:0:
382,1,74809,1,8,0:0:0:0:
322,59,75014,2,0,P|254:69|177:88,1,140,8|8,0:0|0:0,0:0:0:0:
45,237,76658,6,0,B|89:246|89:246|108:276|108:276|174:291,1,140,6|2,0:0|0:0,0:0:0:0:
233,339,77274,1,0,0:0:0:0:
300,288,77480,2,0,B|344:279|344:279|363:249|363:249|429:234,1,140,14|2,0:0|0:0,0:0:0:0:
503,218,78096,1,4,0:0:0:0:
350,148,78507,5,0,0:0:0:0:
350,148,78713,2,0,P|356:101|365:73,1,70,2|8,0:0|0:0,0:0:0:0:
297,26,79124,2,0,P|270:0|190:51,1,140,8|10,0:0|0:0,0:0:0:0:
122,88,79740,1,8,0:0:0:0:
122,88,79946,6,0,P|110:133|29:181,1,140,4|2,0:0|0:0,0:0:0:0:
54,264,80562,2,0,P|96:246|203:234,2,140
176,376,81795,5,0,0:0:0:0:
176,376,82000,2,0,P|210:366|251:364,1,70,0|0,0:0|0:0,0:0:0:0:
303,304,82411,2,0,L|450:286,1,140,8|8,0:0|0:0,0:0:0:0:
505,131,83233,1,6,0:0:0:0:
303,304,83850,5,0,0:0:0:0:
303,304,84055,2,0,P|268:309|239:281,1,70,10|0,0:0|0:0,0:0:0:0:
192,220,84466,1,2,0:0:0:0:
192,220,84672,6,0,P|198:149|211:72,1,140,4|0,0:0|0:0,0:0:0:0:
135,40,85288,2,0,P|128:92|122:134,1,70,2|8,0:0|0:0,0:0:0:0:
60,162,85699,2,0,P|53:214|47:256,1,70,10|8,0:0|0:0,0:0:0:0:
94,303,86110,1,2,0:0:0:0:
94,303,86315,1,8,0:0:0:0:
156,359,86521,6,0,P|211:313|290:331,1,140,14|8,0:0|0:0,0:0:0:0:
344,368,87137,1,2,0:0:0:0:
465,252,87548,2,0,P|472:209|480:168,1,70,8|8,0:0|0:0,0:0:0:0:
414,126,87959,6,0,B|357:109|357:109|326:33|326:33|248:13,1,210,2|8,0:0|0:0,0:0:0:0:
189,63,88781,1,0,0:0:0:0:
189,63,88987,2,0,L|99:42,1,70,8|8,0:0|0:0,0:0:0:0:
88,124,89398,2,0,L|5:165,1,70,0|4,0:0|0:0,0:0:0:0:
63,231,89809,6,0,B|110:244|110:244|140:291|140:291|194:305,1,154.000004699707,14|12,0:0|0:0,0:0:0:0:
343,370,90631,2,0,B|375:350|375:350|372:297,1,77.0000023498536,8|0,0:0|0:0,0:0:0:0:
322,244,91041,2,0,B|319:204|319:204|351:184,1,77.0000023498536,8|2,0:0|0:0,0:0:0:0:
436,177,91452,6,0,P|449:246|460:335,1,154.000004699707,12|8,0:0|0:0,0:0:0:0:
322,244,92274,2,0,P|312:167|298:91,1,154.000004699707,10|12,0:0|0:0,0:0:0:0:
429,9,93096,1,12,0:0:0:0:
230,167,93713,5,0,0:0:0:0:
230,167,93918,2,0,P|176:179|146:191,1,77.0000023498536,10|0,0:0|0:0,0:0:0:0:
90,132,94329,2,0,P|43:102|19:80,1,77.0000023498536,12|4,0:0|0:0,0:0:0:0:
47,5,94740,6,0,P|118:44|171:97,1,154.000004699707,8|10,0:0|0:0,0:0:0:0:
254,86,95357,2,0,P|283:161|289:236,1,154.000004699707,0|2,0:0|0:0,0:0:0:0:
337,303,95973,1,8,0:0:0:0:
180,367,96384,1,4,0:0:0:0:
180,367,96589,1,0,0:0:0:0:
109,320,96795,2,0,P|103:288|97:242,1,77.0000023498536,10|0,0:0|0:0,0:0:0:0:
149,176,97206,2,0,P|144:137|137:99,1,77.0000023498536,8|0,0:0|0:0,0:0:0:0:
77,39,97617,5,8,0:0:0:0:
77,39,97822,2,0,P|6:56|5:129,1,154.000004699707,12|0,0:0|0:0,0:0:0:0:
64,186,98439,1,10,0:0:0:0:
64,186,98644,2,0,P|70:223|75:262,1,77.0000023498536,0|0,0:0|0:0,0:0:0:0:
157,285,99055,2,0,P|186:309|214:335,1,77.0000023498536,8|8,0:0|0:0,0:0:0:0:
289,294,99466,1,8,0:0:0:0:
289,294,99672,6,0,P|310:236|343:138,1,154.000004699707,12|8,0:0|0:0,0:0:0:0:
169,145,100494,2,0,P|190:87|223:-11,2,154.000004699707,8|8|12,0:0|0:0|0:0,0:0:0:0:
24,274,102959,6,0,P|39:300|82:306,1,70,6|0,0:0|0:0,0:0:0:0:
143,258,103370,2,0,P|181:245|219:242,1,70,0|0,0:0|0:0,0:0:0:0:
280,288,103781,2,0,P|330:304|426:325,1,140,8|0,0:0|0:0,0:0:0:0:
510,184,104603,6,0,P|500:151|493:117,1,70,0|2,0:0|0:0,0:0:0:0:
410,135,105014,2,0,P|420:168|427:202,1,70,6|0,0:0|0:0,0:0:0:0:
374,268,105425,1,10,0:0:0:0:
374,268,105631,1,2,0:0:0:0:
315,208,105836,1,8,0:0:0:0:
170,296,106247,5,0,0:0:0:0:
104,244,106452,2,0,P|95:201|65:98,1,140,4|0,0:0|0:0,0:0:0:0:
22,37,107069,1,8,0:0:0:0:
156,111,107480,2,0,P|169:157|174:184,1,70,2|6,0:0|0:0,0:0:0:0:
232,238,107891,6,0,L|392:264,1,140,8|8,0:0|0:0,0:0:0:0:
311,102,108713,2,0,L|471:128,1,140,8|4,0:0|0:0,0:0:0:0:
510,66,109329,1,12,0:0:0:0:
510,66,109535,6,0,P|497:28|461:17,1,70,14|0,0:0|0:0,0:0:0:0:
388,5,109946,2,0,P|346:14|314:17,1,70,10|0,0:0|0:0,0:0:0:0:
246,59,110357,2,0,P|196:72|180:155,1,140,14|10,0:0|0:0,0:0:0:0:
41,248,111178,6,0,P|77:260|124:273,1,70,10|6,0:0|0:0,0:0:0:0:
164,331,111589,2,0,P|200:343|247:356,1,70,14|0,0:0|0:0,0:0:0:0:
306,313,112000,1,10,0:0:0:0:
306,313,112206,1,2,0:0:0:0:
374,361,112411,1,8,0:0:0:0:
508,287,112822,5,14,0:0:0:0:
448,227,113028,1,14,0:0:0:0:
448,227,113233,2,0,P|434:190|430:150,1,70,14|14,0:0|0:0,0:0:0:0:
361,110,113644,2,0,P|339:137|311:159,1,70,14|14,0:0|0:0,0:0:0:0:
235,195,114055,2,0,P|205:188|154:180,1,70,14|14,0:0|0:0,0:0:0:0:
84,199,114466,6,0,P|77:152|38:49,1,140,8|4,0:0|0:0,0:0:0:0:
98,1,115083,2,0,P|148:49|188:106,1,140,8|0,0:0|0:0,0:0:0:0:
271,122,115699,1,8,0:0:0:0:
168,229,116110,5,4,0:0:0:0:
168,229,116316,1,0,0:0:0:0:
106,284,116521,2,0,P|71:279|32:276,1,70,4|0,0:0|0:0,0:0:0:0:
25,358,116932,2,0,P|60:360|178:382,1,140,12|4,0:0|0:0,0:0:0:0:
302,315,117754,5,4,0:0:0:0:
302,315,117959,1,8,0:0:0:0:
254,245,118165,2,0,P|264:201|269:168,1,70,2|0,0:0|0:0,0:0:0:0:
335,125,118576,2,0,P|345:81|350:48,1,70,0|2,0:0|0:0,0:0:0:0:
289,1,118987,1,2,0:0:0:0:
289,1,119192,1,2,0:0:0:0:
226,50,119398,6,0,B|166:55|176:85|122:84,1,112,14|0,0:0|0:0,0:0:0:0:
