osu file format v14

[General]
AudioFilename: Yvya.mp3
AudioLeadIn: 0
PreviewTime: 75631
Countdown: 0
SampleSet: Soft
StackLeniency: 0.3
Mode: 0
LetterboxInBreaks: 0
WidescreenStoryboard: 0

[Editor]
Bookmarks: 9210,15785,22360,28936,32223,45374,58525,65100,70032,73319,76607,89758,102908,107840,114415,116059
DistanceSpacing: 1.3
BeatDivisor: 4
GridSize: 4
TimelineZoom: 2.850001

[Metadata]
Title:Vitrum
TitleUnicode:Vitrum
Artist:BEMANI Sound Team "Yvya"
ArtistUnicode:BEMANI Sound Team "Yvya"
Creator:Lince Cosmico
Version:Extreme #12
Source:beatmania IIDX 28 BISTROVER
Tags:PDC2021 PDC 2021 pending cup mapping contest instrumental track chekito crissa waefwerf captin captin1 yuya yokoyama -atri- atri firis mistlud KuranteMelodii krt KKipalt kip kipalt thzz marcobrolo zhen electronic rock maot maotovisk progressive metal bms
BeatmapID:3228566
BeatmapSetID:1581126

[Difficulty]
HPDrainRate:6
CircleSize:5
OverallDifficulty:8.6
ApproachRate:9.4
SliderMultiplier:2.2
SliderTickRate:1

[Events]
//Background and Video events
0,0,"ESLEqqgUcAIHfOK.jpg",0,0
//Break Periods
//Storyboard Layer 0 (Background)
//Storyboard Layer 1 (Fail)
//Storyboard Layer 2 (Pass)
//Storyboard Layer 3 (Foreground)
//Storyboard Layer 4 (Overlay)
//Storyboard Sound Samples

[TimingPoints]
1042,410.958904109589,4,3,1,30,1,0
1042,-250,4,3,1,30,0,0
1093,-250,4,2,1,30,0,0
1350,-100,4,2,1,30,0,0
2480,-166.666666666667,4,2,1,30,0,0
2634,-166.666666666667,4,3,1,5,0,0
2685,-71.4285714285714,4,3,1,60,0,0
2839,-71.4285714285714,4,3,1,5,0,0
2891,-71.4285714285714,4,3,1,60,0,0
3713,-100,4,3,1,60,0,0
3918,-100,4,3,10,60,0,0
4021,-100,4,3,11,60,0,0
4124,-100,4,3,1,60,0,0
4329,-250,4,3,4,60,0,0
4535,-71.4285714285714,4,3,1,60,0,0
5151,-55.5555555555556,4,3,1,60,0,0
5973,-55.5555555555556,4,3,12,60,0,0
6178,-55.5555555555556,4,3,10,60,0,0
6281,-55.5555555555556,4,3,12,60,0,0
6487,-55.5555555555556,4,3,1,60,0,0
6692,-55.5555555555556,4,3,3,60,0,0
6744,-55.5555555555556,4,3,1,60,0,0
7206,-200,4,3,10,60,0,0
7617,-66.6666666666667,4,3,1,60,0,0
8233,-66.6666666666667,4,3,10,60,0,0
8302,-66.6666666666667,4,3,11,60,0,0
8370,-66.6666666666667,4,3,12,60,0,0
8439,-66.6666666666667,4,3,1,60,0,0
8850,-66.6666666666667,4,3,10,50,0,0
9261,-62.5,4,3,4,70,0,1
9312,-62.5,4,3,1,70,0,1
10237,-62.5,4,3,1,5,0,1
10288,-50,4,3,1,70,0,1
10442,-50,4,3,1,5,0,1
10494,-50,4,3,1,70,0,1
10596,-55.5555555555556,4,3,1,70,0,1
11110,-200,4,3,1,70,0,1
11315,-55.5555555555556,4,3,3,70,0,1
11367,-55.5555555555556,4,3,1,70,0,1
11726,-55.5555555555556,4,3,1,70,0,1
12137,-66.6666666666667,4,3,12,70,0,1
12240,-66.6666666666667,4,3,11,70,0,1
12343,-66.6666666666667,4,3,10,70,0,1
12446,-66.6666666666667,4,3,1,70,0,1
12548,-200,4,3,1,70,0,1
12702,-200,4,3,1,5,0,1
12754,-71.4285714285714,4,3,1,70,0,1
13884,-55.5555555555556,4,3,1,70,0,1
14192,-55.5555555555556,4,3,10,70,0,1
14261,-55.5555555555556,4,3,12,70,0,1
14329,-55.5555555555556,4,3,1,70,0,1
14398,-55.5555555555556,4,3,12,70,0,1
14500,-55.5555555555556,4,3,1,70,0,1
14603,-71.4285714285714,4,3,1,70,0,1
14809,-55.5555555555556,4,3,1,70,0,1
15836,-62.5,4,3,1,70,0,1
16812,-62.5,4,3,1,5,0,1
16863,-50,4,3,1,70,0,1
17018,-50,4,3,1,5,0,1
17069,-50,4,3,1,70,0,1
17480,-166.666666666667,4,3,1,70,0,1
17685,-55.5555555555556,4,3,1,70,0,1
17737,-55.5555555555556,4,3,3,70,0,1
18199,-55.5555555555556,4,3,1,70,0,1
18713,-71.4285714285714,4,3,12,70,0,1
18781,-71.4285714285714,4,3,11,70,0,1
18850,-71.4285714285714,4,3,10,70,0,1
19124,-71.4285714285714,4,3,1,70,0,1
20562,-166.666666666667,4,3,11,70,0,1
20768,-125,4,3,1,70,0,1
20819,-125,4,3,1,5,0,1
20870,-41.6666666666667,4,3,1,70,0,1
21024,-41.6666666666667,4,3,1,5,0,1
21076,-125,4,3,1,70,0,1
21127,-125,4,3,1,5,0,1
21178,-45.4545454545455,4,3,1,70,0,1
21333,-45.4545454545455,4,3,1,5,0,1
21384,-125,4,3,1,70,0,1
21435,-125,4,3,1,5,0,1
21486,-50,4,3,4,70,0,1
21538,-50,4,3,1,70,0,1
21641,-50,4,3,1,5,0,1
21692,-50,4,3,1,70,0,1
21795,-50,4,3,12,70,0,1
21863,-50,4,3,11,70,0,1
21932,-50,4,3,10,70,0,1
22000,-166.666666666667,4,3,1,70,0,1
22206,-50,4,3,10,70,0,1
22274,-50,4,3,11,70,0,1
22343,-50,4,3,12,70,0,1
22411,-100,4,3,3,50,0,0
22463,-100,4,3,1,50,0,0
23028,-66.6666666666667,4,3,1,50,0,0
23336,-80,4,3,1,50,0,0
24004,-80,4,3,1,5,0,0
24055,-100,4,3,1,50,0,0
24569,-66.6666666666667,4,3,1,50,0,0
24774,-80,4,3,1,50,0,0
24928,-80,4,3,1,5,0,0
24980,-80,4,3,1,50,0,0
25083,-66.6666666666667,4,3,1,50,0,0
25494,-250,4,3,1,50,0,0
25648,-250,4,3,1,5,0,0
25699,-50,4,3,1,50,0,0
25853,-50,4,3,1,5,0,0
25905,-250,4,3,1,50,0,0
26059,-250,4,3,1,5,0,0
26110,-50,4,3,1,50,0,0
26264,-50,4,3,1,5,0,0
26315,-83.3333333333333,4,3,1,50,0,0
26367,-83.3333333333333,4,3,1,5,0,0
26418,-50,4,3,1,50,0,0
26572,-50,4,3,1,5,0,0
26624,-250,4,3,1,50,0,0
26829,-83.3333333333333,4,3,1,50,0,0
27137,-83.3333333333333,4,3,10,50,0,0
27206,-83.3333333333333,4,3,11,50,0,0
27274,-83.3333333333333,4,3,12,50,0,0
27343,-83.3333333333333,4,3,1,50,0,0
27857,-50,4,3,1,50,0,0
28011,-50,4,3,1,5,0,0
28062,-50,4,3,1,50,0,0
28165,-50,4,3,12,50,0,0
28233,-50,4,3,11,50,0,0
28302,-50,4,3,10,50,0,0
28370,-50,4,3,12,50,0,0
28438,-50,4,3,11,50,0,0
28507,-50,4,3,10,50,0,0
28576,-50,4,3,1,50,0,0
28730,-50,4,3,1,5,0,0
28781,-50,4,3,1,50,0,0
28935,-50,4,3,1,5,0,0
28987,-50,4,3,3,50,0,0
30425,-50,4,3,12,45,0,0
30494,-50,4,3,11,45,0,0
30562,-50,4,3,10,45,0,0
30631,-100,4,3,1,45,0,0
30682,-100,4,3,1,15,0,0
30733,-100,4,3,1,20,0,0
30785,-100,4,3,1,25,0,0
30836,-100,4,3,1,30,0,0
30887,-100,4,3,1,35,0,0
30939,-100,4,3,1,40,0,0
31042,-100,4,3,10,40,0,0
31110,-100,4,3,12,40,0,0
31178,-100,4,3,10,40,0,0
31247,-100,4,3,11,40,0,0
31315,-100,4,3,12,40,0,0
31384,-100,4,3,11,40,0,0
31452,-100,4,3,10,60,0,0
31658,-250,4,3,1,60,0,0
32069,-66.6666666666667,4,3,12,50,0,0
32172,-66.6666666666667,4,3,1,50,0,0
32274,-66.6666666666667,4,3,4,40,0,0
33096,-71.4285714285714,4,3,4,40,0,0
33610,-71.4285714285714,4,3,1,40,0,0
33713,-71.4285714285714,4,3,4,40,0,0
35151,-71.4285714285714,4,3,3,40,0,0
35202,-71.4285714285714,4,3,4,40,0,0
37206,-71.4285714285714,4,3,1,40,0,0
37720,-71.4285714285714,4,3,4,40,0,0
38439,-71.4285714285714,4,3,10,40,0,0
38850,-71.4285714285714,4,3,1,40,0,0
38952,-71.4285714285714,4,3,4,40,0,0
40494,-71.4285714285714,4,3,12,50,0,0
40699,-71.4285714285714,4,3,11,50,0,0
40905,-71.4285714285714,4,3,10,50,0,0
41315,-55.5555555555556,4,3,3,50,0,0
41470,-55.5555555555556,4,3,1,5,0,0
41521,-71.4285714285714,4,3,1,40,0,0
41726,-71.4285714285714,4,3,4,40,0,0
43370,-71.4285714285714,4,3,1,40,0,0
43781,-71.4285714285714,4,3,3,40,0,0
43884,-71.4285714285714,4,3,4,40,0,0
44603,-50,4,3,1,50,0,0
44877,-71.4285714285714,4,3,10,50,0,0
45014,-100,4,3,4,50,0,0
45168,-100,4,3,1,5,0,0
45220,-66.6666666666667,4,3,1,50,0,0
45425,-62.5,4,3,1,55,0,0
46504,-62.5,4,3,1,5,0,0
46555,-62.5,4,3,1,55,0,0
46658,-50,4,3,1,55,0,0
46812,-50,4,3,1,5,0,0
46863,-62.5,4,3,1,55,0,0
47120,-62.5,4,3,1,5,0,0
47172,-62.5,4,3,1,55,0,0
47274,-50,4,3,1,55,0,0
47428,-50,4,3,1,5,0,0
47480,-50,4,3,1,55,0,0
47583,-62.5,4,3,1,55,0,0
48713,-62.5,4,3,3,55,0,0
48764,-62.5,4,3,1,55,0,0
49946,-100,4,3,1,55,0,0
50357,-55.5555555555556,4,3,1,55,0,0
51384,-55.5555555555556,4,3,10,55,0,0
51589,-55.5555555555556,4,3,1,55,0,0
51795,-71.4285714285714,4,3,4,55,0,0
52000,-62.5,4,3,1,55,0,0
54055,-50,4,3,1,55,0,0
54466,-50,4,3,4,55,0,0
54672,-166.666666666667,4,3,10,55,0,0
54877,-45.4545454545455,4,3,3,55,0,0
55031,-45.4545454545455,4,3,1,5,0,0
55083,-35.7142857142857,4,3,1,55,0,0
55288,-71.4285714285714,4,3,4,35,0,0
55357,-71.4285714285714,4,3,1,5,0,0
55425,-66.6666666666667,4,3,1,45,0,0
55494,-66.6666666666667,4,3,1,5,0,0
55562,-62.5,4,3,1,55,0,0
55631,-62.5,4,3,1,5,0,0
55699,-62.5,4,3,1,45,0,0
55768,-62.5,4,3,1,5,0,0
55836,-62.5,4,3,1,55,0,0
55905,-62.5,4,3,1,5,0,0
55973,-62.5,4,3,1,65,0,0
56042,-62.5,4,3,1,5,0,0
56110,-55.5555555555556,4,3,1,65,0,0
57137,-125,4,3,1,55,0,0
57548,-83.3333333333333,4,3,1,50,0,0
57754,-55.5555555555556,4,3,1,50,0,0
57959,-55.5555555555556,4,3,12,50,0,0
58028,-55.5555555555556,4,3,11,50,0,0
58096,-55.5555555555556,4,3,10,50,0,0
58165,-333.333333333333,4,3,1,50,0,0
58576,-166.666666666667,4,3,1,40,0,0
58987,-55.5555555555556,4,3,4,60,0,0
59038,-55.5555555555556,4,3,1,50,0,0
60425,-55.5555555555556,4,3,10,50,0,0
60631,-71.4285714285714,4,3,1,50,0,0
60836,-62.5,4,3,10,50,0,0
60887,-62.5,4,3,1,50,0,0
61110,-62.5,4,3,12,50,0,0
61178,-62.5,4,3,11,50,0,0
61247,-62.5,4,3,10,50,0,0
61555,-62.5,4,3,12,50,0,0
61658,-62.5,4,3,10,50,0,0
61761,-62.5,4,3,11,50,0,0
61863,-166.666666666667,4,3,1,50,0,0
62137,-71.4285714285714,4,3,10,50,0,0
62274,-55.5555555555556,4,3,1,50,0,0
62583,-55.5555555555556,4,3,10,50,0,0
62788,-55.5555555555556,4,3,12,50,0,0
62994,-55.5555555555556,4,3,11,50,0,0
63096,-55.5555555555556,4,3,10,50,0,0
63302,-55.5555555555556,4,3,11,50,0,0
63405,-55.5555555555556,4,3,12,50,0,0
63507,-71.4285714285714,4,3,3,50,0,0
63559,-71.4285714285714,4,3,1,50,0,0
63713,-71.4285714285714,4,3,10,50,0,0
63918,-55.5555555555556,4,3,1,50,0,0
65151,-71.4285714285714,4,3,1,50,0,0
65357,-100,4,3,1,50,0,0
66384,-66.6666666666667,4,3,1,50,0,0
66898,-55.5555555555556,4,3,1,50,0,0
67206,-142.857142857143,4,3,1,50,0,0
67411,-83.3333333333333,4,3,1,50,0,0
68268,-83.3333333333333,4,3,1,5,0,0
68336,-83.3333333333333,4,3,1,50,0,0
68370,-83.3333333333333,4,3,1,5,0,0
68439,-250,4,3,1,50,0,0
69055,-71.4285714285714,4,3,1,50,0,0
69209,-71.4285714285714,4,3,1,5,0,0
69261,-100,4,3,10,50,0,0
69415,-100,4,3,1,5,0,0
69466,-100,4,3,12,50,0,0
69672,-62.5,4,3,11,50,0,0
69826,-62.5,4,3,1,5,0,0
69877,-62.5,4,3,11,50,0,0
70031,-62.5,4,3,1,5,0,0
70083,-62.5,4,3,10,50,0,0
70288,-62.5,4,3,1,50,0,0
70596,-83.3333333333333,4,3,1,50,0,0
71418,-55.5555555555556,4,3,1,50,0,0
72240,-83.3333333333333,4,3,1,50,0,0
73062,-55.5555555555556,4,3,1,50,0,0
73576,-142.857142857143,4,3,1,50,0,0
73730,-142.857142857143,4,3,1,5,0,0
73781,-142.857142857143,4,3,1,50,0,0
73935,-142.857142857143,4,3,1,5,0,0
73987,-142.857142857143,4,3,1,50,0,0
74244,-142.857142857143,4,3,1,5,0,0
74295,-142.857142857143,4,3,1,50,0,0
74449,-142.857142857143,4,3,1,5,0,0
74500,-142.857142857143,4,3,1,50,0,0
74603,-142.857142857143,4,3,12,50,0,0
74740,-142.857142857143,4,3,11,50,0,0
74877,-142.857142857143,4,3,10,50,0,0
75014,-83.3333333333333,4,3,1,50,0,0
75631,-83.3333333333333,4,2,1,60,0,0
75733,-83.3333333333333,4,2,1,65,0,0
75836,-83.3333333333333,4,2,1,68,0,0
75939,-83.3333333333333,4,2,1,71,0,0
76042,-83.3333333333333,4,2,1,74,0,0
76144,-83.3333333333333,4,2,1,66,0,0
76247,-83.3333333333333,4,2,1,62,0,0
76350,-83.3333333333333,4,2,1,60,0,0
76452,-83.3333333333333,4,2,1,68,0,0
76555,-83.3333333333333,4,2,1,76,0,0
76658,-52.6315789473684,4,3,4,80,0,1
77069,-55.5555555555556,4,3,1,80,0,1
77480,-71.4285714285714,4,3,1,80,0,1
77754,-62.5,4,3,1,80,0,1
78096,-55.5555555555556,4,3,3,80,0,1
78148,-55.5555555555556,4,3,1,80,0,1
78867,-55.5555555555556,4,3,1,5,0,1
78918,-55.5555555555556,4,3,10,80,0,1
79124,-50,4,3,1,80,0,1
79535,-55.5555555555556,4,3,1,80,0,1
79637,-55.5555555555556,4,3,12,80,0,1
79740,-55.5555555555556,4,3,11,80,0,1
79843,-55.5555555555556,4,3,10,80,0,1
79946,-52.6315789473684,4,3,1,80,0,1
80511,-52.6315789473684,4,3,1,5,0,1
80562,-62.5,4,3,1,80,0,1
80768,-45.4545454545455,4,3,1,80,0,1
81178,-55.5555555555556,4,3,1,80,0,1
81384,-62.5,4,3,1,80,0,1
82822,-62.5,4,3,10,80,0,1
83233,-55.5555555555556,4,3,1,80,0,1
83850,-83.3333333333333,4,3,1,80,0,1
84004,-83.3333333333333,4,3,1,5,0,1
84055,-50,4,3,1,80,0,1
84672,-50,4,3,4,80,0,1
84723,-50,4,3,1,80,0,1
85083,-62.5,4,3,1,80,0,1
85494,-62.5,4,3,12,80,0,1
85562,-62.5,4,3,11,80,0,1
85631,-62.5,4,3,10,80,0,1
85699,-62.5,4,3,1,80,0,1
85802,-62.5,4,3,12,80,0,1
85905,-62.5,4,3,11,80,0,1
86007,-62.5,4,3,10,80,0,1
86110,-62.5,4,3,1,80,0,1
86521,-76.9230769230769,4,3,1,70,0,0
87137,-66.6666666666667,4,3,1,70,0,0
87548,-66.6666666666667,4,3,10,70,0,0
87754,-66.6666666666667,4,3,1,70,0,0
87959,-166.666666666667,4,3,1,70,0,0
88370,-71.4285714285714,4,3,10,70,0,0
88576,-71.4285714285714,4,3,1,70,0,0
89055,-71.4285714285714,4,3,12,70,0,0
89124,-71.4285714285714,4,3,11,70,0,0
89192,-71.4285714285714,4,3,10,70,0,0
89295,-71.4285714285714,4,3,1,70,0,0
89398,-55.5555555555556,4,3,1,70,0,0
89809,-50,4,3,4,80,0,1
90014,-50,4,3,10,80,0,1
90220,-50,4,3,1,80,0,1
90476,-50,4,3,1,5,0,1
90528,-50,4,3,10,80,0,1
90631,-62.5,4,3,1,80,0,1
91452,-62.5,4,3,3,80,0,1
91504,-62.5,4,3,1,80,0,1
91658,-62.5,4,3,10,80,0,1
91863,-62.5,4,3,1,80,0,1
92069,-62.5,4,3,10,80,0,1
92274,-62.5,4,3,1,80,0,1
92480,-62.5,4,3,10,80,0,1
92685,-62.5,4,3,1,80,0,1
92891,-62.5,4,3,10,80,0,1
93096,-62.5,4,3,1,80,0,1
93370,-62.5,4,3,10,80,0,1
93507,-62.5,4,3,1,80,0,1
93610,-62.5,4,3,1,80,0,1
94329,-62.5,4,3,3,80,0,1
94398,-62.5,4,3,1,80,0,1
94843,-50,4,3,1,80,0,1
95768,-38.4615384615385,4,3,1,80,0,1
95973,-125,4,3,10,80,0,1
96024,-125,4,3,1,5,0,1
96076,-125,4,3,10,80,0,1
96127,-125,4,3,1,5,0,1
96178,-125,4,3,10,80,0,1
96230,-125,4,3,1,5,0,1
96281,-125,4,3,10,80,0,1
96333,-125,4,3,1,5,0,1
96384,-71.4285714285714,4,3,1,80,0,1
96795,-71.4285714285714,4,3,3,80,0,1
97206,-71.4285714285714,4,3,1,80,0,1
98028,-71.4285714285714,4,3,3,80,0,1
98131,-55.5555555555556,4,3,1,80,0,1
98439,-55.5555555555556,4,3,3,80,0,1
98541,-55.5555555555556,4,3,1,80,0,1
99261,-55.5555555555556,4,3,12,80,0,1
99398,-55.5555555555556,4,3,11,80,0,1
99535,-55.5555555555556,4,3,10,80,0,1
99672,-55.5555555555556,4,3,1,80,0,1
99877,-55.5555555555556,4,3,12,80,0,1
99946,-55.5555555555556,4,3,11,80,0,1
100014,-55.5555555555556,4,3,10,80,0,1
100083,-55.5555555555556,4,3,1,80,0,1
100288,-55.5555555555556,4,3,12,80,0,1
100357,-55.5555555555556,4,3,11,80,0,1
100425,-55.5555555555556,4,3,10,80,0,1
100494,-55.5555555555556,4,3,1,80,0,1
100699,-55.5555555555556,4,3,12,80,0,1
100768,-55.5555555555556,4,3,11,80,0,1
100836,-55.5555555555556,4,3,10,80,0,1
100905,-55.5555555555556,4,3,1,80,0,1
101110,-55.5555555555556,4,3,12,80,0,1
101178,-55.5555555555556,4,3,11,80,0,1
101247,-55.5555555555556,4,3,10,80,0,1
101315,-62.5,4,3,4,80,0,0
102480,-62.5,4,3,1,20,0,0
102548,-333.333333333333,4,3,1,20,0,0
102959,-62.5,4,3,4,70,0,1
103011,-62.5,4,3,1,70,0,1
103935,-62.5,4,3,1,5,0,1
103986,-50,4,3,1,70,0,1
104140,-50,4,3,1,5,0,1
104192,-50,4,3,1,70,0,1
104294,-55.5555555555556,4,3,1,70,0,1
104808,-200,4,3,1,70,0,1
105013,-55.5555555555556,4,3,3,70,0,1
105065,-55.5555555555556,4,3,1,70,0,1
105835,-66.6666666666667,4,3,12,70,0,1
105939,-66.6666666666667,4,3,11,70,0,1
106041,-66.6666666666667,4,3,10,70,0,1
106144,-66.6666666666667,4,3,1,70,0,1
106246,-200,4,3,1,70,0,1
106400,-200,4,3,1,5,0,1
106452,-71.4285714285714,4,3,1,70,0,1
107223,-71.4285714285714,4,3,1,5,0,1
107274,-71.4285714285714,4,3,1,70,0,1
107685,-200,4,3,1,70,0,1
107839,-200,4,3,1,5,0,1
107891,-71.4285714285714,4,3,12,60,0,0
107959,-71.4285714285714,4,3,11,60,0,0
108028,-71.4285714285714,4,3,10,60,0,0
108096,-71.4285714285714,4,3,1,60,0,0
108370,-71.4285714285714,4,3,10,60,0,0
108439,-71.4285714285714,4,3,1,60,0,0
108713,-71.4285714285714,4,3,10,60,0,0
108781,-71.4285714285714,4,3,11,60,0,0
108850,-71.4285714285714,4,3,12,60,0,0
108918,-71.4285714285714,4,3,1,70,0,0
109124,-50,4,3,4,80,0,0
109278,-50,4,3,1,5,0,0
109329,-62.5,4,3,1,60,0,0
109535,-55.5555555555556,4,3,1,80,0,1
109946,-55.5555555555556,4,3,3,80,0,1
110048,-55.5555555555556,4,3,1,80,0,1
110357,-45.4545454545455,4,3,3,80,0,1
110459,-45.4545454545455,4,3,1,80,0,1
110768,-45.4545454545455,4,3,3,80,0,1
110870,-45.4545454545455,4,3,1,80,0,1
111178,-166.666666666667,4,3,3,80,0,1
111281,-166.666666666667,4,3,1,80,0,1
111383,-55.5555555555556,4,3,1,80,0,1
111452,-55.5555555555556,4,3,10,80,0,1
111589,-55.5555555555556,4,3,3,80,0,1
111692,-55.5555555555556,4,3,1,80,0,1
112000,-55.5555555555556,4,3,3,80,0,1
112103,-55.5555555555556,4,3,1,80,0,1
112411,-55.5555555555556,4,3,10,80,0,1
112548,-55.5555555555556,4,3,11,80,0,1
112685,-55.5555555555556,4,3,12,80,0,1
112822,-83.3333333333333,4,3,3,80,0,1
113028,-55.5555555555556,4,3,3,80,0,1
113233,-62.5,4,3,3,80,0,1
114261,-100,4,3,3,70,0,0
114466,-62.5,4,3,1,50,0,1
114569,-62.5,4,3,1,70,0,0
114774,-62.5,4,3,1,50,0,1
114877,-62.5,4,3,3,70,0,0
115083,-62.5,4,3,1,50,0,1
115186,-62.5,4,3,4,70,0,0
115391,-62.5,4,3,1,50,0,1
115494,-83.3333333333333,4,3,1,70,0,0
115699,-83.3333333333333,4,3,10,70,0,0
116110,-100,4,3,1,65,0,0
116521,-66.6666666666667,4,3,3,65,0,0
116675,-66.6666666666667,4,3,1,5,0,0
116726,-66.6666666666667,4,3,1,65,0,0
116932,-66.6666666666667,4,3,3,65,0,0
117035,-66.6666666666667,4,3,1,65,0,0
117343,-100,4,3,3,65,0,0
117497,-100,4,3,1,5,0,0
117548,-100,4,3,1,65,0,0
117702,-100,4,3,1,5,0,0
117754,-66.6666666666667,4,3,1,65,0,0
117959,-66.6666666666667,4,3,12,65,0,0
118028,-66.6666666666667,4,3,11,65,0,0
118096,-66.6666666666667,4,3,10,65,0,0
118165,-66.6666666666667,4,3,1,65,0,0
118422,-66.6666666666667,4,3,1,5,0,0
118473,-47.6190476190476,4,3,1,65,0,0
118627,-47.6190476190476,4,3,1,5,0,0
118678,-55.5555555555556,4,3,1,65,0,0
118935,-55.5555555555556,4,3,1,5,0,0
118987,-55.5555555555556,4,3,1,65,0,0
119141,-55.5555555555556,4,3,1,5,0,0
119192,-55.5555555555556,4,3,1,65,0,0
119261,-55.5555555555556,4,3,10,65,0,0
119398,-333.333333333333,4,3,1,65,0,0
119809,-333.333333333333,4,3,1,20,0,0

[Colours]
Combo1 : 98,157,255
Combo2 : 159,159,159
Combo3 : 115,115,115
Combo4 : 114,222,254

[HitObjects]
99,193,1042,6,0,L|96:178,4,11
203,250,1350,1,0,0:0:0:0:
253,192,1452,6,0,L|323:177,1,55,2|0,0:0|0:0,0:0:0:0:
145,255,1658,1,0,0:0:0:0:
150,262,1761,2,0,L|220:247,1,55,2|0,0:0|0:0,0:0:0:0:
207,127,1966,5,0,0:0:0:0:
204,116,2069,1,4,0:0:0:0:
201,105,2172,1,0,0:0:0:0:
269,54,2274,6,0,L|279:12,3,27.5
275,60,2480,2,0,L|332:50,1,49.4999984893799
446,36,2685,6,0,B|450:58|436:77|436:77|443:94|443:94|435:156,1,115.49999647522
434,158,2891,6,0,P|465:192|499:190,1,76.9999976501466,12|0,0:0|0:0,0:0:0:0:
375,223,3096,2,0,P|358:256|371:291,1,76.9999976501466,12|0,0:0|0:0,0:0:0:0:
443,329,3302,1,0,0:0:0:0:
272,289,3405,5,8,0:0:0:0:
304,363,3508,1,8,0:0:0:0:
382,381,3611,1,8,0:0:0:0:
443,329,3713,2,0,B|448:304|448:304|451:302|451:302|460:265,1,55
259,218,3918,5,8,0:0:0:0:
208,167,4021,1,8,0:0:0:0:
140,190,4124,1,8,0:0:0:0:
81,149,4226,1,8,0:0:0:0:
17,181,4329,6,0,L|-8:188,1,22,4|0,0:0|0:0,0:0:0:0:
250,26,4535,6,0,B|248:19|248:19|180:0,1,76.9999976501466
155,68,4740,2,0,B|156:74|156:74|309:122,1,153.999995300293,6|0,0:0|0:0,0:0:0:0:
453,171,5048,1,0,0:0:0:0:
418,105,5151,2,0,B|408:56|408:56|383:126|383:126|377:121|377:121|382:128|382:128|359:196,1,197.99999395752,14|0,0:0|0:0,0:0:0:0:
289,307,5459,5,8,0:0:0:0:
229,277,5562,1,10,0:0:0:0:
192,281,5665,1,8,0:0:0:0:
168,266,5768,1,12,0:0:0:0:
155,270,5870,1,8,0:0:0:0:
145,266,5973,1,8,0:0:0:0:
142,260,6178,5,8,0:0:0:0:
168,191,6280,1,8,0:0:0:0:
229,151,6384,1,0,0:0:0:0:
302,153,6486,1,8,0:0:0:0:
361,196,6588,1,0,0:0:0:0:
393,262,6692,6,0,B|401:313|401:313|392:315|392:315|385:276,1,98.9999969787599,12|0,0:0|0:0,0:0:0:0:
229,151,6898,1,0,0:0:0:0:
230,142,7000,1,0,0:0:0:0:
231,133,7103,1,0,0:0:0:0:
290,79,7206,6,8,L|285:53,2,13.75,0|0|0,0:0|0:0|0:0,0:0:0:0:
120,14,7411,2,8,L|125:-12,2,13.75,0|0|0,0:0|0:0|0:0,0:0:0:0:
48,119,7617,6,0,B|70:114|70:114|140:202|140:202|170:191,1,165.000006294251,6|0,0:0|0:0,0:0:0:0:
46,220,7925,5,0,0:0:0:0:
34,293,8028,1,8,0:0:0:0:
95,335,8131,1,8,0:0:0:0:
163,306,8233,5,8,0:0:0:0:
168,296,8302,5,8,0:0:0:0:
176,288,8370,5,8,0:0:0:0:
223,226,8439,5,8,0:0:0:0:
281,179,8542,1,8,0:0:0:0:
350,203,8644,1,0,0:0:0:0:
371,274,8747,1,0,0:0:0:0:
326,333,8850,5,8,0:0:0:0:
305,315,8918,5,8,0:0:0:0:
287,309,8987,5,8,0:0:0:0:
274,308,9055,5,8,0:0:0:0:
264,308,9124,5,8,0:0:0:0:
256,310,9192,5,8,0:0:0:0:
251,313,9261,6,0,B|267:346|267:346|388:363|388:363|400:349,1,176,4|0,0:0|0:0,0:0:0:0:
480,273,9569,1,8,0:0:0:0:
463,204,9672,1,0,0:0:0:0:
447,135,9774,1,0,0:0:0:0:
472,203,9980,5,0,0:0:0:0:
456,134,10083,2,0,B|448:102|448:102|380:75|380:75|374:42,1,132,8|0,0:0|0:0,0:0:0:0:
445,23,10288,2,0,B|448:60|448:60|383:117|383:117|388:156,1,165,2|0,0:0|0:3,0:3:0:0:
391,168,10494,5,0,0:3:0:0:
232,243,10596,2,0,B|221:281|221:281|291:300|291:300|316:207,1,197.99999395752,2|0,0:0|0:0,0:0:0:0:
181,109,10905,6,0,B|140:97|140:97|134:102|134:102|78:87,1,98.9999969787599
15,66,11110,6,0,L|23:36,1,27.5,2|0,0:0|0:0,0:0:0:0:
140,175,11315,2,0,B|117:259|117:259|99:270|99:270|77:356,1,197.99999395752,6|0,0:0|0:0,0:0:0:0:
17,268,11624,1,0,0:0:0:0:
15,258,11726,6,0,B|6:196|6:196|46:165,1,98.9999969787599,10|0,0:0|0:0,0:0:0:0:
158,378,11932,2,0,B|187:356|187:356|178:294,1,98.9999969787599,2|0,0:0|0:0,0:0:0:0:
450,326,12137,5,8,0:0:0:0:
380,299,12240,1,8,0:0:0:0:
310,272,12343,1,8,0:0:0:0:
240,246,12446,1,8,0:0:0:0:
170,220,12548,6,0,L|162:172,1,41.25,2|0,0:0|0:0,0:0:0:0:
143,109,12754,6,0,B|90:98|90:98|74:64,1,76.9999976501466,4|0,0:0|0:0,0:0:0:0:
268,6,12959,1,0,0:0:0:0:
212,61,13062,2,0,P|222:107|319:116,1,153.999995300293
453,268,13370,6,0,P|492:240|484:193,1,76.9999976501466,8|0,0:0|0:0,0:0:0:0:
385,145,13576,2,0,B|378:184|378:184|309:235|309:235|304:266,1,153.999995300293,2|0,0:0|0:0,0:0:0:0:
371,294,13884,2,0,B|375:254|375:254|309:168|309:168|315:119,1,197.99999395752,2|0,0:0|0:0,0:0:0:0:
372,67,14192,5,8,0:0:0:0:
377,62,14261,5,8,0:0:0:0:
383,59,14329,5,0,0:0:0:0:
389,58,14398,5,8,0:0:0:0:
206,220,14500,5,2,0:0:0:0:
137,256,14603,2,0,P|114:222|126:182,1,76.9999976501466,8|0,0:0|0:0,0:0:0:0:
371,294,14809,2,0,B|384:314|384:314|330:368|330:368|253:338|253:338|257:318,1,197.99999395752
185,143,15117,1,2,0:0:0:0:
223,80,15220,2,0,B|270:92|270:92|276:98|276:98|327:112,1,98.9999969787599,8|0,0:0|0:0,0:0:0:0:
511,257,15425,5,8,0:0:0:0:
473,271,15494,5,8,0:0:0:0:
441,274,15562,5,8,0:0:0:0:
416,284,15631,5,8,0:0:0:0:
396,286,15699,5,8,0:0:0:0:
383,291,15768,5,8,0:0:0:0:
371,294,15836,6,0,B|313:304|313:304|301:312|301:312|277:303|277:303|263:314|263:314|192:328,1,176,4|0,0:0|0:0,0:0:0:0:
99,328,16144,1,8,0:0:0:0:
89,258,16247,1,0,0:0:0:0:
79,188,16350,1,0,0:0:0:0:
81,258,16555,5,0,0:0:0:0:
70,190,16658,2,0,B|65:157|65:157|119:108|119:108|113:75,1,132,8|0,0:0|0:0,0:0:0:0:
43,83,16863,2,0,B|52:121|52:121|134:146|134:146|144:186,1,165,2|0,0:0|0:0,0:0:0:0:
148,198,17069,5,0,0:0:0:0:
213,235,17172,1,2,0:0:0:0:
282,203,17274,1,0,0:0:0:0:
286,125,17377,1,0,0:0:0:0:
223,80,17480,6,0,L|188:90,1,32.99999899292
496,206,17685,2,0,B|471:162|471:162|412:170,1,98.9999969787599,6|0,0:0|0:0,0:0:0:0:
353,232,17891,2,0,B|474:273|474:273|498:201,1,197.99999395752,6|0,0:0|0:0,0:0:0:0:
290,206,18199,1,0,0:0:0:0:
282,203,18302,6,0,B|232:222|232:222|235:275,1,98.9999969787599,10|0,0:0|0:0,0:0:0:0:
310,379,18507,2,0,B|360:360|360:360|357:307,1,98.9999969787599,2|0,0:0|0:0,0:0:0:0:
164,370,18713,5,8,0:0:0:0:
147,373,18781,5,8,0:0:0:0:
130,369,18849,5,8,0:0:0:0:
116,360,18918,5,8,0:0:0:0:
107,346,18986,5,8,0:0:0:0:
103,329,19055,5,8,0:0:0:0:
106,312,19124,6,0,B|134:303|134:303|140:306|140:306|192:290,1,76.9999976501466,8|0,0:0|0:0,0:0:0:0:
383,238,19329,2,0,P|421:247|442:288,1,76.9999976501466,8|0,0:0|0:0,0:0:0:0:
309,258,19535,5,8,0:0:0:0:
256,213,19637,1,8,0:0:0:0:
266,144,19740,1,0,0:0:0:0:
327,114,19843,5,8,0:0:0:0:
189,171,19946,2,0,B|160:162|160:162|154:165|154:165|102:149,1,76.9999976501466,4|0,0:0|0:0,0:0:0:0:
341,108,20151,1,2,0:0:0:0:
355,102,20254,1,0,0:0:0:0:
209,33,20357,5,8,0:0:0:0:
199,102,20460,1,8,0:0:0:0:
189,171,20562,2,8,L|184:205,2,21.9999993286133,0|0|0,0:0|0:0|0:0,0:0:0:0:
341,344,20768,6,0,L|373:334,1,22,10|0,0:0|0:0,0:0:0:0:
419,288,20870,2,0,B|435:259|435:259|398:205|398:205|338:233|338:233|343:277,1,197.99999395752,4|0,0:0|0:0,0:0:0:0:
218,253,21076,6,0,L|186:239,1,22,10|0,0:0|0:0,0:0:0:0:
136,212,21178,2,0,B|111:197|111:197|115:140|115:140|172:135|172:135|188:170,1,181.500005538941,4|0,0:0|0:0,0:0:0:0:
286,5,21384,6,0,L|310:23,1,22,8|0,0:0|0:0,0:0:0:0:
349,72,21487,2,0,B|368:89|368:89|353:139|353:139|301:133|301:133|294:98,1,165,4|0,0:0|0:0,0:0:0:0:
292,88,21692,1,0,0:0:0:0:
435,140,21795,5,8,0:0:0:0:
441,142,21863,5,8,0:0:0:0:
448,144,21932,5,8,0:0:0:0:
454,146,22000,6,0,L|495:157,1,32.99999899292
316,171,22206,5,8,0:0:0:0:
305,180,22274,5,8,0:0:0:0:
298,193,22343,5,8,0:0:0:0:
241,245,22411,6,0,L|234:309,1,55,4|0,0:0|0:0,0:0:0:0:
238,247,22617,2,0,L|231:311,1,55
235,249,22822,2,0,L|228:313,1,55,2|0,0:0|0:0,0:0:0:0:
79,287,23028,5,0,0:0:0:0:
68,356,23131,2,0,B|107:362|107:362|135:329,1,82.5000031471254,8|2,0:0|0:0,0:0:0:0:
161,258,23336,2,0,B|167:199|167:199|165:191|165:191|173:193|173:193|169:182|169:182|176:120,1,137.5
235,249,23644,6,0,P|258:224|293:220,1,68.75,2|0,0:0|0:0,0:0:0:0:
26,111,23850,2,0,P|75:115|101:157,1,103.125
104,170,24055,6,0,L|168:177,1,55,2|0,0:0|0:0,0:0:0:0:
106,173,24261,2,0,L|170:180,1,55
254,141,24466,5,2,0:0:0:0:
312,91,24569,2,0,B|284:59|284:59|238:67,1,82.5000031471254
227,221,24774,2,0,L|337:202,1,103.125
338,200,24980,5,0,0:0:0:0:
474,300,25083,2,0,B|428:304|428:304|398:266,1,82.5000031471254,0|8,0:0|0:0,0:0:0:0:
334,195,25288,5,10,0:0:0:0:
404,171,25391,1,8,0:0:0:0:
474,147,25494,2,0,L|477:109,1,33,8|0,0:0|0:0,0:0:0:0:
477,104,25699,6,0,B|451:99|451:99|399:0|399:0|372:-3,1,165,6|0,0:0|0:0,0:0:0:0:
362,3,25905,2,0,L|328:0,1,33
269,47,26110,6,0,B|228:84|251:125|251:125|293:149|292:192,1,165,2|0,0:0|0:0,0:0:0:0:
182,196,26315,2,0,P|186:220|199:233,1,32.99999899292
189,198,26418,6,0,P|246:245|292:187,1,165
177,118,26624,2,0,P|166:106|161:77,1,44
334,142,26932,2,0,P|317:175|284:188,1,65.9999979858399,2|0,0:0|0:0,0:0:0:0:
132,259,27137,5,8,0:0:0:0:
123,257,27206,5,8,0:0:0:0:
114,255,27274,5,8,0:0:0:0:
105,253,27343,5,8,0:0:0:0:
79,288,27411,5,0,0:0:0:0:
54,324,27480,5,0,0:0:0:0:
29,360,27548,6,0,L|-23:349,2,43.9999986572266
163,334,27754,5,0,0:0:0:0:
232,324,27857,2,0,B|297:315|297:315|314:327|314:327|396:315,1,165,8|0,0:0|0:0,0:0:0:0:
401,313,28062,1,0,0:0:0:0:
251,220,28165,5,8,0:0:0:0:
244,217,28233,5,8,0:0:0:0:
237,214,28302,5,8,0:0:0:0:
230,211,28370,5,8,0:0:0:0:
223,208,28439,5,8,0:0:0:0:
216,205,28507,5,8,0:0:0:0:
209,202,28576,6,0,B|176:189|176:189|155:93|155:93|124:81,1,165,2|0,0:0|0:0,0:0:0:0:
239,115,28781,2,0,B|205:103|205:103|127:163|127:163|96:153,1,165,2|0,0:0|0:0,0:0:0:0:
86,146,28987,5,6,0:0:0:0:
261,169,30425,5,8,0:0:0:0:
259,176,30494,5,8,0:0:0:0:
257,183,30562,5,8,0:0:0:0:
255,190,30631,6,0,L|251:206,14,13.75,8|0|0|0|0|0|0|0|0|0|0|0|0|0|0,0:0|0:0|0:0|0:0|0:0|0:0|0:0|0:0|0:0|0:0|0:0|0:0|0:0|0:0|0:0,0:0:0:0:
321,171,31042,5,8,0:0:0:0:
311,172,31110,5,8,0:0:0:0:
300,173,31178,5,8,0:0:0:0:
283,179,31247,5,8,0:0:0:0:
257,183,31315,5,8,0:0:0:0:
224,189,31384,5,8,0:0:0:0:
186,197,31452,5,8,0:0:0:0:
112,154,31555,1,0,0:0:0:0:
61,212,31658,6,8,L|36:215,2,14.6666666666667,0|0|0,0:0|0:0|0:0,0:0:0:0:
118,146,31863,5,8,0:0:0:0:
124,138,31966,1,8,0:0:0:0:
129,236,32069,2,0,P|109:271|71:284,1,82.5000031471254,8|0,0:0|0:0,0:0:0:0:
174,350,32274,5,2,0:0:0:0:
182,341,32377,1,0,0:0:0:0:
197,330,32480,1,0,0:0:0:0:
224,323,32583,1,2,0:0:0:0:
259,324,32685,1,0,0:0:0:0:
317,343,32788,1,2,0:0:0:0:
379,312,32891,1,0,0:0:0:0:
391,245,32994,1,0,0:0:0:0:
337,190,33096,5,8,0:0:0:0:
374,165,33199,1,2,0:0:0:0:
389,139,33302,1,0,0:0:0:0:
392,119,33405,1,0,0:0:0:0:
311,115,33507,5,2,0:0:0:0:
303,98,33610,1,2,0:0:0:0:
283,76,33713,1,0,0:0:0:0:
243,63,33815,1,0,0:0:0:0:
176,99,33918,5,2,0:0:0:0:
140,147,34021,1,0,0:0:0:0:
178,203,34124,1,2,0:0:0:0:
136,263,34227,1,0,0:0:0:0:
176,324,34329,5,0,0:0:0:0:
200,326,34432,1,2,0:0:0:0:
220,314,34535,1,0,0:0:0:0:
229,294,34637,1,0,0:0:0:0:
80,210,34740,5,8,0:0:0:0:
66,214,34843,1,0,0:0:0:0:
82,310,34946,2,0,B|105:339|105:339|152:332,1,76.9999976501466,2|0,0:0|0:0,0:0:0:0:
178,203,35151,2,0,B|207:179|207:179|200:132,1,76.9999976501466,6|0,0:0|0:0,0:0:0:0:
89,77,35357,5,0,0:0:0:0:
75,81,35460,1,0,0:0:0:0:
80,86,35665,5,0,0:0:0:0:
124,38,35768,1,0,0:0:0:0:
199,28,35870,1,2,0:0:0:0:
262,66,35973,5,0,0:0:0:0:
271,75,36076,1,2,0:0:0:0:
229,134,36178,5,0,0:0:0:0:
220,143,36281,1,0,0:0:0:0:
273,208,36384,5,8,0:0:0:0:
316,228,36487,1,2,0:0:0:0:
353,207,36589,1,0,0:0:0:0:
360,171,36692,1,0,0:0:0:0:
408,117,36795,5,2,0:0:0:0:
411,110,36898,1,0,0:0:0:0:
416,104,37000,1,0,0:0:0:0:
423,100,37103,1,0,0:0:0:0:
470,157,37206,5,2,0:0:0:0:
491,164,37309,1,0,0:0:0:0:
339,93,37411,5,2,0:0:0:0:
318,100,37514,1,0,0:0:0:0:
450,233,37617,5,0,0:0:0:0:
465,300,37720,1,2,0:0:0:0:
431,351,37822,1,0,0:0:0:0:
377,356,37925,1,0,0:0:0:0:
338,330,38028,5,8,0:0:0:0:
283,278,38131,2,0,B|280:247|280:247|276:240|276:240|271:184,1,76.9999976501466,6|0,0:0|0:0,0:0:0:0:
221,31,38336,5,0,0:0:0:0:
196,50,38439,5,8,0:0:0:0:
194,57,38541,1,8,0:0:0:0:
192,64,38644,1,8,0:0:0:0:
190,71,38747,1,8,0:0:0:0:
131,112,38850,5,4,0:0:0:0:
136,133,38952,1,0,0:0:0:0:
132,162,39055,1,0,0:0:0:0:
109,192,39158,1,2,0:0:0:0:
68,217,39261,1,0,0:0:0:0:
47,282,39363,1,2,0:0:0:0:
87,342,39466,1,0,0:0:0:0:
161,339,39569,1,0,0:0:0:0:
206,272,39672,5,8,0:0:0:0:
234,305,39774,1,2,0:0:0:0:
261,318,39878,1,0,0:0:0:0:
281,318,39981,1,0,0:0:0:0:
277,238,40083,5,2,0:0:0:0:
293,228,40186,1,0,0:0:0:0:
312,205,40289,1,0,0:0:0:0:
321,164,40391,1,0,0:0:0:0:
273,107,40494,5,8,0:0:0:0:
256,98,40596,1,8,0:0:0:0:
390,189,40699,5,8,0:0:0:0:
407,198,40801,1,8,0:0:0:0:
240,173,40905,5,8,0:0:0:0:
218,179,41007,1,8,0:0:0:0:
424,126,41110,5,8,0:0:0:0:
445,120,41212,1,8,0:0:0:0:
416,54,41315,6,0,B|357:67|357:67|319:172,1,148.49999546814,4|0,0:0|0:0,0:0:0:0:
293,228,41521,2,0,B|287:243|287:243|228:257,1,76.9999976501466,2|0,0:0|0:0,0:0:0:0:
77,182,41726,5,2,0:0:0:0:
32,128,41829,1,0,0:0:0:0:
69,70,41932,1,0,0:0:0:0:
136,86,42035,1,0,0:0:0:0:
144,94,42240,5,0,0:0:0:0:
158,104,42343,1,0,0:0:0:0:
190,109,42446,1,2,0:0:0:0:
232,93,42548,1,0,0:0:0:0:
261,53,42651,1,2,0:0:0:0:
320,22,42754,1,0,0:0:0:0:
387,45,42857,1,0,0:0:0:0:
411,113,42959,5,8,0:0:0:0:
402,131,43062,1,2,0:0:0:0:
370,154,43165,1,0,0:0:0:0:
323,153,43268,1,0,0:0:0:0:
271,216,43370,5,12,0:0:0:0:
239,189,43473,1,0,0:0:0:0:
191,185,43576,1,0,0:0:0:0:
128,209,43678,1,0,0:0:0:0:
87,270,43781,6,0,B|82:286|82:286|108:318|108:318|104:335,1,76.9999976501466,4|0,0:0|0:0,0:0:0:0:
25,137,43987,1,0,0:0:0:0:
19,126,44089,6,0,B|23:120|23:120|92:106,1,76.9999976501466,8|0,0:0|0:0,0:0:0:0:
164,272,44295,2,0,B|168:278|168:278|237:292,1,76.9999976501466,8|0,0:0|0:0,0:0:0:0:
29,42,44500,1,2,0:0:0:0:
41,40,44603,6,0,B|113:28|113:28|154:60|154:60|219:48|219:48|235:14,1,220,14|0,0:0|0:0,0:0:0:0:
291,67,44877,5,8,0:0:0:0:
295,69,44946,5,8,0:0:0:0:
299,71,45014,6,0,B|357:82|357:82|369:111,1,82.5,12|0,0:0|0:0,0:0:0:0:
370,113,45220,6,0,B|378:134|378:134|436:145,1,82.5000031471254
300,155,45425,6,0,B|269:189|269:189|173:175|173:175|145:207,1,176,6|0,0:0|0:0,0:0:0:0:
28,357,45733,1,0,0:0:0:0:
38,360,45836,2,0,B|80:368|80:368|120:325,1,88,10|0,0:0|0:0,0:0:0:0:
101,136,46041,1,0,0:0:0:0:
103,128,46247,5,2,0:0:0:0:
27,237,46350,2,0,B|71:226|71:226|75:219|75:219|163:196,1,132
158,196,46555,5,0,0:0:0:0:
192,259,46658,2,0,B|181:303|181:303|241:317|241:317|255:257,1,165,10|0,0:0|0:0,0:0:0:0:
256,251,46863,5,0,0:0:0:0:
283,182,46966,2,0,B|327:193|327:193|331:200|331:200|419:223,1,132
414,223,47172,5,0,0:0:0:0:
448,160,47274,2,0,B|437:115|437:115|497:101|497:101|511:161,1,165
512,168,47480,5,10,0:0:0:0:
423,301,47583,1,0,0:0:0:0:
412,307,47685,5,0,0:0:0:0:
410,327,47788,1,0,0:0:0:0:
437,349,47891,1,2,0:0:0:0:
485,342,47994,1,0,0:0:0:0:
509,300,48096,1,0,0:0:0:0:
484,243,48199,1,0,0:0:0:0:
425,209,48302,1,14,0:0:0:0:
354,221,48405,1,0,0:0:0:0:
305,278,48507,1,0,0:0:0:0:
241,314,48610,1,0,0:0:0:0:
172,286,48713,6,0,B|126:242|64:252|64:252|94:258|112:288,1,176,4|0,0:0|0:0,0:0:0:0:
46,322,49021,1,0,0:0:0:0:
39,332,49124,2,0,P|7:319|0:265,1,88,10|0,0:0|0:0,0:0:0:0:
85,155,49329,1,0,0:0:0:0:
305,278,49535,5,2,0:0:0:0:
241,314,49637,2,0,B|234:256|234:256|249:234|249:234|233:127,1,176
58,88,49946,2,0,B|38:40|38:40|84:2,1,110,10|0,0:0|0:0,0:0:0:0:
125,62,50254,1,0,0:0:0:0:
137,64,50357,6,0,B|214:71|214:71|199:84|199:84|216:72|216:72|346:85,1,197.99999395752,6|0,0:0|0:0,0:0:0:0:
443,137,50665,1,0,0:0:0:0:
456,133,50768,5,10,0:0:0:0:
465,109,50870,1,0,0:0:0:0:
447,76,50973,1,0,0:0:0:0:
405,69,51076,1,0,0:0:0:0:
364,97,51178,1,2,0:0:0:0:
348,155,51281,1,0,0:0:0:0:
392,216,51384,5,8,0:0:0:0:
386,218,51452,5,8,0:0:0:0:
382,221,51521,5,8,0:0:0:0:
378,225,51589,6,0,B|336:237|336:237|330:248|330:248|277:264,1,98.9999969787599,2|0,0:0|0:0,0:0:0:0:
153,372,51795,2,0,B|123:365|123:365|118:359|118:359|79:349,1,76.9999976501466,4|0,0:0|0:0,0:0:0:0:
286,336,52000,6,0,B|425:296|425:296|403:333,1,176,6|0,0:0|0:0,0:0:0:0:
279,340,52309,1,0,0:0:0:0:
222,298,52411,6,0,B|215:264|215:264|207:258|207:258|195:214,1,88,10|0,0:0|0:0,0:0:0:0:
165,85,52617,1,0,0:0:0:0:
163,76,52822,5,2,0:0:0:0:
83,126,52925,1,0,0:0:0:0:
73,134,53028,1,0,0:0:0:0:
63,158,53131,1,0,0:0:0:0:
66,196,53233,1,10,0:0:0:0:
106,224,53336,1,0,0:0:0:0:
162,207,53439,1,0,0:0:0:0:
187,143,53541,1,0,0:0:0:0:
163,76,53644,6,0,P|126:43|75:51,1,88,10|0,0:0|0:0,0:0:0:0:
240,205,53850,2,0,P|231:247|199:276,1,88,8|0,0:0|0:0,0:0:0:0:
395,58,54055,2,0,P|314:25|274:131,1,220,14|0,0:0|0:0,0:0:0:0:
414,245,54363,1,0,0:0:0:0:
426,236,54466,5,10,0:0:0:0:
449,166,54569,1,0,0:0:0:0:
472,96,54672,2,8,L|480:61,2,21.9999993286133,0|0|0,0:0|0:0|0:0,0:0:0:0:
340,230,54877,6,0,B|321:233|321:233|242:336|242:336|209:340,1,181.500005538941,4|0,0:0|0:0,0:0:0:0:
213,261,55083,2,0,B|230:258|230:258|321:317|321:317|349:312,1,153.999995300293,4|0,0:0|0:0,0:0:0:0:
492,308,55288,6,0,P|472:328|435:330,1,51.3333317667644,2|0,0:0|0:0,0:0:0:0:
479,373,55425,2,0,P|454:362|440:338,1,55.0000020980836
410,381,55562,2,0,P|412:352|431:331,1,58.6666666666667
311,196,55699,6,0,L|321:120,1,58.6666666666667,8|0,0:0|0:0,0:0:0:0:
336,8,55836,2,0,L|328:66,1,58.6666666666667
354,108,55973,2,0,L|296:101,1,58.6666666666667
423,126,56110,6,0,B|236:103|236:103|207:56|207:56|141:48,1,296.99999093628,6|0,0:0|0:0,0:0:0:0:
157,128,56521,6,0,B|142:197|76:202|76:202|55:160|15:158,1,197.99999395752,8|0,0:0|0:0,0:0:0:0:
7,233,56829,1,8,0:0:0:0:
3,242,56932,2,0,P|19:302|59:302,1,98.9999969787599
191,342,57137,6,0,L|219:335,3,22,4|0|0|0,0:0|0:0|0:0|0:0,0:0:0:0:
283,319,57343,2,0,L|311:312,3,22,4|0|0|0,0:0|0:0|0:0|0:0,0:0:0:0:
375,296,57548,6,0,L|394:372,1,65.9999979858399,8|0,0:0|0:0,0:0:0:0:
455,310,57754,2,0,B|440:253|440:253|419:231|419:231|412:201|412:201|422:204|422:204|411:200|411:200|399:147,1,197.99999395752,8|8,0:0|0:0,0:0:0:0:
421,78,58028,5,8,0:0:0:0:
423,71,58096,5,8,0:0:0:0:
427,66,58165,6,0,L|417:11,1,49.4999984893799,8|0,0:0|0:0,0:0:0:0:
492,162,58576,6,0,P|469:204|418:200,1,98.9999969787599
305,124,58987,6,0,B|269:115|269:115|261:97|261:97|215:118|215:118|174:99|125:90,1,197.99999395752,4|0,0:0|0:0,0:0:0:0:
63,61,59261,5,2,0:0:0:0:
58,56,59329,5,0,0:0:0:0:
54,50,59398,5,10,0:0:0:0:
106,0,59500,1,2,0:0:0:0:
169,28,59603,1,0,0:0:0:0:
82,209,59706,5,2,0:0:0:0:
12,188,59809,1,10,0:0:0:0:
5,120,59911,1,0,0:0:0:0:
157,176,60014,6,0,B|217:193|217:193|217:182|217:182|226:195|226:195|336:226|336:226|328:280|370:308,1,296.99999093628,4|0,0:0|0:0,0:0:0:0:
415,242,60425,1,8,0:0:0:0:
375,303,60528,1,8,0:0:0:0:
420,235,60631,6,0,P|446:207|489:186,1,76.9999976501466
262,287,60836,2,0,B|220:295|220:295|186:256,1,88,8|0,0:0|0:0,0:0:0:0:
71,139,61041,5,8,0:0:0:0:
69,133,61110,5,8,0:0:0:0:
67,128,61178,5,8,0:0:0:0:
65,122,61247,5,8,0:0:0:0:
63,116,61315,5,8,0:0:0:0:
61,110,61384,5,8,0:0:0:0:
59,105,61452,5,8,0:0:0:0:
110,57,61555,1,8,0:0:0:0:
174,86,61658,1,8,0:0:0:0:
226,38,61761,1,8,0:0:0:0:
292,58,61863,6,0,P|326:68|358:85,1,65.9999979858399,4|0,0:0|0:0,0:0:0:0:
491,42,62137,5,8,0:0:0:0:
487,39,62206,5,8,0:0:0:0:
482,37,62274,6,0,P|399:80|342:182,1,197.99999395752,10|0,0:0|0:0,0:0:0:0:
492,209,62583,1,8,0:0:0:0:
508,275,62685,1,8,0:0:0:0:
456,322,62788,1,8,0:0:0:0:
387,351,62891,5,8,0:0:0:0:
379,357,62994,1,0,0:0:0:0:
373,365,63096,1,0,0:0:0:0:
370,282,63199,5,8,0:0:0:0:
325,216,63302,1,8,0:0:0:0:
249,192,63405,1,8,0:0:0:0:
175,220,63507,6,0,B|170:266|170:266|109:309|109:309|102:357,1,153.999995300293,6|8,0:0|0:0,0:0:0:0:
172,371,63781,5,8,0:0:0:0:
174,366,63850,5,8,0:0:0:0:
176,361,63918,6,0,B|182:317|182:317|97:254|97:254|103:203,1,197.99999395752,10|0,0:0|0:0,0:0:0:0:
117,128,64226,1,0,0:0:0:0:
60,72,64329,5,8,0:0:0:0:
53,70,64398,5,8,0:0:0:0:
46,68,64466,5,8,0:0:0:0:
39,66,64535,5,8,0:0:0:0:
131,136,64637,1,8,0:0:0:0:
199,124,64740,1,0,0:0:0:0:
267,112,64843,1,0,0:0:0:0:
335,100,64946,1,0,0:0:0:0:
402,88,65048,1,0,0:0:0:0:
470,76,65151,6,0,B|488:32|488:32|455:59,1,76.9999976501466,2|0,0:0|0:0,0:0:0:0:
380,157,65357,6,0,B|391:220|391:220|410:231,1,82.5
417,233,65562,2,0,B|432:241|432:241|443:305,1,82.5,2|0,0:0|0:0,0:0:0:0:
390,353,65768,5,0,0:0:0:0:
327,319,65870,2,0,B|263:330|263:330|253:349,1,82.5
251,355,66075,2,0,B|242:370|242:370|178:381,1,82.5
121,336,66281,5,0,0:0:0:0:
69,282,66384,2,0,P|22:300|14:333,1,82.5000031471254
141,263,66589,6,0,B|188:242|185:198|172:192|169:149|211:126,1,165.000006294251,2|0,0:0|0:0,0:0:0:0:
251,187,66898,2,0,B|95:149|95:149|80:114,1,197.99999395752,2|0,0:0|0:0,0:0:0:0:
34,60,67206,6,0,P|22:50|6:49,2,25.6666658833822,6|0|0,0:0|0:0|0:0,0:0:0:0:
104,51,67411,5,0,0:0:0:0:
112,49,67480,5,0,0:0:0:0:
120,47,67548,5,0,0:0:0:0:
128,45,67617,5,10,0:0:0:0:
5,194,67822,5,8,0:0:0:0:
19,198,67891,5,8,0:0:0:0:
33,201,67959,5,8,0:0:0:0:
48,205,68028,6,0,L|100:217,2,43.9999986572266,2|0|0,0:0|0:0|0:0,0:0:0:0:
141,263,68233,6,0,L|168:256,1,21.9999993286133,8|0,0:0|0:0,0:0:0:0:
235,235,68336,2,0,L|262:228,1,21.9999993286133,8|0,0:0|0:0,0:0:0:0:
329,207,68439,5,0,0:0:0:0:
228,238,68644,6,0,L|247:313,1,66,4|0,0:0|0:0,0:0:0:0:
308,350,69055,6,0,P|361:352|370:287,1,115.49999647522,6|0,0:0|0:0,0:0:0:0:
429,247,69261,2,0,P|440:203|463:167,1,82.5,8|0,0:0|0:0,0:0:0:0:
413,111,69466,5,8,0:0:0:0:
408,104,69535,5,8,0:0:0:0:
402,98,69603,5,8,0:0:0:0:
395,94,69672,6,0,B|289:107|289:107|275:142,1,132,8|0,0:0|0:0,0:0:0:0:
162,177,69877,2,0,B|268:164|268:164|278:140,1,132,8|0,0:0|0:0,0:0:0:0:
311,36,70083,1,8,0:0:0:0:
94,242,70288,5,0,0:0:0:0:
89,258,70391,1,0,0:0:0:0:
84,275,70494,1,0,0:0:0:0:
33,332,70596,2,0,L|99:350,1,65.9999979858399
257,355,70802,5,0,0:0:0:0:
250,334,70905,1,0,0:0:0:0:
244,313,71008,1,0,0:0:0:0:
188,253,71110,2,0,L|254:235,1,65.9999979858399
386,276,71315,5,0,0:0:0:0:
441,332,71418,2,0,B|433:375|433:375|370:364|370:364|387:269,1,197.99999395752,4|0,0:0|0:0,0:0:0:0:
399,200,71726,1,2,0:0:0:0:
94,158,71932,5,0,0:0:0:0:
89,142,72035,1,0,0:0:0:0:
84,125,72138,1,0,0:0:0:0:
33,68,72240,2,0,L|99:50,1,65.9999979858399
257,45,72446,5,0,0:0:0:0:
250,66,72549,1,0,0:0:0:0:
244,87,72652,1,0,0:0:0:0:
188,147,72754,2,0,L|254:165,1,65.9999979858399
386,124,72959,5,0,0:0:0:0:
441,68,73062,2,0,B|433:24|433:24|370:35|370:35|387:130,1,197.99999395752,4|0,0:0|0:0,0:0:0:0:
399,200,73370,1,2,0:0:0:0:
399,200,73576,6,0,B|458:189,1,57.7499982376099,8|0,0:0|0:0,0:0:0:0:
402,206,73781,2,0,B|459:196,1,57.7499982376099,8|0,0:0|0:0,0:0:0:0:
469,193,73987,5,0,0:0:0:0:
348,268,74089,6,0,B|289:257,1,57.7499982376099,8|0,0:0|0:0,0:0:0:0:
345,274,74295,2,0,B|288:264,1,57.7499982376099,8|0,0:0|0:0,0:0:0:0:
278,263,74500,5,0,0:0:0:0:
225,195,74603,5,8,0:0:0:0:
219,196,74672,5,8,0:0:0:0:
214,197,74740,5,8,0:0:0:0:
208,198,74809,5,8,0:0:0:0:
203,199,74877,5,8,0:0:0:0:
197,200,74946,5,8,0:0:0:0:
192,201,75014,5,8,0:0:0:0:
143,255,75151,5,8,0:0:0:0:
81,221,75288,5,8,0:0:0:0:
20,184,75425,5,8,0:0:0:0:
14,180,75631,5,0,0:0:0:0:
2,149,75733,1,0,0:0:0:0:
19,107,75836,1,0,0:0:0:0:
68,89,75939,1,0,0:0:0:0:
123,115,76042,1,0,0:0:0:0:
141,175,76144,1,0,0:0:0:0:
200,213,76247,1,0,0:0:0:0:
269,203,76350,1,0,0:0:0:0:
309,150,76452,1,0,0:0:0:0:
304,79,76555,1,0,0:0:0:0:
256,29,76658,6,0,B|209:57|209:57|205:122|205:122|211:139|211:139|204:137|204:137|192:316,1,313.499991628647,6|0,0:0|0:0,0:0:0:0:
27,368,77069,2,0,B|33:345|33:345|121:321|121:321|133:367|176:375,1,197.99999395752,2|0,0:0|0:0,0:0:0:0:
192,304,77377,1,0,0:0:0:0:
263,286,77480,2,0,B|319:270|319:270|330:252|330:252|415:229,1,153.999995300293,14|0,0:0|0:0,0:0:0:0:
469,252,77754,5,0,0:0:0:0:
474,254,77822,5,0,0:0:0:0:
478,258,77891,5,2,0:0:0:0:
192,305,78096,6,0,B|163:197|78:140|-23:210|54:300|105:228,1,296.99999093628,4|0,0:0|0:0,0:0:0:0:
186,150,78507,2,0,P|221:114|209:64,1,98.9999969787599
10,43,78713,2,0,B|34:93|34:93|126:106,1,148.49999546814,2|0,0:0|0:0,0:0:0:0:
186,150,78918,5,8,0:0:0:0:
197,152,78987,5,8,0:0:0:0:
208,155,79055,5,8,0:0:0:0:
217,157,79124,6,0,B|272:167|272:167|311:253|311:253|414:268|414:268|432:229|471:227,1,330,8|0,0:0|0:0,0:0:0:0:
480,297,79535,5,10,0:0:0:0:
499,341,79637,1,8,0:0:0:0:
475,374,79740,1,8,0:0:0:0:
441,378,79843,1,8,0:0:0:0:
423,366,79946,6,0,B|386:269|386:269|373:256|373:256|373:213|373:213|361:204|361:204|303:52,1,313.499991628647,4|0,0:0|0:0,0:0:0:0:
474,114,80357,2,0,B|436:127|436:127|417:194|417:194|374:214,1,156.749995814324,2|0,0:0|0:0,0:0:0:0:
374,213,80562,2,0,B|318:232|318:232|283:209,1,88
161,351,80768,6,0,B|163:228|99:139|-6:172|-37:269|43:307|86:291,1,363.000011077881,10|0,0:0|0:0,0:0:0:0:
293,216,81178,2,0,P|281:272|233:284,1,98.9999969787599,2|0,0:0|0:0,0:0:0:0:
161,351,81384,2,0,B|178:185|178:185|186:195|186:195|179:178|179:178|182:146|182:146|223:121,1,264
245,57,81795,5,0,0:0:0:0:
295,17,81898,1,0,0:0:0:0:
357,26,82000,1,0,0:0:0:0:
385,61,82103,1,0,0:0:0:0:
389,102,82206,1,0,0:0:0:0:
375,131,82309,1,0,0:0:0:0:
346,158,82411,5,8,0:0:0:0:
312,194,82514,1,8,0:0:0:0:
314,260,82617,1,8,0:0:0:0:
368,299,82720,1,0,0:0:0:0:
436,270,82822,5,8,0:0:0:0:
432,258,82891,5,8,0:0:0:0:
426,247,82959,5,8,0:0:0:0:
417,238,83028,5,8,0:0:0:0:
407,231,83096,5,8,0:0:0:0:
395,227,83165,5,8,0:0:0:0:
383,226,83233,6,0,B|234:283|234:283|272:306,1,197.99999395752,6|0,0:0|0:0,0:0:0:0:
357,161,83541,2,0,B|207:215|207:215|218:179,1,197.99999395752
51,309,83850,2,0,P|83:354|125:338,1,98.9999969787599
119,345,84055,6,0,B|127:262|127:262|99:235,1,110,10|0,0:0|0:0,0:0:0:0:
65,127,84261,2,0,B|131:175|131:175|158:167,1,110
281,188,84466,2,0,B|204:219|204:219|196:245,1,110,2|0,0:0|0:0,0:0:0:0:
119,345,84672,6,0,B|146:374|146:374|216:362|216:362|215:372|215:372|221:362|221:362|353:339|353:339|368:371|404:377,1,330,4|0,0:0|0:0,0:0:0:0:
419,305,85083,5,0,0:0:0:0:
477,266,85185,1,0,0:0:0:0:
481,195,85288,1,2,0:0:0:0:
424,152,85391,1,0,0:0:0:0:
355,167,85494,5,8,0:0:0:0:
352,172,85562,5,8,0:0:0:0:
349,177,85631,5,8,0:0:0:0:
346,182,85699,5,10,0:0:0:0:
293,229,85802,1,8,0:0:0:0:
224,211,85905,1,8,0:0:0:0:
206,143,86007,1,8,0:0:0:0:
236,79,86110,1,2,0:0:0:0:
295,41,86213,1,0,0:0:0:0:
364,48,86315,1,8,0:0:0:0:
426,80,86418,1,8,0:0:0:0:
458,141,86521,6,0,B|450:198|450:198|446:203|446:203|435:275|435:275|421:233|382:222,1,214.49999018097,14|0,0:0|0:0,0:0:0:0:
363,291,86932,2,0,P|333:300|306:333,1,71.4999967269899,8|0,0:0|0:0,0:0:0:0:
374,362,87137,2,0,B|252:336|252:336|230:346|230:346|126:325,1,247.500009441376,2|0,0:0|0:0,0:0:0:0:
82,271,87548,5,8,0:0:0:0:
79,266,87617,5,8,0:0:0:0:
76,261,87685,5,8,0:0:0:0:
73,256,87754,5,8,0:0:0:0:
374,362,87959,6,0,B|383:324|383:324|388:318|388:318|403:255,1,98.9999969787599,2|0,0:0|0:0,0:0:0:0:
442,203,88370,5,8,0:0:0:0:
445,193,88439,5,8,0:0:0:0:
450,184,88507,5,8,0:0:0:0:
458,177,88576,5,8,0:0:0:0:
505,116,88678,1,8,0:0:0:0:
471,46,88781,5,0,0:0:0:0:
393,44,88884,1,0,0:0:0:0:
355,111,88987,1,8,0:0:0:0:
340,115,89055,5,8,0:0:0:0:
325,120,89124,5,8,0:0:0:0:
310,125,89192,5,8,0:0:0:0:
263,183,89295,5,2,0:0:0:0:
192,171,89398,2,0,B|123:160|123:160|104:124,1,98.9999969787599
291,250,89603,2,0,B|315:315|315:315|294:349,1,98.9999969787599,4|0,0:0|0:0,0:0:0:0:
310,125,89809,6,0,P|401:119|354:198,1,220,14|8,0:0|0:0,0:0:0:0:
291,250,90083,5,8,0:0:0:0:
286,255,90151,5,8,0:0:0:0:
281,260,90220,5,12,0:0:0:0:
217,308,90322,2,0,B|175:251|108:271|108:271|76:318,1,165
80,314,90528,1,8,0:0:0:0:
281,260,90631,2,0,L|390:229,1,88,8|0,0:0|0:0,0:0:0:0:
52,178,90836,5,0,0:0:0:0:
22,149,90939,1,0,0:0:0:0:
31,95,91041,1,8,0:0:0:0:
90,61,91144,1,0,0:0:0:0:
154,92,91247,1,2,0:0:0:0:
171,156,91350,1,0,0:0:0:0:
140,222,91452,6,0,B|135:249|135:249|170:299|170:299|162:329,1,117.333333333333,12|0,0:0|0:0,0:0:0:0:
237,263,91658,5,8,0:0:0:0:
241,267,91726,5,8,0:0:0:0:
245,271,91795,5,8,0:0:0:0:
249,275,91863,6,0,B|273:288|273:288|331:270|331:270|357:287,1,117.333333333333,8|0,0:0|0:0,0:0:0:0:
317,195,92069,5,8,0:0:0:0:
323,192,92137,5,8,0:0:0:0:
328,190,92206,5,8,0:0:0:0:
333,187,92274,6,0,B|352:168|352:168|353:107|353:107|378:87,1,117.333333333333,10|0,0:0|0:0,0:0:0:0:
277,97,92480,5,8,0:0:0:0:
276,90,92548,5,8,0:0:0:0:
276,85,92617,5,8,0:0:0:0:
275,79,92685,6,0,B|263:54|263:54|205:34|205:34|194:5,1,117.333333333333,12|0,0:0|0:0,0:0:0:0:
172,104,92891,5,8,0:0:0:0:
165,103,92959,5,8,0:0:0:0:
160,101,93028,5,8,0:0:0:0:
154,100,93096,6,0,B|126:103|126:103|90:152|90:152|30:156|30:156|1:135,1,176,12|0,0:0|0:0,0:0:0:0:
51,83,93371,5,8,0:0:0:0:
53,78,93439,5,8,0:0:0:0:
56,74,93508,5,10,0:0:0:0:
170,182,93610,2,0,B|180:224|180:224|267:269|267:269|281:311,1,176
419,384,93918,5,10,0:0:0:0:
481,356,94021,1,0,0:0:0:0:
491,288,94124,1,0,0:0:0:0:
438,245,94226,1,0,0:0:0:0:
374,267,94329,6,0,P|388:246|419:233,2,58.6666666666667,12|0|0,0:0|0:0|0:0,0:0:0:0:
314,210,94535,2,0,P|279:185|271:142,1,88,4|0,0:0|0:0,0:0:0:0:
442,0,94740,5,8,0:0:0:0:
503,40,94843,2,0,B|484:67|484:67|388:82,1,110,2|0,0:0|0:0,0:0:0:0:
272,143,95048,5,0,0:0:0:0:
333,103,95151,2,0,B|314:76|314:76|218:61,1,110,10|0,0:0|0:0,0:0:0:0:
28,101,95357,5,0,0:0:0:0:
91,52,95459,2,0,B|105:108|105:108|76:171|76:171|98:266,1,220,2|0,0:0|0:0,0:0:0:0:
164,349,95768,2,0,B|173:312|173:312|210:289|210:289|228:226,1,142.99999345398,2|0,0:0|0:0,0:0:0:0:
310,38,95973,6,0,L|332:31,1,22,8|0,0:0|0:0,0:0:0:0:
333,103,96076,2,0,L|355:96,1,22,8|0,0:0|0:0,0:0:0:0:
356,167,96178,2,0,L|378:160,1,22,8|0,0:0|0:0,0:0:0:0:
379,232,96281,2,0,L|401:225,1,22,8|0,0:0|0:0,0:0:0:0:
402,297,96384,5,4,0:0:0:0:
404,305,96589,5,0,0:0:0:0:
406,313,96692,1,0,0:0:0:0:
408,321,96795,2,0,B|460:304|460:304|470:283,1,76.9999976501466,10|0,0:0|0:0,0:0:0:0:
339,364,97000,1,0,0:0:0:0:
337,372,97103,2,0,B|285:355|285:355|275:334,1,76.9999976501466,2|8,0:0|0:0,0:0:0:0:
247,266,97309,5,0,0:0:0:0:
242,256,97411,5,0,0:0:0:0:
221,222,97514,1,0,0:0:0:0:
178,202,97617,1,8,0:0:0:0:
110,221,97720,1,0,0:0:0:0:
78,287,97822,6,0,P|89:326|120:336,1,76.9999976501466,12|0,0:0|0:0,0:0:0:0:
296,202,98028,1,12,0:0:0:0:
304,195,98131,2,0,P|324:154|286:117,1,98.9999969787599
152,17,98336,1,0,0:0:0:0:
83,28,98439,1,10,0:0:0:0:
45,85,98541,1,0,0:0:0:0:
61,152,98644,5,0,0:0:0:0:
70,161,98747,2,0,B|111:153|111:153|117:146|117:146|168:137,1,98.9999969787599,8|0,0:0|0:0,0:0:0:0:
258,285,98952,1,0,0:0:0:0:
267,276,99055,2,0,B|308:283|308:283|314:291|314:291|365:300,1,98.9999969787599,8|0,0:0|0:0,0:0:0:0:
493,335,99261,5,8,0:0:0:0:
494,341,99329,5,8,0:0:0:0:
495,347,99398,5,8,0:0:0:0:
496,353,99466,5,8,0:0:0:0:
497,359,99535,5,8,0:0:0:0:
498,365,99603,5,8,0:0:0:0:
498,371,99672,6,0,P|450:373|427:328,1,98.9999969787599,12|0,0:0|0:0,0:0:0:0:
348,222,99877,5,0,0:0:0:0:
352,217,99946,5,0,0:0:0:0:
356,212,100014,5,0,0:0:0:0:
360,207,100083,6,0,B|433:195|433:195|461:213,1,98.9999969787599,8|0,0:0|0:0,0:0:0:0:
305,112,100288,5,0,0:0:0:0:
306,106,100357,5,0,0:0:0:0:
307,100,100425,5,0,0:0:0:0:
307,94,100494,6,0,P|259:92|236:137,1,98.9999969787599,8|0,0:0|0:0,0:0:0:0:
157,243,100699,5,0,0:0:0:0:
161,248,100768,5,0,0:0:0:0:
165,253,100836,5,0,0:0:0:0:
169,258,100905,6,0,B|238:269|238:269|275:248,1,98.9999969787599,8|0,0:0|0:0,0:0:0:0:
68,165,101110,5,0,0:0:0:0:
64,170,101178,5,0,0:0:0:0:
60,175,101246,5,0,0:0:0:0:
56,180,101315,5,12,0:0:0:0:
299,120,102480,5,0,0:0:0:0:
305,112,102548,2,0,L|300:56,1,49.4999984893799
308,50,102959,6,0,B|315:154|315:154|305:174|305:174|310:234,1,176,6|0,0:0|0:0,0:0:0:0:
250,331,103268,1,8,0:0:0:0:
181,314,103371,1,0,0:0:0:0:
112,298,103473,1,0,0:0:0:0:
180,323,103679,5,0,0:0:0:0:
111,307,103782,2,0,B|80:302|80:302|52:231|52:231|11:228,1,132,8|0,0:0|0:0,0:0:0:0:
0,296,103987,2,0,B|37:299|37:299|94:234|94:234|137:238,1,165,2|0,0:0|0:0,0:0:0:0:
147,239,104193,5,0,0:0:0:0:
237,137,104295,2,0,B|212:52|212:52|151:70|151:70|165:120,1,197.99999395752,2|0,0:0|0:0,0:0:0:0:
298,237,104603,6,0,B|370:218|370:218|390:232,1,98.9999969787599
452,312,104809,6,0,L|409:323,1,27.5,2|0,0:0|0:0,0:0:0:0:
198,378,105014,2,0,B|345:341|345:341|356:293,1,197.99999395752,6|0,0:0|0:0,0:0:0:0:
512,149,105322,1,0,0:0:0:0:
512,161,105425,6,0,B|497:174|497:174|405:163,1,98.9999969787599,10|0,0:0|0:0,0:0:0:0:
391,92,105631,2,0,B|378:77|378:77|387:-1,1,98.9999969787599,2|0,0:0|0:0,0:0:0:0:
343,152,105836,5,8,0:0:0:0:
269,138,105939,1,8,0:0:0:0:
196,124,106041,1,8,0:0:0:0:
122,110,106144,1,8,0:0:0:0:
48,96,106247,6,0,L|41:49,1,41.25
110,33,106452,6,0,L|124:127,1,76.9999976501466,4|0,0:0|0:0,0:0:0:0:
87,287,106658,1,0,0:0:0:0:
181,224,106761,2,0,B|130:229|130:229|110:213|110:213|34:220,1,153.999995300293
162,302,107069,6,0,B|253:293|253:293|276:318,1,115.49999647522,8|0,0:0|0:0,0:0:0:0:
277,321,107274,2,0,L|372:312,1,76.9999976501466,2|0,0:0|0:0,0:0:0:0:
472,339,107480,5,2,0:0:0:0:
484,272,107582,1,2,0:0:0:0:
497,204,107685,2,0,L|503:162,1,41.25,6|0,0:0|0:0,0:0:0:0:
456,103,107891,5,8,0:0:0:0:
445,101,107959,5,8,0:0:0:0:
435,104,108028,5,8,0:0:0:0:
427,110,108096,6,0,L|418:159,2,51.3333317667644
362,239,108302,5,8,0:0:0:0:
342,243,108370,5,8,0:0:0:0:
322,236,108439,5,8,0:0:0:0:
308,220,108507,6,0,L|299:170,2,51.3333317667644
245,45,108713,5,8,0:0:0:0:
217,30,108781,5,8,0:0:0:0:
187,39,108850,5,8,0:0:0:0:
172,66,108918,6,0,L|163:115,2,51.3333317667644
16,236,109124,6,0,B|32:277|32:277|132:288|132:288|154:271,1,165,4|0,0:0|0:0,0:0:0:0:
154,271,109329,6,8,L|168:200,2,58.6666666666667,12|8|8,0:0|0:0|0:0,0:0:0:0:
195,337,109535,6,0,B|241:342|241:342|251:354|251:354|402:371,1,197.99999395752,14|0,0:0|0:0,0:0:0:0:
478,295,109843,1,0,0:0:0:0:
463,226,109946,1,10,0:0:0:0:
449,158,110048,1,0,0:0:0:0:
470,225,110254,5,0,0:0:0:0:
457,156,110357,2,0,B|452:120|452:120|409:91|409:91|401:48,1,121.000003692627,14|0,0:0|0:0,0:0:0:0:
512,93,110562,2,0,L|333:123,1,181.500005538941,2|0,0:0|0:0,0:0:0:0:
323,126,110768,5,10,0:0:0:0:
276,70,110870,1,2,0:0:0:0:
207,94,110973,1,0,0:0:0:0:
199,166,111076,1,0,0:0:0:0:
257,208,111178,6,0,L|295:227,1,32.99999899292,10|0,0:0|0:0,0:0:0:0:
98,288,111384,5,6,0:0:0:0:
92,291,111452,5,8,0:0:0:0:
86,294,111521,5,8,0:0:0:0:
80,296,111589,5,14,0:0:0:0:
71,375,111692,2,0,B|157:338|157:338|167:311|167:311|250:275,1,197.99999395752
443,342,112000,2,0,B|395:355|395:355|348:298,1,98.9999969787599,10|0,0:0|0:0,0:0:0:0:
318,247,112206,5,2,0:0:0:0:
335,179,112309,1,0,0:0:0:0:
352,112,112411,5,8,0:0:0:0:
356,107,112480,5,8,0:0:0:0:
360,102,112548,5,8,0:0:0:0:
365,97,112617,5,8,0:0:0:0:
369,92,112685,5,8,0:0:0:0:
374,87,112754,5,8,0:0:0:0:
379,83,112822,6,0,L|440:73,2,43.9999986572266,14|0|0,0:0|0:0|0:0,0:0:0:0:
266,160,113028,6,0,P|233:117|186:122,1,98.9999969787599,14|0,0:0|0:0,0:0:0:0:
17,276,113233,1,14,0:0:0:0:
86,261,113336,1,0,0:0:0:0:
155,247,113439,1,14,0:0:0:0:
224,233,113541,5,0,0:0:0:0:
354,292,113644,2,0,B|387:303|387:303|392:310|392:310|394:302|394:302|399:309|399:309|435:321,1,88,14|0,0:0|0:0,0:0:0:0:
218,216,113850,1,14,0:0:0:0:
212,199,113952,1,0,0:0:0:0:
389,136,114055,5,14,0:0:0:0:
371,214,114158,1,0,0:0:0:0:
354,292,114261,2,0,L|345:336,2,36.6666666666667,14|0|0,0:0|0:0|0:0,0:0:0:0:
389,136,114466,5,8,0:0:0:0:
437,73,114569,2,0,B|473:41|473:41|514:58,1,88,10|0,0:0|0:0,0:0:0:0:
322,160,114774,5,8,0:0:0:0:
276,94,114877,2,0,B|256:49|256:49|285:16,1,88,4|0,0:0|0:0,0:0:0:0:
323,230,115082,5,8,0:0:0:0:
246,253,115185,2,0,B|198:257|198:257|174:219,1,88,4|0,0:0|0:0,0:0:0:0:
390,252,115391,5,8,0:0:0:0:
391,328,115494,6,0,L|385:372,2,43.9999986572266
433,195,115699,5,8,0:0:0:0:
431,186,115768,5,8,0:0:0:0:
429,177,115836,5,8,0:0:0:0:
427,168,115905,5,8,0:0:0:0:
425,159,115973,5,8,0:0:0:0:
423,150,116042,5,8,0:0:0:0:
421,142,116110,6,0,L|355:131,1,55,4|0,0:0|0:0,0:0:0:0:
423,136,116315,6,0,L|357:125,1,55
311,73,116521,2,0,B|266:83|266:83|253:102|253:102|192:116,1,123.750004720688,4|0,0:0|0:0,0:0:0:0:
191,116,116726,5,0,0:0:0:0:
110,247,116829,2,0,B|89:266|89:266|36:255,1,82.5000031471254,0|12,0:0|0:0,0:0:0:0:
22,183,117035,2,0,B|49:162|49:162|177:188,1,165.000006294251
320,252,117343,6,0,L|302:334,1,82.5,4|0,0:0|0:0,0:0:0:0:
302,332,117548,2,0,L|219:314,1,82.5
246,243,117754,2,0,L|263:162,1,82.5,4|0,0:0|0:0,0:0:0:0:
385,307,117959,5,8,0:0:0:0:
398,310,118027,5,8,0:0:0:0:
412,313,118095,5,8,0:0:0:0:
425,316,118164,5,2,0:0:0:0:
465,245,118268,2,0,B|470:217|470:217|431:165|431:165|440:127,1,123.750004720688,2|0,0:0|0:0,0:0:0:0:
507,133,118473,2,0,B|498:174|498:174|403:197|403:197|398:229,1,173.24999471283,2|0,0:0|0:0,0:0:0:0:
396,240,118678,5,2,0:0:0:0:
221,314,118781,2,0,B|226:345|226:345|289:334|289:334|277:267,1,148.49999546814,2|0,0:0|0:0,0:0:0:0:
267,211,118987,2,0,B|261:179|261:179|198:190|198:190|210:257,1,148.49999546814,2|0,0:0|0:0,0:0:0:0:
149,284,119192,5,2,0:0:0:0:
142,285,119261,5,8,0:0:0:0:
135,286,119329,5,8,0:0:0:0:
126,287,119398,6,0,L|54:297,1,65.9999979858399,14|0,0:0|0:0,0:0:0:0:
