osu file format v14

[General]
AudioFilename: audio.mp3
AudioLeadIn: 0
PreviewTime: 62015
Countdown: 1
SampleSet: Normal
StackLeniency: 0.4
Mode: 0
LetterboxInBreaks: 0
WidescreenStoryboard: 0

[Editor]
Bookmarks: 12467,24854,37241,48080,57563,62015
DistanceSpacing: 1
BeatDivisor: 4
GridSize: 16
TimelineZoom: 2.1

[Metadata]
Title:Vanquish The Ghost
TitleUnicode:Vanquish The Ghost
Artist:BEMANI Sound Team "TAG"
ArtistUnicode:BEMANI Sound Team "TAG"
Creator:Geminous
Version:Exorcism
Source:DanceDanceRevolution A
Tags:ddr ace a bemani tag
BeatmapID:1990427
BeatmapSetID:953294

[Difficulty]
HPDrainRate:4
CircleSize:4
OverallDifficulty:8.5
ApproachRate:9.8
SliderMultiplier:2
SliderTickRate:1

[Events]
//Background and Video events
0,0,"5a1903976313f8dac409d9103e8960e4.jpg",0,0
//Break Periods
//Storyboard Layer 0 (Background)
//Storyboard Layer 1 (Fail)
//Storyboard Layer 2 (Pass)
//Storyboard Layer 3 (Foreground)
//Storyboard Sound Samples

[TimingPoints]
80,387.096774193548,4,1,0,50,1,0
5886,-400,4,1,0,50,0,0
6273,-90.9090909090909,4,1,0,50,0,0
7047,-83.3333333333333,4,1,0,50,0,0
7821,-76.9230769230769,4,1,0,50,0,0
8596,-71.4285714285714,4,1,0,50,0,0
9370,-66.6666666666667,4,1,0,50,0,0
10918,-100,4,1,0,50,0,0
12467,-200,4,1,0,25,0,0
23112,-133.333333333333,4,1,0,25,0,0
24854,-100,4,1,0,50,0,0
31047,-83.3333333333333,4,1,0,50,0,0
32596,-74.0740740740741,4,1,0,50,0,0
34144,-66.6666666666667,4,1,0,50,0,0
35692,-100,4,1,0,50,0,0
37241,-57.1428571428571,4,1,0,50,0,0
40338,-40,4,1,0,50,0,0
40531,-57.1428571428571,4,1,0,50,0,0
41886,-133.333333333333,4,1,0,50,0,0
43434,-57.1428571428571,4,1,0,50,0,0
46531,-40,4,1,0,50,0,0
46725,-57.1428571428571,4,1,0,50,0,0
48079,-200,4,1,0,50,0,0
49628,-57.1428571428571,4,1,0,50,0,0
51176,-100,4,1,0,50,0,0
52725,-57.1428571428571,4,1,0,50,0,0
54273,-100,4,1,0,50,0,0
55821,-57.1428571428571,4,1,0,50,0,0
58918,-40,4,1,0,50,0,0
59112,-57.1428571428571,4,1,0,50,0,0
60467,-133.333333333333,4,1,0,50,0,0
62015,-57.1428571428571,4,1,0,50,0,1
72854,-50,4,1,0,50,0,1
74402,-100,4,1,0,50,0,0
85241,-80,4,1,0,50,0,0
86789,-57.1428571428571,4,1,0,50,0,1
89886,-40,4,1,0,50,0,1
90079,-57.1428571428571,4,1,0,50,0,1
92983,-50,4,1,0,50,0,1
96079,-40,4,1,0,50,0,1
97628,-66.6666666666667,4,1,0,50,0,0

[HitObjects]
60,48,80,6,0,P|109:28|154:48,1,100
292,89,467,2,0,P|243:109|198:89,1,100
370,42,854,2,0,P|384:91|370:136,1,100
310,182,1144,1,0,0:0:0:0:
310,182,1241,1,0,0:0:0:0:
242,3,1434,1,0,0:0:0:0:
192,240,1628,6,0,P|144:253|96:240,1,100
42,187,1918,1,0,0:0:0:0:
42,187,2015,1,0,0:0:0:0:
145,51,2209,1,0,0:0:0:0:
192,240,2402,2,0,P|240:227|288:240,1,100
403,195,2789,2,0,P|379:201|354:195,1,50
243,77,2983,1,0,0:0:0:0:
314,53,3080,1,0,0:0:0:0:
384,29,3176,6,0,P|395:77|384:125,1,100
354,291,3563,2,0,P|343:243|354:195,1,100
402,368,3950,2,0,P|354:379|306:368,1,100
262,304,4241,1,0,0:0:0:0:
262,304,4338,1,0,0:0:0:0:
471,245,4531,1,0,0:0:0:0:
243,173,4725,6,0,P|254:125|243:77,1,100
194,18,5015,1,0,0:0:0:0:
194,18,5112,1,0,0:0:0:0:
339,124,5305,1,0,0:0:0:0:
108,179,5499,1,0,0:0:0:0:
359,118,5692,1,0,0:0:0:0:
108,179,5886,2,0,L|99:223,1,37.5
96,235,6273,6,0,P|125:227|157:227,1,55.0000016784669
283,256,6467,1,0,0:0:0:0:
94,117,6660,2,0,P|130:126|165:146,1,55.0000016784669
283,256,6854,1,0,0:0:0:0:
439,145,7047,2,0,P|403:155|363:155,1,59.9999981689454
205,119,7241,1,0,0:0:0:0:
441,292,7434,2,0,P|396:280|352:255,1,59.9999981689454
205,119,7628,1,0,0:0:0:0:
160,272,7821,6,0,B|128:288|128:288|96:288,1,64.9999970245363
352,112,8015,2,0,B|384:96|384:96|416:96,1,64.9999970245363
132,213,8209,2,0,B|97:211|97:211|69:195,1,64.9999970245363
379,170,8403,2,0,B|414:172|414:172|442:188,1,64.9999970245363
172,91,8596,6,0,B|155:58|155:58|155:25,1,69.9999978637696
339,292,8790,2,0,B|356:325|356:325|356:358,1,69.9999978637696
233,63,8984,2,0,B|236:26|236:26|252:-2,1,69.9999978637696
278,320,9178,2,0,B|275:357|275:357|259:386,1,69.9999978637696
300,69,9370,5,0,0:0:0:0:
366,100,9466,1,0,0:0:0:0:
388,170,9563,1,0,0:0:0:0:
351,233,9660,1,0,0:0:0:0:
280,248,9757,1,0,0:0:0:0:
274,174,9853,1,0,0:0:0:0:
322,120,9950,1,0,0:0:0:0:
396,121,10047,1,0,0:0:0:0:
445,175,10144,5,0,0:0:0:0:
451,249,10240,1,0,0:0:0:0:
402,302,10337,1,0,0:0:0:0:
329,302,10434,1,0,0:0:0:0:
280,248,10531,2,0,L|256:210,1,37.5000014305115
212,280,10628,2,0,L|188:242,1,37.5000014305115
144,312,10725,2,0,L|120:273,1,37.5000014305115
76,344,10821,2,0,L|51:305,1,37.5000014305115
8,376,10918,5,0,0:0:0:0:
280,248,11112,1,0,0:0:0:0:
298,201,11209,1,0,0:0:0:0:
316,154,11305,2,0,P|364:143|412:154,1,100
504,224,11692,1,0,0:0:0:0:
375,13,11886,1,0,0:0:0:0:
480,290,12079,1,0,0:0:0:0:
504,224,12467,5,0,0:0:0:0:
504,224,12757,1,0,0:0:0:0:
434,196,13047,1,0,0:0:0:0:
434,196,13338,1,0,0:0:0:0:
364,168,13628,1,0,0:0:0:0:
364,168,14789,2,0,L|364:117,2,50
364,218,15370,1,0,0:0:0:0:
364,267,15563,5,0,0:0:0:0:
364,267,15854,1,0,0:0:0:0:
293,292,16144,1,0,0:0:0:0:
293,292,16434,1,0,0:0:0:0:
222,267,16725,1,0,0:0:0:0:
222,267,17886,2,0,L|222:322,2,50
222,216,18467,1,0,0:0:0:0:
222,166,18660,5,0,0:0:0:0:
222,166,18950,1,0,0:0:0:0:
288,130,19241,1,0,0:0:0:0:
288,130,19531,1,0,0:0:0:0:
354,166,19821,1,0,0:0:0:0:
354,166,20983,2,0,L|405:166,2,50
304,167,21563,1,0,0:0:0:0:
253,168,21757,5,0,0:0:0:0:
253,168,22047,1,0,0:0:0:0:
190,209,22338,1,0,0:0:0:0:
190,209,22628,1,0,0:0:0:0:
127,250,22918,1,0,0:0:0:0:
127,250,23112,6,0,L|127:292,3,37.5000014305115
84,137,23596,1,0,0:0:0:0:
194,173,23789,1,0,0:0:0:0:
160,32,23983,2,0,P|219:21|272:32,1,112.500004291535
344,165,24467,2,0,P|328:126|328:85,1,75.0000028610231
393,229,24854,6,0,P|345:245|297:229,1,100
264,164,25144,1,0,0:0:0:0:
264,164,25241,2,0,L|216:148,1,50
152,17,25434,2,0,P|136:65|152:113,1,100
216,148,25725,2,0,L|216:202,1,50
144,307,25918,1,0,0:0:0:0:
144,307,26015,2,0,B|192:323|192:323|240:307|240:307|352:307,2,200
338,307,27176,5,0,0:0:0:0:
193,232,27370,1,0,0:0:0:0:
431,169,27563,1,0,0:0:0:0:
193,232,27757,1,0,0:0:0:0:
240,290,27854,1,0,0:0:0:0:
287,347,27950,6,0,P|335:359|383:347,1,100
440,297,28241,1,0,0:0:0:0:
440,297,28338,2,0,L|440:245,1,50
479,97,28531,2,0,P|431:85|383:97,1,100
323,142,28821,2,0,L|271:142,1,50
163,57,29015,1,0,0:0:0:0:
163,57,29112,2,0,B|147:105|147:105|179:201|179:201|163:249,2,200
163,246,30273,5,0,0:0:0:0:
242,104,30467,1,0,0:0:0:0:
41,202,30660,1,0,0:0:0:0:
242,104,30854,1,0,0:0:0:0:
283,165,30950,1,0,0:0:0:0:
324,226,31047,6,0,B|296:242|296:242|260:242,1,59.9999981689454
188,158,31241,2,0,B|216:142|216:142|252:142,1,59.9999981689454
308,271,31434,2,0,B|278:271|278:271|248:254,1,59.9999981689454
203,112,31628,2,0,B|233:112|233:112|263:129,1,59.9999981689454
262,305,31821,6,0,B|231:287|231:287|211:252,1,59.9999981689454
249,78,32015,2,0,B|280:96|280:96|300:131,1,59.9999981689454
192,319,32208,2,0,B|175:289|175:289|175:251,1,59.9999981689454
319,64,32402,2,0,B|336:94|336:94|336:132,1,59.9999981689454
78,202,32596,6,0,B|94:175|94:175|125:157,1,67.5000002574921
433,181,32790,2,0,B|417:208|417:208|386:226,1,67.5000002574921
78,251,32983,2,0,B|87:219|87:219|112:194,1,67.5000002574921
433,132,33177,2,0,B|424:164|424:164|399:189,1,67.5000002574921
92,299,33370,6,0,B|92:268|92:268|110:237,1,67.5000002574921
419,84,33563,2,0,B|419:115|419:115|401:146,1,67.5000002574921
120,345,33757,2,0,B|112:314|112:314|121:280,1,67.5000002574921
391,38,33950,1,0,0:0:0:0:
391,38,34047,1,0,0:0:0:0:
391,38,34144,5,0,0:0:0:0:
455,74,34240,1,0,0:0:0:0:
470,145,34337,1,0,0:0:0:0:
427,204,34434,1,0,0:0:0:0:
354,210,34531,1,0,0:0:0:0:
281,216,34628,1,0,0:0:0:0:
238,275,34725,1,0,0:0:0:0:
253,346,34822,1,0,0:0:0:0:
317,382,34918,5,0,0:0:0:0:
311,309,35015,1,0,0:0:0:0:
252,266,35112,1,0,0:0:0:0:
181,281,35209,1,0,0:0:0:0:
145,345,35305,2,0,L|107:332,1,37.5000014305115
123,273,35402,2,0,L|85:260,1,37.5000014305115
101,200,35499,2,0,L|63:187,1,37.5000014305115
79,127,35596,2,0,L|41:114,1,37.5000014305115
57,54,35692,6,0,P|112:22|132:121,3,200
79,106,37241,6,0,B|121:84|121:84|174:84,1,87.500000834465
330,13,37434,1,0,0:0:0:0:
295,93,37531,1,0,0:0:0:0:
305,180,37628,2,0,B|314:224|314:224|306:266,1,87.500000834465
132,330,37821,2,0,B|123:286|123:286|131:244,1,87.500000834465
295,93,38015,1,0,0:0:0:0:
372,126,38111,1,0,0:0:0:0:
386,208,38208,1,0,0:0:0:0:
324,265,38305,1,0,0:0:0:0:
243,244,38402,2,0,B|199:235|199:235|157:243,1,87.500000834465
11,104,38596,2,0,B|55:113|55:113|97:105,1,87.500000834465
251,24,38789,6,0,B|295:15|295:15|337:23,1,87.500000834465
438,182,38983,1,0,0:0:0:0:
411,265,39079,1,0,0:0:0:0:
324,265,39176,1,0,0:0:0:0:
297,182,39273,1,0,0:0:0:0:
368,130,39370,2,0,B|412:121|412:121|454:129,1,87.500000834465
324,265,39563,1,0,0:0:0:0:
297,182,39659,1,0,0:0:0:0:
210,182,39756,1,0,0:0:0:0:
183,265,39853,1,0,0:0:0:0:
254,317,39950,2,0,P|312:204|437:212,1,262.500002503395
362,287,40338,6,0,B|316:229|349:161,1,125
431,12,40531,1,0,0:0:0:0:
343,3,40628,1,0,0:0:0:0:
267,48,40725,2,0,B|257:91|257:91|267:133,1,87.500000834465
362,287,40918,2,0,B|372:244|372:244|362:202,1,87.500000834465
161,97,41112,1,0,0:0:0:0:
75,78,41209,1,0,0:0:0:0:
31,154,41305,1,0,0:0:0:0:
90,219,41402,1,0,0:0:0:0:
170,184,41499,2,0,B|213:174|213:174|255:184,1,87.500000834465
322,12,41692,2,0,B|332:55|332:55|322:97,1,87.500000834465
212,253,41886,6,0,B|202:290|202:290|212:338,2,75.0000028610231
170,184,42467,1,0,0:0:0:0:
304,288,42660,2,0,P|361:302|416:288,1,112.500004291535
473,309,43047,2,0,P|459:252|473:197,1,112.500004291535
496,150,43434,6,0,B|512:108|512:108|512:54,1,87.500000834465
322,122,43628,1,0,0:0:0:0:
289,203,43725,1,0,0:0:0:0:
304,288,43821,2,0,B|346:304|346:304|400:304,1,87.500000834465
240,136,44015,2,0,B|198:152|198:152|144:152,1,87.500000834465
70,298,44209,1,0,0:0:0:0:
148,335,44305,1,0,0:0:0:0:
229,301,44402,1,0,0:0:0:0:
307,338,44498,1,0,0:0:0:0:
388,304,44596,2,0,B|397:260|397:260|388:208,1,87.500000834465
241,50,44789,2,0,B|232:94|232:94|241:146,1,87.500000834465
431,97,44983,6,0,B|387:88|387:88|335:97,1,87.500000834465
160,100,45176,1,0,0:0:0:0:
100,165,45273,1,0,0:0:0:0:
144,240,45370,1,0,0:0:0:0:
230,222,45467,1,0,0:0:0:0:
239,135,45563,2,0,B|232:94|232:94|241:50,1,87.500000834465
385,229,45757,1,0,0:0:0:0:
445,294,45854,1,0,0:0:0:0:
401,369,45951,1,0,0:0:0:0:
315,351,46048,1,0,0:0:0:0:
305,264,46144,2,0,P|208:207|153:316,1,262.500002503395
227,285,46531,6,0,B|243:237|243:237|243:157,1,125
143,27,46725,1,0,0:0:0:0:
229,17,46821,1,0,0:0:0:0:
315,7,46918,2,0,B|359:16|359:16|401:7,1,87.500000834465
243,162,47112,2,0,B|199:153|199:153|157:162,1,87.500000834465
230,344,47305,1,0,0:0:0:0:
313,334,47401,1,0,0:0:0:0:
357,262,47498,1,0,0:0:0:0:
325,184,47595,1,0,0:0:0:0:
243,162,47692,2,0,B|199:153|199:153|157:162,1,87.500000834465
230,344,47886,2,0,B|274:353|274:353|316:344,1,87.500000834465
127,283,48079,5,0,0:0:0:0:
127,283,48176,1,0,0:0:0:0:
157,161,48370,1,0,0:0:0:0:
157,161,48467,1,0,0:0:0:0:
230,344,48660,1,0,0:0:0:0:
230,344,48757,1,0,0:0:0:0:
260,222,48950,1,0,0:0:0:0:
260,222,49047,1,0,0:0:0:0:
230,344,49241,2,0,P|262:360|310:360,1,75
368,336,49628,6,0,B|355:294|355:294|368:253,1,87.500000834465
478,66,49821,1,0,0:0:0:0:
392,47,49918,1,0,0:0:0:0:
327,106,50015,2,0,B|340:148|340:148|327:189,1,87.500000834465
230,344,50209,2,0,B|217:302|217:302|230:261,1,87.500000834465
327,106,50402,1,0,0:0:0:0:
411,133,50499,1,0,0:0:0:0:
411,220,50596,1,0,0:0:0:0:
327,247,50692,1,0,0:0:0:0:
276,176,50789,2,0,B|263:134|263:134|276:93,1,87.500000834465
390,295,50983,2,0,B|403:337|403:337|390:378,1,87.500000834465
389,378,51370,5,0,0:0:0:0:
411,220,51563,2,0,L|362:220,1,50
226,176,51757,1,0,0:0:0:0:
226,176,51854,2,0,L|275:176,1,50
230,344,52047,2,0,L|181:344,1,50
226,176,52241,1,0,0:0:0:0:
226,176,52338,1,0,0:0:0:0:
411,220,52531,1,0,0:0:0:0:
230,344,52725,6,0,B|184:356|184:356|142:344,1,87.500000834465
75,181,52918,1,0,0:0:0:0:
150,136,53014,1,0,0:0:0:0:
226,176,53112,2,0,B|272:188|272:188|314:176,1,87.500000834465
428,22,53305,2,0,B|382:10|382:10|340:22,1,87.500000834465
150,136,53499,1,0,0:0:0:0:
226,176,53596,1,0,0:0:0:0:
302,136,53692,1,0,0:0:0:0:
378,176,53789,1,0,0:0:0:0:
454,136,53886,2,0,B|466:90|466:90|454:48,1,87.500000834465
226,176,54079,2,0,B|214:222|214:222|226:264,1,87.500000834465
378,176,54273,6,0,P|392:130|378:82,2,100
224,260,54854,1,0,0:0:0:0:
377,81,55047,2,0,P|308:101|236:81,1,150
179,40,55434,2,0,P|199:109|179:181,1,150
133,242,55821,6,0,B|179:254|179:254|221:242,1,87.500000834465
377,81,56015,1,0,0:0:0:0:
291,100,56112,1,0,0:0:0:0:
205,119,56209,2,0,B|159:131|159:131|117:119,1,87.500000834465
377,81,56402,2,0,B|423:69|423:69|465:81,1,87.500000834465
350,249,56596,1,0,0:0:0:0:
378,332,56692,1,0,0:0:0:0:
465,332,56789,1,0,0:0:0:0:
492,249,56886,1,0,0:0:0:0:
421,197,56983,2,0,B|375:185|375:185|333:197,1,87.500000834465
204,242,57176,2,0,B|158:254|158:254|116:242,1,87.500000834465
172,59,57370,6,0,B|184:105|184:105|172:147,1,87.500000834465
104,278,57563,1,0,0:0:0:0:
131,362,57660,1,0,0:0:0:0:
218,362,57757,1,0,0:0:0:0:
245,278,57854,1,0,0:0:0:0:
174,227,57950,2,0,B|162:181|162:181|174:139,1,87.500000834465
305,26,58144,1,0,0:0:0:0:
389,58,58241,1,0,0:0:0:0:
389,140,58338,1,0,0:0:0:0:
305,167,58435,1,0,0:0:0:0:
254,96,58531,2,0,P|157:91|240:167,1,262.500002503395
305,167,58918,6,0,B|305:231|305:231|273:295,1,125
104,187,59112,1,0,0:0:0:0:
179,141,59209,1,0,0:0:0:0:
254,96,59305,2,0,B|301:87|301:87|350:96,1,87.500000834465
277,285,59499,2,0,B|230:294|230:294|181:285,1,87.500000834465
339,94,59692,1,0,0:0:0:0:
409,140,59788,1,0,0:0:0:0:
419,225,59885,1,0,0:0:0:0:
362,287,59982,1,0,0:0:0:0:
277,285,60079,2,0,B|230:276|230:276|181:285,1,87.500000834465
0,244,60273,2,0,B|47:235|47:235|96:244,1,87.500000834465
277,285,60467,5,0,0:0:0:0:
277,285,60757,1,0,0:0:0:0:
362,287,61047,1,0,0:0:0:0:
362,287,61338,1,0,0:0:0:0:
419,225,61628,1,0,0:0:0:0:
339,94,61821,1,0,0:0:0:0:
362,287,62015,6,0,B|317:297|317:297|274:287,1,87.500000834465
141,240,62209,1,0,0:0:0:0:
75,297,62305,2,0,B|55:207|55:207|75:121,1,175.00000166893
38,21,62596,2,0,B|83:31|83:31|126:21,1,87.500000834465
262,136,62789,1,0,0:0:0:0:
339,94,62886,2,0,B|384:84|384:84|427:94,1,87.500000834465
382,241,63079,1,0,0:0:0:0:
428,315,63176,6,0,P|348:347|268:315,1,175.00000166893
193,269,63467,1,0,0:0:0:0:
110,295,63563,2,0,P|78:215|110:135,1,175.00000166893
187,94,63854,1,0,0:0:0:0:
271,111,63950,2,0,P|359:130|440:111,1,175.00000166893
507,53,64241,1,0,0:0:0:0:
507,53,64338,2,0,L|507:150,1,87.500000834465
406,340,64531,2,0,L|406:243,1,87.500000834465
305,53,64725,2,0,L|305:150,1,87.500000834465
204,340,64918,2,0,L|204:243,1,87.500000834465
103,140,65112,6,0,P|183:108|263:140,1,175.00000166893
342,172,65402,1,0,0:0:0:0:
424,143,65499,2,0,P|440:183|424:223,1,87.500000834465
213,43,65692,2,0,P|181:123|213:203,1,175.00000166893
244,284,65983,1,0,0:0:0:0:
205,361,66079,2,0,P|245:377|285:361,1,87.500000834465
424,222,66273,6,0,B|344:222|344:222|312:206|312:206|248:206,1,175.00000166893
165,206,66563,1,0,0:0:0:0:
77,206,66660,2,0,P|45:126|77:46,1,175.00000166893
151,92,66950,1,0,0:0:0:0:
226,47,67047,2,0,P|306:79|386:47,1,175.00000166893
473,48,67338,1,0,0:0:0:0:
473,48,67434,2,0,B|489:112|489:112|473:144,1,87.500000834465
430,325,67628,2,0,B|414:261|414:261|430:229,1,87.500000834465
384,48,67821,2,0,B|400:112|400:112|384:144,1,87.500000834465
341,325,68015,2,0,B|325:261|325:261|341:229,1,87.500000834465
295,48,68209,6,0,P|208:32|123:48,1,175.00000166893
0,254,68499,1,0,0:0:0:0:
81,220,68596,2,0,B|127:220|127:220|166:237,1,87.500000834465
241,344,68789,2,0,P|289:264|289:184,1,175.00000166893
130,65,69079,1,0,0:0:0:0:
211,31,69176,2,0,B|257:31|257:31|296:48,1,87.500000834465
419,32,69370,6,0,B|419:112|419:112|403:144|403:144|403:208,1,175.00000166893
403,290,69660,1,0,0:0:0:0:
323,253,69757,2,0,P|236:236|152:253,1,175.00000166893
79,301,70047,1,0,0:0:0:0:
160,332,70144,2,0,B|192:284|192:284|192:156,1,175.00000166893
193,79,70434,1,0,0:0:0:0:
193,79,70531,2,0,P|240:70|280:79,1,87.500000834465
488,202,70725,2,0,P|441:211|401:202,1,87.500000834465
172,143,70918,2,0,P|208:112|247:100,1,87.500000834465
508,137,71112,2,0,P|472:168|433:180,1,87.500000834465
185,208,71305,6,0,B|185:64|185:64|201:32,1,175.00000166893
279,0,71596,1,0,0:0:0:0:
350,49,71692,2,0,B|398:49|398:49|442:22,1,87.500000834465
508,137,71886,2,0,P|476:217|508:297,1,175.00000166893
439,352,72176,1,0,0:0:0:0:
397,274,72273,2,0,P|357:258|317:274,1,87.500000834465
160,352,72467,6,0,B|128:304|128:304|128:176,1,175.00000166893
128,98,72757,1,0,0:0:0:0:
128,98,72854,2,0,P|255:43|306:168,1,300
307,163,73241,2,0,P|180:218|129:93,1,300
128,98,73628,2,0,B|308:163|308:163|308:274,1,300
308,361,74015,1,0,0:0:0:0:
128,98,74402,5,0,0:0:0:0:
128,98,74983,1,0,0:0:0:0:
200,81,75079,1,0,0:0:0:0:
273,64,75176,1,0,0:0:0:0:
273,64,76144,6,0,L|273:104,2,33.3333333333333
273,132,76338,1,0,0:0:0:0:
317,191,76434,1,0,0:0:0:0:
362,251,76531,1,0,0:0:0:0:
407,311,76628,1,0,0:0:0:0:
331,311,76725,2,0,B|240:191|240:191|182:191,1,200
102,69,77305,1,0,0:0:0:0:
102,69,77402,1,0,0:0:0:0:
102,69,77499,5,0,0:0:0:0:
102,69,78079,1,0,0:0:0:0:
174,52,78175,1,0,0:0:0:0:
247,35,78272,1,0,0:0:0:0:
247,35,79241,6,0,L|287:35,2,33.3333333333333
315,35,79435,1,0,0:0:0:0:
290,105,79531,1,0,0:0:0:0:
265,176,79628,1,0,0:0:0:0:
240,247,79725,1,0,0:0:0:0:
190,191,79821,2,0,P|109:139|32:190,1,200
111,224,80305,1,0,0:0:0:0:
157,269,80401,1,0,0:0:0:0:
222,269,80498,1,0,0:0:0:0:
269,224,80595,5,0,0:0:0:0:
269,224,81176,1,0,0:0:0:0:
338,194,81273,1,0,0:0:0:0:
407,165,81370,1,0,0:0:0:0:
407,165,82338,6,0,L|407:205,2,33.3333333333333
407,233,82531,1,0,0:0:0:0:
340,264,82627,1,0,0:0:0:0:
267,250,82724,1,0,0:0:0:0:
200,218,82821,1,0,0:0:0:0:
127,232,82918,2,0,P|181:298|272:236,1,200
219,112,83499,1,0,0:0:0:0:
219,112,83596,1,0,0:0:0:0:
219,112,83692,5,0,0:0:0:0:
219,112,84273,1,0,0:0:0:0:
291,91,84370,1,0,0:0:0:0:
363,70,84467,1,0,0:0:0:0:
363,70,85241,2,0,P|419:138|372:217,1,187.5
375,215,85628,2,0,P|319:283|366:362,1,187.5
400,289,86015,2,0,L|201:291,1,187.5
139,320,86402,2,0,P|174:230|158:143,1,187.5
99,80,86789,6,0,B|141:64|141:64|195:64,1,87.500000834465
380,12,86983,1,0,0:0:0:0:
345,91,87079,1,0,0:0:0:0:
375,173,87176,2,0,B|391:215|391:215|391:269,1,87.500000834465
199,148,87370,2,0,B|183:106|183:106|183:52,1,87.500000834465
375,173,87563,1,0,0:0:0:0:
414,250,87660,1,0,0:0:0:0:
353,312,87757,1,0,0:0:0:0:
274,273,87853,1,0,0:0:0:0:
288,187,87950,2,0,B|330:171|330:171|384:171,1,87.500000834465
512,54,88144,2,0,B|470:70|470:70|416:70,1,87.500000834465
217,0,88338,6,0,B|233:42|233:42|233:96,1,87.500000834465
32,219,88531,1,0,0:0:0:0:
111,258,88628,1,0,0:0:0:0:
195,234,88725,1,0,0:0:0:0:
274,273,88822,1,0,0:0:0:0:
358,249,88918,2,0,B|374:207|374:207|374:153,1,87.500000834465
111,258,89112,1,0,0:0:0:0:
190,297,89209,1,0,0:0:0:0:
274,273,89306,1,0,0:0:0:0:
353,312,89403,1,0,0:0:0:0:
437,288,89499,2,0,P|429:200|281:205,1,262.500002503395
358,249,89886,6,0,L|358:124,1,125
115,100,90079,1,0,0:0:0:0:
55,164,90176,1,0,0:0:0:0:
99,240,90273,2,0,B|142:249|142:249|184:240,1,87.500000834465
443,123,90467,2,0,B|400:114|400:114|358:123,1,87.500000834465
115,100,90660,1,0,0:0:0:0:
55,164,90757,1,0,0:0:0:0:
99,240,90854,1,0,0:0:0:0:
185,221,90950,1,0,0:0:0:0:
193,134,91047,2,0,B|184:91|184:91|193:49,1,87.500000834465
319,250,91241,2,0,B|328:293|328:293|319:335,1,87.500000834465
274,88,91434,6,0,B|317:79|317:79|359:88,1,87.500000834465
319,250,91628,1,0,0:0:0:0:
245,295,91724,1,0,0:0:0:0:
158,300,91821,1,0,0:0:0:0:
80,263,91918,1,0,0:0:0:0:
28,194,92015,2,0,B|71:178|71:178|124:178,1,87.500000834465
319,106,92209,1,0,0:0:0:0:
245,61,92305,1,0,0:0:0:0:
158,56,92402,1,0,0:0:0:0:
80,93,92499,1,0,0:0:0:0:
28,162,92596,2,0,P|151:139|115:13,1,262.500002503395
80,93,92983,6,0,L|80:200,1,100
249,291,93176,1,0,0:0:0:0:
290,199,93273,1,0,0:0:0:0:
249,107,93370,2,0,B|201:91|201:91|121:91,1,100
249,291,93563,2,0,B|297:307|297:307|377:307,1,100
249,107,93757,1,0,0:0:0:0:
153,114,93853,1,0,0:0:0:0:
107,198,93950,1,0,0:0:0:0:
153,283,94047,1,0,0:0:0:0:
248,291,94144,2,0,B|302:291|302:291|360:275,1,100
426,54,94338,2,0,B|372:54|372:54|314:70,1,100
240,302,94531,6,0,B|294:302|294:302|352:286,1,100
327,66,94725,1,0,0:0:0:0:
233,34,94821,1,0,0:0:0:0:
165,107,94918,1,0,0:0:0:0:
70,75,95014,1,0,0:0:0:0:
2,148,95112,2,0,B|2:203|2:203|18:260,1,100
213,382,95305,1,0,0:0:0:0:
309,351,95402,1,0,0:0:0:0:
309,251,95499,1,0,0:0:0:0:
213,220,95596,1,0,0:0:0:0:
155,301,95692,2,0,B|213:381|213:381|309:351|309:351|309:242,1,300
213,220,96079,6,0,P|152:204|94:220,1,125
115,39,96273,1,0,0:0:0:0:
132,36,96369,1,0,0:0:0:0:
148,33,96467,1,0,0:0:0:0:
173,121,96563,1,0,0:0:0:0:
249,173,96660,1,0,0:0:0:0:
341,166,96757,1,0,0:0:0:0:
407,102,96854,5,0,0:0:0:0:
317,80,96951,1,0,0:0:0:0:
234,120,97048,1,0,0:0:0:0:
195,202,97145,1,0,0:0:0:0:
219,293,97241,2,0,P|219:257|205:224,1,62.5
285,231,97338,2,0,P|253:213|218:208,1,62.5
273,142,97434,2,0,P|240:157|216:183,1,62.5
194,100,97531,2,0,P|187:135|195:170,1,62.5
113,141,97628,6,0,P|116:240|220:293,1,225.000008583069
218,293,98209,2,0,B|298:293|298:293|346:309|346:309|458:309,1,225.000008583069
440,309,98789,1,0,0:0:0:0:
411,84,98983,1,0,0:0:0:0:
218,293,99176,1,0,0:0:0:0:
