osu file format v14

[General]
AudioFilename: audio.mp3
AudioLeadIn: 0
PreviewTime: 9955
Countdown: 0
SampleSet: Soft
StackLeniency: 0.7
Mode: 0
LetterboxInBreaks: 0
WidescreenStoryboard: 0

[Editor]
DistanceSpacing: 1
BeatDivisor: 4
GridSize: 4
TimelineZoom: 1

[Metadata]
Title:GERBERA
TitleUnicode:GERBERA
Artist:BEMANI Sound Team "TAG"
ArtistUnicode:BEMANI Sound Team "TAG"
Creator:yakiniku
Version:EXHAUST
Source:SOUND VOLTEX
Tags:SOUND VOLTEX sdvx TAG GERBERA BEMANI Sound Team "TAG"
BeatmapID:2790563
BeatmapSetID:1347520

[Difficulty]
HPDrainRate:7
CircleSize:4
OverallDifficulty:8
ApproachRate:9
SliderMultiplier:1.39999990463257
SliderTickRate:1

[Events]
//Background and Video events
0,0,"maxresdefault (2).jpg",0,0
//Break Periods
//Storyboard Layer 0 (Background)
//Storyboard Layer 1 (Fail)
//Storyboard Layer 2 (Pass)
//Storyboard Layer 3 (Foreground)
//Storyboard Layer 4 (Overlay)
//Storyboard Sound Samples

[TimingPoints]
590,292.682926829268,4,2,0,100,1,0
590,-100,4,2,0,100,0,0
9955,-100,4,2,0,100,0,1
19321,-100,4,2,0,100,0,0
80199,-100,4,2,0,100,0,1
98931,-100,4,2,0,100,0,0
100980,-100,4,2,0,100,0,1
122346,-100,4,2,0,100,0,0

[HitObjects]
96,64,590,6,0,L|160:96,1,70.000000298023
160,192,1029,2,0,L|96:224,1,70.000000298023
96,320,1468,2,0,L|160:352,1,70.000000298023
416,352,1907,2,0,L|352:320,1,70.000000298023
224,256,2346,1,0,0:0:0:0:
288,144,2638,1,0,0:0:0:0:
416,64,2931,6,0,L|352:96,1,70.000000298023,0|0,0:0|0:0,0:0:0:0:
352,192,3370,2,0,L|416:224,1,70.000000298023,0|0,0:0|0:0,0:0:0:0:
416,320,3809,2,0,L|352:352,1,70.000000298023,0|0,0:0|0:0,0:0:0:0:
96,352,4248,2,0,L|160:320,1,70.000000298023,0|0,0:0|0:0,0:0:0:0:
288,256,4687,1,0,2:0:0:0:
224,144,4979,1,0,2:0:0:0:
96,64,5272,6,0,L|160:96,1,70.000000298023
160,192,5711,2,0,L|96:224,1,70.000000298023
96,320,6150,2,0,L|160:352,1,70.000000298023
416,352,6589,2,0,L|352:320,1,70.000000298023
224,256,7028,1,0,0:0:0:0:
288,144,7321,1,0,0:0:0:0:
416,64,7614,5,0,0:1:0:0:
411,105,7687,1,0,0:1:0:0:
401,140,7760,1,0,0:1:0:0:
386,180,7833,1,0,0:1:0:0:
359,212,7907,1,0,0:1:0:0:
329,236,7980,1,0,0:1:0:0:
291,249,8053,1,0,0:1:0:0:
256,256,8126,1,0,0:1:0:0:
221,249,8199,1,0,0:1:0:0:
183,236,8272,1,0,0:1:0:0:
153,212,8346,1,0,0:1:0:0:
126,180,8419,1,0,0:1:0:0:
111,140,8492,1,0,0:1:0:0:
96,64,8638,1,0,0:0:0:0:
256,192,8785,12,0,9663,0:0:0:0:
400,200,9955,5,0,0:0:0:0:
448,344,10248,1,0,0:0:0:0:
416,328,10321,1,0,0:0:0:0:
384,312,10394,1,0,0:0:0:0:
352,296,10468,1,0,0:0:0:0:
320,280,10541,1,0,0:0:0:0:
224,240,10687,1,0,0:0:0:0:
320,176,10833,1,0,0:0:0:0:
256,96,10980,1,0,0:0:0:0:
80,64,11272,5,0,0:0:0:0:
96,80,11346,1,0,0:0:0:0:
112,96,11419,2,0,L|144:128,3,34.9999976158143
160,144,11711,2,0,L|192:176,3,34.9999976158143
256,224,12004,1,0,0:0:0:0:
384,240,12150,1,0,0:0:0:0:
448,320,12443,5,0,0:0:0:0:
422,331,12516,1,0,0:0:0:0:
394,340,12589,1,0,0:0:0:0:
365,345,12663,1,0,0:0:0:0:
335,350,12736,1,0,0:0:0:0:
256,352,12882,1,0,0:0:0:0:
177,350,13029,1,0,0:0:0:0:
147,345,13102,1,0,0:0:0:0:
118,340,13175,1,0,0:0:0:0:
90,331,13248,1,0,0:0:0:0:
64,320,13321,1,0,0:0:0:0:
120,192,13614,5,0,0:0:0:0:
136,160,13687,1,0,0:0:0:0:
168,136,13760,2,0,P|200:120|232:120,3,34.9999976158143
240,112,14053,2,0,P|272:112|304:128,3,34.9999976158143
320,120,14346,1,0,0:0:0:0:
392,192,14492,1,0,0:0:0:0:
400,336,14785,5,0,0:0:0:0:
367,328,14858,1,0,0:0:0:0:
338,321,14931,2,0,L|301:310,3,34.9999976158143
208,272,15224,1,0,0:0:0:0:
240,192,15370,1,0,0:0:0:0:
304,144,15516,1,0,0:0:0:0:
448,80,15663,1,0,0:0:0:0:
464,192,15955,5,0,0:0:0:0:
442,168,16029,1,0,0:0:0:0:
417,147,16102,1,0,0:0:0:0:
389,125,16175,1,0,0:0:0:0:
359,106,16248,1,0,0:0:0:0:
326,90,16321,1,0,0:0:0:0:
288,80,16394,2,0,P|256:71|230:73,3,34.9999976158143
193,72,16687,2,0,P|159:74|136:85,3,34.9999976158143
96,112,16980,5,0,0:0:0:0:
96,208,17126,1,0,0:0:0:0:
114,228,17199,1,0,0:0:0:0:
136,248,17272,1,0,0:0:0:0:
160,265,17346,1,0,0:0:0:0:
185,282,17419,1,0,0:0:0:0:
256,320,17565,1,0,0:0:0:0:
416,208,17711,5,0,0:0:0:0:
398,228,17784,1,0,0:0:0:0:
376,248,17857,1,0,0:0:0:0:
352,265,17931,1,0,0:0:0:0:
327,282,18004,1,0,0:0:0:0:
320,48,18297,5,0,0:0:0:0:
272,240,18443,1,0,0:0:0:0:
240,64,18589,1,0,0:0:0:0:
208,192,18736,1,0,0:0:0:0:
160,80,18882,1,0,0:0:0:0:
144,144,19029,1,0,0:0:0:0:
80,96,19175,1,0,0:0:0:0:
126,282,19321,5,0,0:0:0:0:
346,321,19614,5,0,0:0:0:0:
385,101,19907,5,0,0:0:0:0:
165,62,20199,5,0,0:0:0:0:
143,303,20492,5,0,0:0:0:0:
366,303,20785,5,0,0:0:0:0:
367,80,21078,5,0,0:0:0:0:
143,79,21370,5,0,0:0:0:0:
164,320,21663,5,0,0:0:0:0:
384,282,21956,5,0,0:0:0:0:
346,62,22249,5,0,0:0:0:0:
126,101,22541,5,0,0:0:0:0:
192,48,22833,5,0,0:0:0:0:
232,72,22980,1,0,0:0:0:0:
232,120,23126,1,0,0:0:0:0:
272,144,23272,1,0,0:0:0:0:
272,192,23419,2,0,L|272:224,6,17.4999988079071
272,264,23711,2,0,L|352:312,1,69.9999952316285
400,256,24004,5,0,0:0:0:0:
80,256,24443,1,0,0:0:0:0:
112,64,25175,2,0,P|208:144|240:144,1,139.999990463257
400,232,25760,2,0,P|304:152|272:152,1,139.999990463257
400,320,26346,5,0,0:0:0:0:
128,256,26785,1,0,0:0:0:0:
360,192,27224,1,0,0:0:0:0:
168,128,27663,1,0,0:0:0:0:
400,64,28102,1,0,0:0:0:0:
256,64,28394,1,0,0:0:0:0:
112,80,28687,5,0,0:0:0:0:
432,128,29126,1,0,0:0:0:0:
400,320,29858,2,0,P|304:240|272:240,1,139.999990463257
256,240,30297,1,0,0:0:0:0:
160,240,30589,2,0,P|112:192|112:160,1,69.9999952316285
112,64,31029,5,0,0:0:0:0:
384,128,31468,1,0,0:0:0:0:
152,192,31907,1,0,0:0:0:0:
344,256,32346,1,0,0:0:0:0:
112,320,32785,1,0,0:0:0:0:
256,320,33077,1,0,0:0:0:0:
112,256,33370,5,0,0:0:0:0:
432,256,33809,1,0,0:0:0:0:
400,64,34541,2,0,P|304:144|272:144,1,139.999990463257
112,232,35126,2,0,P|208:152|240:152,1,139.999990463257
112,320,35712,5,0,0:0:0:0:
384,256,36151,1,0,0:0:0:0:
152,192,36590,1,0,0:0:0:0:
344,128,37029,1,0,0:0:0:0:
112,64,37468,1,0,0:0:0:0:
256,64,37760,1,0,0:0:0:0:
400,80,38053,5,0,0:0:0:0:
80,128,38492,1,0,0:0:0:0:
112,320,39224,2,0,P|208:240|240:240,1,139.999990463257
256,240,39663,1,0,0:0:0:0:
352,240,39955,2,0,P|400:192|400:160,1,69.9999952316285
400,64,40395,5,0,0:0:0:0:
128,128,40834,1,0,0:0:0:0:
400,192,41273,1,0,0:0:0:0:
400,320,41565,5,0,0:0:0:0:
192,288,41858,1,0,0:0:0:0:
312,232,42150,1,0,0:0:0:0:
256,96,42443,1,0,0:0:0:0:
400,112,42736,6,0,P|366:184|337:170,1,104.999992847443
320,184,43029,1,0,0:0:0:0:
232,184,43175,1,0,0:0:0:0:
200,184,43248,1,0,0:0:0:0:
168,184,43321,2,0,P|106:235|127:259,1,104.999992847443
120,280,43614,1,0,0:0:0:0:
184,344,43760,1,0,0:0:0:0:
216,344,43833,1,0,0:0:0:0:
248,344,43907,2,0,P|330:313|349:272,1,104.999992847443
352,280,44199,2,0,P|352:224|344:208,1,69.9999952316285
272,88,44492,1,0,0:0:0:0:
112,128,44785,1,0,0:0:0:0:
112,272,45077,6,0,P|145:199|174:213,1,104.999992847443
192,200,45370,1,0,0:0:0:0:
280,200,45516,1,0,0:0:0:0:
312,200,45589,1,0,0:0:0:0:
344,192,45663,1,0,0:0:0:0:
456,144,45809,1,0,0:0:0:0:
400,56,45955,1,0,0:0:0:0:
328,112,46102,1,0,0:0:0:0:
264,40,46248,2,0,P|181:70|162:111,1,104.999992847443
160,104,46540,2,0,P|160:160|168:176,1,69.9999952316285
240,296,46833,1,0,0:0:0:0:
400,256,47126,1,0,0:0:0:0:
224,160,47419,5,0,0:0:0:0:
379,62,47711,1,0,0:0:0:0:
399,140,47858,1,0,0:0:0:0:
395,175,47931,1,0,0:0:0:0:
391,211,48004,2,0,P|367:262|347:278,1,69.9999952316285
335,291,48297,2,0,P|286:319|261:320,1,69.9999952316285
235,319,48589,1,0,0:0:0:0:
136,296,48809,1,0,0:0:0:0:
104,272,48882,2,0,P|68:228|62:204,1,69.9999952316285
64,96,49175,1,0,0:0:0:0:
312,152,49468,1,0,0:0:0:0:
440,320,49760,5,0,0:0:0:0:
176,272,50053,1,0,0:0:0:0:
224,192,50199,1,0,0:0:0:0:
248,168,50272,1,0,0:0:0:0:
280,160,50346,2,0,L|432:160,2,139.999990463257
152,160,51150,1,0,0:0:0:0:
152,160,51224,1,0,0:0:0:0:
80,72,51370,1,0,0:0:0:0:
80,192,51516,2,0,P|80:256|96:272,1,69.9999952316285
264,336,51809,2,0,P|200:336|184:320,1,69.9999952316285
112,272,52102,6,0,P|145:199|174:213,1,104.999992847443
192,200,52395,1,2,0:0:0:0:
280,200,52541,1,0,0:0:0:0:
312,200,52614,1,0,0:0:0:0:
344,200,52687,2,0,P|405:148|384:124,1,104.999992847443
392,104,52980,1,2,0:0:0:0:
328,40,53126,1,0,0:0:0:0:
296,40,53199,1,0,0:0:0:0:
264,40,53273,2,0,P|181:70|162:111,1,104.999992847443
160,104,53565,2,2,P|160:160|168:176,1,69.9999952316285
240,296,53858,1,0,0:0:0:0:
400,256,54151,1,2,0:0:0:0:
400,112,54443,6,0,P|366:184|337:170,1,104.999992847443
320,184,54736,1,2,0:0:0:0:
232,184,54882,1,0,0:0:0:0:
200,184,54955,1,0,0:0:0:0:
168,192,55029,1,0,0:0:0:0:
56,240,55175,1,0,0:0:0:0:
112,328,55321,1,2,0:0:0:0:
184,272,55468,1,0,0:0:0:0:
248,344,55614,2,0,P|330:313|349:272,1,104.999992847443
352,280,55906,2,2,P|352:224|344:208,1,69.9999952316285
272,88,56199,1,0,0:0:0:0:
112,128,56492,1,2,0:0:0:0:
288,224,56785,5,0,0:0:0:0:
133,322,57077,1,2,0:0:0:0:
113,244,57224,1,0,0:0:0:0:
117,209,57297,1,0,0:0:0:0:
121,173,57370,2,0,P|145:122|165:106,1,69.9999952316285
177,93,57663,2,2,P|226:65|251:64,1,69.9999952316285
277,65,57955,1,0,0:0:0:0:
376,88,58175,1,0,0:0:0:0:
408,112,58248,2,2,P|444:156|450:180,1,69.9999952316285
448,288,58541,1,0,0:0:0:0:
200,232,58834,1,2,0:0:0:0:
72,64,59126,5,0,0:0:0:0:
336,112,59419,1,2,0:0:0:0:
288,192,59565,1,0,0:0:0:0:
264,216,59638,1,0,0:0:0:0:
232,224,59712,2,0,L|80:224,2,139.999990463257
360,224,60516,1,0,0:0:0:0:
360,224,60590,1,2,0:0:0:0:
384,104,60736,1,0,0:0:0:0:
256,56,60882,1,0,0:0:0:0:
256,336,61468,5,0,3:0:0:0:
112,192,61907,1,0,3:0:0:0:
160,144,62053,2,0,L|256:48,1,104.999992847443
256,48,62346,1,0,3:0:0:0:
304,96,62492,1,0,0:0:0:0:
400,192,62785,1,0,3:0:0:0:
256,336,63224,1,0,0:0:0:0:
112,336,63443,1,0,0:0:0:0:
112,336,63516,1,0,3:0:0:0:
184,336,63663,1,0,0:0:0:0:
256,336,63809,5,0,3:0:0:0:
400,192,64248,1,0,3:0:0:0:
352,144,64394,2,0,L|256:48,1,104.999992847443
256,48,64687,1,0,3:0:0:0:
208,96,64833,1,0,0:0:0:0:
112,192,65126,1,0,3:0:0:0:
256,336,65565,1,0,3:0:0:0:
400,336,65785,1,0,0:0:0:0:
400,336,65857,1,0,3:0:0:0:
328,336,66004,1,0,0:0:0:0:
256,336,66150,5,0,3:0:0:0:
400,192,66589,1,0,3:0:0:0:
352,192,66736,2,0,L|240:192,1,104.999992847443
208,192,67029,1,0,3:0:0:0:
112,192,67175,1,0,0:0:0:0:
256,48,67468,1,0,3:0:0:0:
256,192,67907,1,0,3:0:0:0:
256,136,68126,1,0,0:0:0:0:
256,120,68199,1,0,3:0:0:0:
256,80,68346,1,0,0:0:0:0:
256,48,68492,5,0,3:0:0:0:
400,192,68931,1,0,3:0:0:0:
160,192,69077,2,0,L|272:192,1,104.999992847443
304,192,69370,1,0,3:0:0:0:
400,192,69516,1,0,0:0:0:0:
256,336,69809,1,0,3:0:0:0:
256,192,70248,1,0,3:0:0:0:
200,192,70468,1,0,0:0:0:0:
184,192,70541,1,0,3:0:0:0:
128,192,70687,1,0,0:0:0:0:
0,128,70833,6,6,L|160:128,1,139.999990463257
64,128,71419,2,6,L|64:288,1,139.999990463257
256,128,72004,2,6,L|192:288,1,139.999990463257
256,128,72589,2,6,L|320:288,1,139.999990463257
176,224,73175,2,6,L|336:224,1,139.999990463257
432,112,73760,2,6,P|330:213|499:179,1,419.999971389771
496,192,74931,2,6,L|352:192,1,139.999990463257
256,192,75516,12,0,77565,0:0:0:0:
96,64,77858,5,0,0:0:0:0:
101,105,77931,1,0,0:0:0:0:
111,140,78004,1,0,0:0:0:0:
126,180,78077,1,0,0:0:0:0:
153,212,78151,1,0,0:0:0:0:
183,236,78224,1,0,0:0:0:0:
221,249,78297,1,0,0:0:0:0:
256,256,78370,1,0,0:0:0:0:
291,249,78443,1,0,0:0:0:0:
329,236,78516,1,0,0:0:0:0:
359,212,78590,1,0,0:0:0:0:
386,180,78663,1,0,0:0:0:0:
401,140,78736,1,0,0:0:0:0:
416,64,78882,1,0,0:0:0:0:
416,304,79175,5,0,0:0:0:0:
416,304,79321,1,0,0:0:0:0:
256,192,79614,1,0,0:0:0:0:
112,56,79907,1,0,0:0:0:0:
168,128,80053,1,0,0:0:0:0:
112,200,80199,5,6,0:0:0:0:
64,344,80492,1,0,0:0:0:0:
96,328,80565,1,0,0:0:0:0:
128,312,80638,1,0,0:0:0:0:
160,296,80712,1,0,0:0:0:0:
192,280,80785,1,6,0:0:0:0:
288,240,80931,1,0,0:0:0:0:
192,176,81077,1,0,0:0:0:0:
256,96,81224,1,6,0:0:0:0:
432,64,81516,5,0,0:0:0:0:
416,80,81590,1,0,0:0:0:0:
400,96,81663,2,0,L|368:128,3,34.9999976158143
352,144,81955,2,0,L|320:176,3,34.9999976158143
256,224,82248,1,6,0:0:0:0:
128,240,82394,1,6,0:0:0:0:
64,320,82687,5,0,0:0:0:0:
90,331,82760,1,0,0:0:0:0:
118,340,82833,1,0,0:0:0:0:
147,345,82907,1,0,0:0:0:0:
177,350,82980,1,0,0:0:0:0:
256,352,83126,1,6,0:0:0:0:
335,350,83273,1,0,0:0:0:0:
365,345,83346,1,0,0:0:0:0:
394,340,83419,1,0,0:0:0:0:
422,331,83492,1,0,0:0:0:0:
448,320,83565,1,6,0:0:0:0:
392,192,83858,5,0,0:0:0:0:
376,160,83931,1,0,0:0:0:0:
344,136,84004,2,0,P|312:120|280:120,3,34.9999976158143
272,112,84297,2,0,P|240:112|208:128,3,34.9999976158143
192,120,84590,1,6,0:0:0:0:
120,192,84736,1,6,0:0:0:0:
112,336,85029,5,0,0:0:0:0:
145,328,85102,1,0,0:0:0:0:
174,321,85175,2,0,L|211:310,3,34.9999976158143
304,272,85468,1,6,0:0:0:0:
272,192,85614,1,6,0:0:0:0:
208,144,85760,1,6,0:0:0:0:
64,80,85907,1,6,0:0:0:0:
48,192,86199,5,0,0:0:0:0:
70,168,86273,1,0,0:0:0:0:
95,147,86346,1,0,0:0:0:0:
123,125,86419,1,0,0:0:0:0:
153,106,86492,1,0,0:0:0:0:
186,90,86565,1,0,0:0:0:0:
224,80,86638,2,0,P|256:71|282:73,3,34.9999976158143
319,72,86931,2,0,P|353:74|376:85,3,34.9999976158143
416,112,87224,5,6,0:0:0:0:
416,208,87370,1,0,0:0:0:0:
398,228,87443,1,0,0:0:0:0:
376,248,87516,1,0,0:0:0:0:
352,265,87590,1,0,0:0:0:0:
327,282,87663,1,0,0:0:0:0:
256,320,87809,1,6,0:0:0:0:
96,208,87955,5,0,0:0:0:0:
114,228,88028,1,0,0:0:0:0:
136,248,88101,1,0,0:0:0:0:
160,265,88175,1,0,0:0:0:0:
185,282,88248,1,6,0:0:0:0:
288,256,88540,6,2,L|320:224,1,34.9999976158143
256,192,88687,2,2,L|224:160,1,34.9999976158143
288,128,88833,2,2,L|320:96,1,34.9999976158143
336,92,88980,1,0,0:0:0:0:
364,92,89053,1,0,0:0:0:0:
384,100,89126,1,0,0:0:0:0:
404,116,89199,1,0,0:0:0:0:
412,140,89272,1,0,0:0:0:0:
416,164,89346,1,0,0:0:0:0:
412,184,89419,1,0,0:0:0:0:
400,200,89492,1,0,0:0:0:0:
384,212,89565,1,6,0:0:0:0:
136,272,89858,5,6,0:0:0:0:
136,272,90004,1,6,0:0:0:0:
336,88,90297,1,6,0:0:0:0:
176,128,90589,1,6,0:0:0:0:
256,320,90882,6,0,L|288:288,1,34.9999976158143
304,272,91029,2,0,L|336:240,3,34.9999976158143
352,224,91321,2,0,P|368:208|376:192,1,34.9999976158143
384,128,91468,1,6,0:0:0:0:
304,64,91614,1,6,0:0:0:0:
136,64,91907,5,6,0:0:0:0:
192,116,92053,2,0,L|160:148,1,34.9999976158143
136,168,92199,2,0,L|168:200,3,34.9999976158143
272,208,92492,1,6,0:0:0:0:
352,208,92711,1,0,0:0:0:0:
272,352,92931,1,0,0:0:0:0:
192,352,93077,1,6,0:0:0:0:
80,208,93370,1,6,0:0:0:0:
80,128,93516,1,6,0:0:0:0:
336,80,94248,6,6,P|426:112|450:138,2,104.999992847443
248,48,94833,1,0,0:0:0:0:
160,80,94980,1,0,0:0:0:0:
144,120,95053,1,0,0:0:0:0:
160,156,95126,2,0,L|178:199,1,34.9999976158143
172,228,95272,2,0,L|156:270,1,34.9999976158143
172,296,95419,6,6,P|81:328|57:354,2,104.999992847443
288,280,96004,2,0,L|344:248,3,34.9999976158143
320,184,96297,2,0,L|264:152,3,34.9999976158143
228,104,96589,5,6,0:0:0:0:
344,72,96736,1,0,0:0:0:0:
368,88,96809,1,0,0:0:0:0:
392,112,96882,1,0,0:0:0:0:
408,136,96955,1,0,0:0:0:0:
416,164,97029,1,0,0:0:0:0:
420,192,97102,1,0,0:0:0:0:
416,224,97175,1,6,0:0:0:0:
245,292,97321,1,0,0:0:0:0:
245,292,97394,1,6,0:0:0:0:
92,184,97541,1,0,0:0:0:0:
92,184,97614,1,6,0:0:0:0:
200,76,97760,5,6,0:0:0:0:
352,104,97907,1,0,0:0:0:0:
336,112,97980,1,0,0:0:0:0:
320,120,98053,1,6,0:0:0:0:
184,192,98199,1,0,0:0:0:0:
200,200,98272,1,0,0:0:0:0:
216,208,98345,1,6,0:0:0:0:
272,328,98638,1,6,0:0:0:0:
408,312,98931,5,0,0:0:0:0:
176,272,99224,1,0,0:0:0:0:
176,272,99297,1,0,0:0:0:0:
176,272,99370,1,0,0:0:0:0:
176,272,99443,1,0,0:0:0:0:
176,272,99516,1,0,0:0:0:0:
296,224,99663,1,0,0:0:0:0:
180,180,99809,1,0,0:0:0:0:
256,48,99955,1,0,0:0:0:0:
392,144,100248,5,0,0:0:0:0:
392,144,100394,1,0,0:0:0:0:
392,144,100541,1,0,0:0:0:0:
384,144,100687,1,0,0:0:0:0:
384,172,100760,1,0,0:0:0:0:
368,200,100833,1,0,0:0:0:0:
344,224,100907,1,0,0:0:0:0:
316,240,100980,1,0,0:0:0:0:
120,192,101272,5,6,0:0:0:0:
201,192,101419,1,0,0:0:0:0:
244,192,101492,1,0,0:0:0:0:
284,192,101565,1,0,0:0:0:0:
324,192,101638,1,0,0:0:0:0:
364,192,101711,1,0,0:0:0:0:
343,87,101858,5,6,0:0:0:0:
291,149,102005,1,0,0:0:0:0:
263,182,102078,1,0,0:0:0:0:
238,213,102151,1,0,0:0:0:0:
212,244,102224,1,0,0:0:0:0:
186,274,102297,1,6,0:0:0:0:
88,144,102589,5,0,0:0:0:0:
112,104,102663,1,0,0:0:0:0:
144,72,102736,2,0,P|168:56|192:48,3,34.9999976158143
240,48,103029,1,6,0:0:0:0:
328,48,103175,1,0,0:0:0:0:
368,64,103248,1,0,0:0:0:0:
404,92,103321,1,6,0:0:0:0:
424,188,103468,1,6,0:0:0:0:
424,304,103760,6,0,L|392:336,1,34.9999976158143
336,232,103907,2,0,L|304:200,1,34.9999976158143
248,304,104053,2,0,L|216:336,1,34.9999976158143
160,232,104199,1,6,0:0:0:0:
120,72,104346,1,6,0:0:0:0:
240,120,104492,1,6,0:0:0:0:
48,184,104638,1,6,0:0:0:0:
152,312,104931,5,0,0:0:0:0:
128,272,105004,1,0,0:0:0:0:
128,224,105077,1,0,0:0:0:0:
140,176,105150,1,0,0:0:0:0:
172,140,105224,1,0,0:0:0:0:
212,116,105297,1,0,0:0:0:0:
260,112,105370,1,0,0:0:0:0:
344,244,105516,1,6,0:0:0:0:
428,116,105663,1,6,0:0:0:0:
392,192,105955,5,6,0:0:0:0:
311,192,106102,1,0,0:0:0:0:
268,192,106175,1,0,0:0:0:0:
228,192,106248,1,0,0:0:0:0:
188,192,106321,1,0,0:0:0:0:
148,192,106394,1,0,0:0:0:0:
168,296,106541,5,6,0:0:0:0:
220,234,106688,1,0,0:0:0:0:
248,201,106761,1,0,0:0:0:0:
273,170,106834,1,0,0:0:0:0:
299,139,106907,1,0,0:0:0:0:
325,109,106980,1,6,0:0:0:0:
472,136,107272,5,0,0:0:0:0:
414,352,107419,1,0,0:0:0:0:
197,294,107565,1,0,0:0:0:0:
255,78,107711,1,0,0:0:0:0:
255,78,107785,1,0,0:0:0:0:
255,78,107858,1,0,0:0:0:0:
255,78,107931,1,0,0:0:0:0:
255,78,108004,1,6,0:0:0:0:
80,144,108297,5,6,0:0:0:0:
378,307,108589,1,6,0:0:0:0:
257,351,108736,1,6,0:0:0:0:
380,34,109029,1,6,0:0:0:0:
320,172,109321,1,6,0:0:0:0:
192,264,109614,1,0,0:0:0:0:
148,284,109687,1,0,0:0:0:0:
100,276,109760,1,0,0:0:0:0:
64,244,109833,1,0,0:0:0:0:
60,196,109907,1,0,0:0:0:0:
84,156,109980,1,0,0:0:0:0:
124,132,110053,1,0,0:0:0:0:
172,140,110126,1,0,0:0:0:0:
204,176,110199,1,6,0:0:0:0:
312,288,110346,1,6,0:0:0:0:
444,140,110638,5,6,0:0:0:0:
428,320,110785,1,0,0:0:0:0:
384,296,110858,1,0,0:0:0:0:
340,272,110931,2,0,L|316:232,1,34.9999976158143
276,220,111078,2,0,L|228:220,1,34.9999976158143
176,220,111224,1,6,0:0:0:0:
336,112,111370,1,0,0:0:0:0:
336,112,111443,1,0,0:0:0:0:
156,52,111589,1,0,0:0:0:0:
156,52,111663,1,0,0:0:0:0:
64,192,111808,5,6,0:0:0:0:
160,240,111955,1,0,0:0:0:0:
184,284,112029,1,0,0:0:0:0:
204,328,112101,1,6,0:0:0:0:
256,144,112248,1,0,0:0:0:0:
280,100,112322,1,0,0:0:0:0:
300,56,112394,1,6,0:0:0:0:
352,240,112541,1,0,0:0:0:0:
376,284,112615,1,0,0:0:0:0:
396,328,112688,1,6,0:0:0:0:
400,128,112980,5,6,0:0:0:0:
268,288,113199,1,0,0:0:0:0:
108,184,113419,1,0,0:0:0:0:
96,72,113565,1,0,0:0:0:0:
192,40,113711,1,0,0:0:0:0:
240,48,113785,1,0,0:0:0:0:
284,72,113858,2,0,P|308:92|316:112,1,34.9999976158143
332,144,114004,2,0,P|340:173|354:189,1,34.9999976158143
392,224,114150,5,6,0:0:0:0:
228,108,114369,1,0,0:0:0:0:
64,204,114589,1,0,0:0:0:0:
108,288,114736,1,0,0:0:0:0:
204,308,114881,1,0,0:0:0:0:
248,292,114955,1,0,0:0:0:0:
284,264,115028,2,0,P|304:240|308:219,1,34.9999976158143
324,176,115174,2,0,P|347:155|368:150,1,34.9999976158143
420,144,115321,5,6,0:0:0:0:
428,340,115468,1,0,0:0:0:0:
370,351,115541,1,0,0:0:0:0:
310,353,115614,1,0,0:0:0:0:
250,348,115687,1,0,0:0:0:0:
191,335,115760,1,0,0:0:0:0:
137,314,115833,1,0,0:0:0:0:
87,290,115907,1,6,0:0:0:0:
176,208,116053,1,0,0:0:0:0:
176,208,116126,1,6,0:0:0:0:
108,112,116273,1,0,0:0:0:0:
108,112,116346,1,6,0:0:0:0:
192,64,116492,5,4,0:0:0:0:
256,16,116589,1,4,0:0:0:0:
320,64,116687,1,4,0:0:0:0:
320,144,116785,1,4,0:0:0:0:
256,192,116882,1,4,0:0:0:0:
192,240,116980,1,4,0:0:0:0:
192,320,117077,1,4,0:0:0:0:
256,368,117175,1,4,0:0:0:0:
320,320,117272,1,4,0:0:0:0:
384,368,117370,1,4,0:0:0:0:
476,153,117663,6,0,P|420:114|389:119,1,69.9999952316285
366,172,117955,2,0,P|327:228|295:233,1,69.9999952316285
256,192,118248,2,0,P|200:153|168:158,1,69.9999952316285
145,211,118540,2,0,P|106:267|75:272,1,69.9999952316285
64,312,118760,1,0,0:0:0:0:
112,363,118833,6,0,P|179:357|200:333,1,69.9999952316285
184,277,119125,2,0,P|178:210|198:185,1,69.9999952316285
256,192,119418,2,0,P|323:186|344:161,1,69.9999952316285
327,106,119710,2,0,P|322:38|342:14,1,69.9999952316285
447,64,120004,1,0,0:0:0:0:
256,224,120151,1,0,0:0:0:0:
448,320,120297,1,0,0:0:0:0:
224,192,120443,1,0,0:0:0:0:
64,320,120590,1,0,0:0:0:0:
256,160,120736,1,0,0:0:0:0:
64,64,120882,1,0,0:0:0:0:
288,192,121029,1,0,0:0:0:0:
256,192,121175,5,0,0:0:0:0:
216,136,121248,1,0,0:0:0:0:
152,104,121321,1,0,0:0:0:0:
88,136,121395,1,0,0:0:0:0:
48,192,121468,1,0,0:0:0:0:
88,248,121541,1,0,0:0:0:0:
152,280,121614,1,0,0:0:0:0:
216,248,121688,1,0,0:0:0:0:
256,192,121760,5,0,0:0:0:0:
296,136,121833,1,0,0:0:0:0:
360,104,121906,1,0,0:0:0:0:
424,136,121980,1,0,0:0:0:0:
464,192,122053,1,0,0:0:0:0:
424,248,122126,1,0,0:0:0:0:
360,280,122199,1,0,0:0:0:0:
296,248,122273,1,0,0:0:0:0:
256,192,122346,5,6,0:0:0:0:
