osu file format v14

[General]
AudioFilename: audio.mp3
AudioLeadIn: 0
PreviewTime: 10695
Countdown: 0
SampleSet: Soft
StackLeniency: 0.7
Mode: 3
LetterboxInBreaks: 0
SpecialStyle: 0
WidescreenStoryboard: 1

[Editor]
DistanceSpacing: 0.4
BeatDivisor: 4
GridSize: 8
TimelineZoom: 2.4

[Metadata]
Title:OZONE
TitleUnicode:OZONE
Artist:BEMANI Sound Team "Sota Fujimori"
ArtistUnicode:BEMANI Sound Team "Sota Fujimori"
Creator:_Stan
Version:Rin's EXHAUST
Source:SOUND VOLTEX III GRAVITY WARS コナステ
Tags:electronic instrumental sdvx konami rhythm game vivid wave shima rin Otosaka-Yu tofu1222 Suzuki_1112 famoss
BeatmapID:2532277
BeatmapSetID:1204322

[Difficulty]
HPDrainRate:7.8
CircleSize:4
OverallDifficulty:7.5
ApproachRate:5
SliderMultiplier:1.4
SliderTickRate:1

[Events]
//Background and Video events
0,0,"bg.jpg",0,0
//Break Periods
//Storyboard Layer 0 (Background)
//Storyboard Layer 1 (Fail)
//Storyboard Layer 2 (Pass)
//Storyboard Layer 3 (Foreground)
//Storyboard Layer 4 (Overlay)
//Storyboard Sound Samples

[TimingPoints]
1362,333.333333333333,4,2,1,50,1,0
34028,-100,4,2,1,50,0,1
44028,-100,4,2,1,50,0,0
44695,-100,4,2,1,50,0,1
49361,-100,4,2,1,50,0,0
50361,-100,4,2,1,50,0,1
54695,-100,4,2,1,50,0,0
76028,-111.111111111111,4,2,1,50,0,0
76361,-109.89010989011,4,2,1,50,0,0
76695,-108.695652173913,4,2,1,50,0,0
77028,-107.52688172043,4,2,1,50,0,0
77361,-106.382978723404,4,2,1,50,0,0
77695,-105.263157894737,4,2,1,50,0,0
78028,-104.166666666667,4,2,1,50,0,0
78361,-103.092783505155,4,2,1,50,0,0
78695,-102.040816326531,4,2,1,50,0,0
79028,-101.010101010101,4,2,1,50,0,0
79361,-100,4,2,1,50,0,0
81361,-100,4,2,1,50,0,1
92028,-100,4,2,1,50,0,0
92695,-100,4,2,1,50,0,1
97361,-100,4,2,1,50,0,0
98028,-100,4,2,1,50,0,1
102695,-100,4,2,1,50,0,0

[HitObjects]
448,192,1362,5,0,0:0:0:50:tom04.wav
64,192,1362,128,0,1528:0:0:0:0:
192,192,1528,1,0,0:0:0:0:
320,192,1611,1,0,0:0:0:0:
448,192,1695,1,0,0:0:0:0:
64,192,1861,1,0,0:0:0:0:
320,192,2028,1,0,0:0:0:0:
192,192,2195,1,0,0:0:0:0:
64,192,2361,1,0,0:0:0:0:
320,192,2528,1,0,0:0:0:0:
192,192,2695,128,0,2861:0:0:0:50:tom04.wav
64,192,2695,1,0,0:0:0:0:
320,192,2861,1,0,0:0:0:0:
448,192,2945,1,0,0:0:0:0:
64,192,3028,1,0,0:0:0:0:
320,192,3195,1,0,0:0:0:0:
448,192,3361,128,0,3528:0:0:0:0:
192,192,3528,1,0,0:0:0:0:
320,192,3695,128,0,3861:0:0:0:50:tom03.wav
64,192,3861,1,0,0:0:0:0:
192,192,4028,128,0,4195:0:0:0:50:tom03.wav
320,192,4195,1,0,0:0:0:0:
64,192,4278,1,0,0:0:0:0:
448,192,4361,1,0,0:0:0:0:
192,192,4528,1,0,0:0:0:0:
320,192,4695,1,0,0:0:0:0:
64,192,4861,1,0,0:0:0:0:
448,192,5028,1,0,0:0:0:0:
192,192,5195,1,0,0:0:0:0:
320,192,5361,128,0,5528:0:0:0:50:tom03.wav
64,192,5528,1,0,0:0:0:0:
448,192,5611,1,0,0:0:0:0:
192,192,5695,1,0,0:0:0:0:
320,192,5861,1,0,0:0:0:0:
448,192,6028,128,0,6195:0:0:0:50:tom02.wav
64,192,6195,1,0,0:0:0:0:
192,192,6361,1,0,0:0:0:0:
448,192,6445,1,0,0:0:0:0:
320,192,6528,1,0,0:0:0:0:
64,192,6695,128,0,6861:0:0:0:50:tom03.wav
448,192,6861,1,0,0:0:0:0:
192,192,6945,1,0,0:0:0:0:
320,192,7028,1,0,0:0:0:0:
64,192,7195,1,0,0:0:0:0:
192,192,7361,128,0,7528:0:0:0:50:tom03.wav
448,192,7528,1,0,0:0:0:0:
64,192,7695,1,0,0:0:0:0:
192,192,7861,1,0,0:0:0:0:
320,192,8028,128,0,8195:0:0:0:50:tom02.wav
64,192,8195,1,0,0:0:0:0:
448,192,8278,1,0,0:0:0:0:
192,192,8361,1,0,0:0:0:0:
320,192,8528,1,0,0:0:0:0:
448,192,8695,128,0,8861:0:0:0:50:tom02.wav
64,192,8861,1,0,0:0:0:0:
192,192,9028,128,0,9195:0:0:0:0:
448,192,9195,1,0,0:0:0:0:
320,192,9361,128,0,9528:0:0:0:50:tom02.wav
64,192,9528,1,0,0:0:0:0:
192,192,9695,1,0,0:0:0:0:
320,192,9861,1,0,0:0:0:0:
64,192,10028,1,2,0:0:0:0:
192,192,10028,1,0,0:0:0:0:
320,192,10195,1,2,0:0:0:0:
448,192,10195,1,0,0:0:0:0:
64,192,10361,1,2,0:0:0:0:
192,192,10361,1,0,0:0:0:0:
320,192,10528,1,2,0:0:0:0:
448,192,10528,1,0,0:0:0:0:
64,192,10695,1,0,0:0:0:0:
192,192,10778,1,0,0:0:0:0:
320,192,10861,1,0,0:0:0:0:
448,192,10945,1,0,0:0:0:0:
64,192,11028,1,0,0:0:0:50:electronic19.wav
192,192,11028,1,0,0:0:0:0:
448,192,11361,1,0,0:0:0:0:
320,192,11445,1,0,0:0:0:0:
192,192,11528,1,0,0:0:0:0:
64,192,11611,1,0,0:0:0:0:
320,192,11695,1,8,0:0:0:0:
448,192,11695,1,0,0:0:0:0:
192,192,12028,128,0,12361:0:0:0:0:
64,192,12361,1,4,0:0:0:0:
320,192,12361,1,2,0:0:0:0:
448,192,12361,1,0,0:0:0:0:
192,192,12528,1,0,0:0:0:0:
320,192,12695,1,2,0:0:0:0:
448,192,12695,1,0,0:0:0:0:
64,192,12861,1,0,0:0:0:0:
192,192,12945,1,2,0:0:0:0:
320,192,12945,1,0,0:0:0:0:
448,192,13028,1,0,0:0:0:0:
64,192,13195,1,2,0:0:0:0:
192,192,13195,1,0,0:0:0:0:
320,192,13361,1,2,0:0:0:0:
448,192,13361,1,0,0:0:0:0:
192,192,13528,1,0,0:0:0:0:
320,192,13611,1,0,0:0:0:0:
64,192,13695,1,2,0:0:0:0:
448,192,13695,1,0,0:0:0:0:
320,192,13861,1,0,0:0:0:0:
192,192,13945,1,0,0:0:0:0:
64,192,14028,1,2,0:0:0:0:
448,192,14028,1,0,0:0:0:0:
192,192,14278,1,2,0:0:0:0:
320,192,14278,1,0,0:0:0:0:
64,192,14361,1,0,0:0:0:0:
320,192,14528,1,2,0:0:0:0:
448,192,14528,1,0,0:0:0:0:
192,192,14611,1,0,0:0:0:0:
64,192,14695,1,2,0:0:0:0:
448,192,14695,1,0,0:0:0:0:
320,192,14861,1,0,0:0:0:0:
64,192,15028,1,2,0:0:0:0:
192,192,15028,1,0,0:0:0:0:
448,192,15195,1,0,0:0:0:0:
192,192,15361,1,2,0:0:0:0:
320,192,15361,1,0,0:0:0:0:
64,192,15528,1,0,0:0:0:0:
320,192,15611,1,2,0:0:0:0:
448,192,15611,1,0,0:0:0:0:
192,192,15695,1,0,0:0:0:0:
320,192,15861,1,2,0:0:0:0:
448,192,15861,1,0,0:0:0:0:
64,192,16028,1,2,0:0:0:0:
192,192,16028,1,0,0:0:0:0:
320,192,16195,1,0,0:0:0:0:
64,192,16361,1,2,0:0:0:0:
448,192,16361,1,0,0:0:0:0:
192,192,16528,1,0,0:0:0:0:
320,192,16695,1,2,0:0:0:0:
448,192,16695,1,0,0:0:0:0:
64,192,16861,1,0,0:0:0:0:
192,192,16945,1,2,0:0:0:0:
320,192,16945,1,0,0:0:0:0:
448,192,17028,1,0,0:0:0:0:
64,192,17195,1,2,0:0:0:0:
192,192,17195,1,0,0:0:0:0:
320,192,17361,1,2,0:0:0:0:
448,192,17361,1,0,0:0:0:0:
192,192,17584,1,0,0:0:0:0:
64,192,17695,1,2,0:0:0:0:
448,192,17695,1,0,0:0:0:0:
320,192,17806,1,0,0:0:0:0:
192,192,17917,1,0,0:0:0:0:
320,192,18028,1,2,0:0:0:0:
448,192,18028,1,0,0:0:0:0:
192,192,18139,1,0,0:0:0:0:
64,192,18250,1,0,0:0:0:0:
448,192,18361,1,0,0:0:0:0:
320,192,18473,1,0,0:0:0:0:
192,192,18584,1,0,0:0:0:0:
64,192,18695,1,2,0:0:0:0:
448,192,18695,1,0,0:0:0:0:
192,192,18806,1,0,0:0:0:0:
320,192,18917,1,0,0:0:0:0:
64,192,19028,1,2,0:0:0:0:
192,192,19028,1,0,0:0:0:0:
320,192,19139,1,0,0:0:0:0:
448,192,19250,1,0,0:0:0:0:
192,192,19361,1,0,0:0:0:0:
320,192,19473,1,0,0:0:0:0:
192,192,19584,1,0,0:0:0:0:
64,192,19695,1,0,0:0:0:50:tom01.wav
448,192,19695,1,0,0:0:0:0:
320,192,19806,1,0,0:0:0:0:
192,192,19917,1,0,0:0:0:0:
64,192,20028,1,2,0:0:0:0:
448,192,20028,1,4,0:0:0:0:
64,192,20361,1,2,0:0:0:0:
448,192,20361,1,0,0:0:0:0:
192,192,20528,1,2,0:0:0:0:
320,192,20528,1,0,0:0:0:0:
64,192,20695,1,2,0:0:0:0:
448,192,20695,1,0,0:0:0:0:
192,192,20861,1,0,0:0:0:0:
320,192,20945,1,2,0:0:0:0:
448,192,20945,1,0,0:0:0:0:
64,192,21028,1,0,0:0:0:0:
192,192,21195,1,2,0:0:0:0:
320,192,21195,1,0,0:0:0:0:
64,192,21361,1,2,0:0:0:0:
448,192,21361,1,0,0:0:0:0:
192,192,21528,1,0,0:0:0:0:
320,192,21695,1,0,0:0:0:0:
448,192,21861,1,0,0:0:0:0:
320,192,21945,1,0,0:0:0:0:
64,192,22028,1,0,0:0:0:0:
192,192,22111,1,0,0:0:0:0:
320,192,22195,1,0,0:0:0:0:
448,192,22278,1,0,0:0:0:0:
64,192,22361,1,0,0:0:0:0:
192,192,22445,1,0,0:0:0:0:
320,192,22528,1,0,0:0:0:0:
448,192,22611,1,0,0:0:0:0:
64,192,22695,128,0,23028:0:0:0:0:
320,192,23028,1,2,0:0:0:0:
448,192,23028,1,4,0:0:0:0:
192,192,23195,1,0,0:0:0:0:
64,192,23361,1,8,0:0:0:0:
448,192,23361,1,0,0:0:0:0:
320,192,23445,1,0,0:0:0:0:
192,192,23528,1,0,0:0:0:0:
320,192,23611,1,2,0:0:0:0:
448,192,23611,1,0,0:0:0:0:
192,192,23695,1,0,0:0:0:0:
64,192,23778,1,0,0:0:0:0:
320,192,23861,1,2,0:0:0:0:
448,192,23861,1,0,0:0:0:0:
64,192,24028,1,2,0:0:0:0:
192,192,24028,1,0,0:0:0:0:
320,192,24195,1,0,0:0:0:0:
192,192,24278,1,0,0:0:0:0:
64,192,24361,1,2,0:0:0:0:
448,192,24361,1,0,0:0:0:0:
192,192,24528,1,0,0:0:0:0:
320,192,24611,1,0,0:0:0:0:
64,192,24695,1,8,0:0:0:0:
448,192,24695,1,0,0:0:0:0:
192,192,24945,1,2,0:0:0:0:
320,192,24945,1,0,0:0:0:0:
448,192,25028,1,0,0:0:0:0:
64,192,25195,1,2,0:0:0:0:
192,192,25195,1,0,0:0:0:0:
320,192,25361,1,2,0:0:0:0:
448,192,25361,1,0,0:0:0:0:
64,192,25445,1,0,0:0:0:0:
192,192,25528,1,0,0:0:0:0:
320,192,25611,1,0,0:0:0:0:
64,192,25695,1,2,0:0:0:0:
448,192,25695,1,0,0:0:0:0:
192,192,25778,1,0,0:0:0:0:
320,192,25861,1,0,0:0:0:0:
64,192,26028,1,8,0:0:0:0:
192,192,26028,1,0,0:0:0:0:
320,192,26111,1,0,0:0:0:0:
192,192,26195,1,0,0:0:0:0:
64,192,26278,1,2,0:0:0:0:
448,192,26278,1,0,0:0:0:0:
320,192,26361,1,0,0:0:0:0:
192,192,26445,1,0,0:0:0:0:
64,192,26528,1,2,0:0:0:0:
448,192,26528,1,0,0:0:0:0:
192,192,26695,1,2,0:0:0:0:
320,192,26695,1,0,0:0:0:0:
448,192,26861,1,0,0:0:0:0:
64,192,27028,1,2,0:0:0:0:
192,192,27028,1,0,0:0:0:0:
320,192,27195,1,0,0:0:0:0:
64,192,27361,1,8,0:0:0:0:
448,192,27361,1,0,0:0:0:0:
192,192,27528,1,2,0:0:0:0:
320,192,27528,1,0,0:0:0:0:
64,192,27695,1,2,0:0:0:0:
448,192,27695,1,0,0:0:0:0:
320,192,27861,1,0,0:0:0:0:
64,192,28028,1,0,0:0:0:0:
192,192,28111,1,0,0:0:0:0:
320,192,28195,1,0,0:0:0:0:
448,192,28278,128,0,28445:0:0:0:0:
192,192,28528,1,0,0:0:0:0:
320,192,28611,1,0,0:0:0:0:
64,192,28695,1,8,0:0:0:0:
448,192,28695,1,4,0:0:0:0:
192,192,28778,1,0,0:0:0:0:
320,192,28861,1,0,0:0:0:0:
64,192,28945,1,2,0:0:0:0:
192,192,28945,1,0,0:0:0:0:
320,192,29028,1,0,0:0:0:0:
448,192,29111,1,0,0:0:0:0:
64,192,29195,1,2,0:0:0:0:
192,192,29195,1,0,0:0:0:0:
320,192,29361,1,2,0:0:0:0:
448,192,29361,1,0,0:0:0:0:
64,192,29528,1,0,0:0:0:0:
192,192,29611,1,0,0:0:0:0:
320,192,29695,1,2,0:0:0:0:
448,192,29695,1,0,0:0:0:0:
192,192,29778,1,0,0:0:0:0:
320,192,29861,1,0,0:0:0:0:
64,192,30028,1,8,0:0:0:0:
448,192,30028,1,0,0:0:0:0:
192,192,30195,1,0,0:0:0:0:
320,192,30278,1,2,0:0:0:0:
448,192,30278,1,0,0:0:0:0:
64,192,30361,1,0,0:0:0:0:
192,192,30528,1,2,0:0:0:0:
320,192,30528,1,0,0:0:0:0:
64,192,30695,1,2,0:0:0:0:
448,192,30695,1,0,0:0:0:0:
320,192,30778,1,0,0:0:0:0:
192,192,30861,1,0,0:0:0:0:
64,192,30945,1,0,0:0:0:0:
320,192,31028,1,2,0:0:0:0:
448,192,31028,1,0,0:0:0:0:
192,192,31111,1,0,0:0:0:0:
64,192,31195,1,0,0:0:0:0:
320,192,31361,1,8,0:0:0:0:
448,192,31361,1,0,0:0:0:0:
64,192,31445,1,0,0:0:0:0:
192,192,31528,1,0,0:0:0:0:
320,192,31611,1,0,0:0:0:0:
64,192,31695,1,2,0:0:0:0:
448,192,31695,1,0,0:0:0:0:
192,192,31778,1,0,0:0:0:0:
320,192,31861,1,0,0:0:0:0:
64,192,32028,1,0,0:0:0:0:
192,192,32111,1,0,0:0:0:0:
448,192,32195,1,0,0:0:0:50:tom01.wav
320,192,32278,1,0,0:0:0:50:tom02.wav
192,192,32361,1,0,0:0:0:50:tom03.wav
64,192,32445,1,0,0:0:0:50:LR_Drum Rim Fast C#.wav
320,192,32528,1,0,0:0:0:0:
448,192,32611,1,0,0:0:0:50:LR_Drum Rim Fast.wav
64,192,32695,1,0,0:0:0:50:LR_Drum Rim Fast C#.wav
192,192,32778,1,0,0:0:0:0:
448,192,32861,1,0,0:0:0:50:LR_Drum Rim Fast.wav
320,192,32945,1,0,0:0:0:0:
64,192,33028,1,0,0:0:0:50:LR4_SnareKKF.wav
192,192,33028,1,0,0:0:0:0:
448,192,33361,128,0,33695:0:0:0:0:
64,192,33445,1,0,0:0:0:0:
320,192,33528,1,2,0:0:0:0:
192,192,33695,1,8,0:0:0:0:
320,192,33861,1,2,0:0:0:0:
64,192,34028,1,4,0:0:0:0:
192,192,34028,1,8,0:0:0:0:
448,192,34028,1,0,0:0:0:0:
320,192,34195,1,0,0:0:0:0:
64,192,34278,1,2,0:0:0:0:
192,192,34278,1,0,0:0:0:0:
448,192,34361,1,0,0:0:0:0:
192,192,34528,1,2,0:0:0:0:
320,192,34528,1,0,0:0:0:0:
64,192,34695,1,0,0:0:0:0:
320,192,34861,1,2,0:0:0:0:
448,192,34861,1,0,0:0:0:0:
320,192,35028,1,2,0:0:0:0:
448,192,35028,1,0,0:0:0:0:
64,192,35195,1,0,0:0:0:0:
192,192,35361,1,8,0:0:0:0:
320,192,35361,1,0,0:0:0:0:
448,192,35528,1,0,0:0:0:0:
64,192,35695,1,0,0:0:0:0:
192,192,35695,1,0,0:0:0:0:
320,192,35861,1,2,0:0:0:0:
448,192,35861,1,0,0:0:0:0:
320,192,36028,1,2,0:0:0:0:
448,192,36028,1,0,0:0:0:0:
64,192,36111,1,0,0:0:0:0:
192,192,36195,1,0,0:0:0:0:
320,192,36278,1,0,0:0:0:0:
448,192,36361,1,0,0:0:0:0:
64,192,36528,1,2,0:0:0:0:
192,192,36528,1,0,0:0:0:0:
320,192,36695,1,8,0:0:0:0:
448,192,36695,1,0,0:0:0:0:
192,192,36861,1,0,0:0:0:0:
320,192,37028,1,0,0:0:0:0:
64,192,37195,1,2,0:0:0:0:
448,192,37195,1,0,0:0:0:0:
320,192,37361,1,0,0:0:0:0:
64,192,37528,1,2,0:0:0:0:
192,192,37528,1,0,0:0:0:0:
64,192,37695,1,2,0:0:0:0:
192,192,37695,1,0,0:0:0:0:
320,192,37861,1,0,0:0:0:0:
64,192,38028,1,8,0:0:0:0:
448,192,38028,1,0,0:0:0:0:
192,192,38195,1,0,0:0:0:0:
320,192,38278,1,0,0:0:0:0:
64,192,38361,1,0,0:0:0:50:tom01.wav
192,192,38445,1,0,0:0:0:50:tom02.wav
320,192,38528,1,0,0:0:0:50:tom03.wav
448,192,38611,1,0,0:0:0:50:tom04.wav
64,192,38695,1,2,0:0:0:0:
192,192,38695,1,4,0:0:0:0:
448,192,38861,1,0,0:0:0:0:
320,192,38945,1,0,0:0:0:0:
192,192,39028,1,0,0:0:0:0:
64,192,39111,1,0,0:0:0:0:
320,192,39195,1,2,0:0:0:0:
448,192,39195,1,0,0:0:0:0:
64,192,39361,1,0,0:0:0:50:electronic13.wav
192,192,39445,1,0,0:0:0:0:
320,192,39528,1,0,0:0:0:0:
448,192,39611,1,0,0:0:0:0:
64,192,39695,1,2,0:0:0:0:
192,192,39695,1,0,0:0:0:0:
448,192,39778,1,0,0:0:0:0:
320,192,39861,1,0,0:0:0:0:
64,192,40028,1,0,0:0:0:0:
320,192,40195,1,2,0:0:0:0:
448,192,40195,1,0,0:0:0:0:
192,192,40361,1,0,0:0:0:0:
448,192,40528,1,0,0:0:0:0:
64,192,40695,1,0,0:0:0:50:electronic13.wav
192,192,40695,1,0,0:0:0:0:
448,192,40778,1,0,0:0:0:0:
320,192,40861,1,0,0:0:0:0:
192,192,40945,1,0,0:0:0:0:
64,192,41028,1,2,0:0:0:0:
448,192,41028,1,0,0:0:0:0:
192,192,41195,1,0,0:0:0:0:
320,192,41361,1,2,0:0:0:0:
448,192,41361,1,0,0:0:0:0:
64,192,41445,1,0,0:0:0:0:
448,192,41528,1,0,0:0:0:0:
192,192,41611,1,0,0:0:0:0:
320,192,41695,1,0,0:0:0:0:
448,192,41778,1,0,0:0:0:0:
64,192,41861,1,2,0:0:0:0:
192,192,41861,1,0,0:0:0:0:
320,192,42028,1,0,0:0:0:50:electronic13.wav
448,192,42111,1,0,0:0:0:0:
64,192,42195,1,0,0:0:0:0:
192,192,42278,1,0,0:0:0:0:
320,192,42361,1,2,0:0:0:0:
448,192,42361,1,0,0:0:0:0:
192,192,42445,1,0,0:0:0:0:
64,192,42528,1,0,0:0:0:0:
320,192,42695,1,0,0:0:0:0:
64,192,42861,1,2,0:0:0:0:
448,192,42861,1,0,0:0:0:0:
192,192,42945,1,0,0:0:0:0:
320,192,43028,1,2,0:0:0:0:
448,192,43028,1,0,0:0:0:0:
64,192,43111,1,2,0:0:0:0:
192,192,43111,1,0,0:0:0:0:
320,192,43195,1,2,0:0:0:0:
448,192,43195,1,0,0:0:0:0:
64,192,43361,1,0,0:0:0:50:electronic13.wav
192,192,43361,1,0,0:0:0:0:
320,192,43445,1,0,0:0:0:50:tom02.wav
64,192,43528,1,0,0:0:0:50:tom03.wav
192,192,43611,1,0,0:0:0:50:tom04.wav
320,192,43695,1,8,0:0:0:0:
448,192,43695,1,0,0:0:0:0:
192,192,43778,1,0,0:0:0:0:
320,192,43861,1,0,0:0:0:0:
64,192,44028,128,0,44361:0:0:0:0:
448,192,44111,1,0,0:0:0:0:
192,192,44195,1,2,0:0:0:0:
320,192,44361,1,0,0:0:0:50:LR4_SnareKKF.wav
192,192,44528,1,2,0:0:0:0:
64,192,44695,1,4,0:0:0:0:
320,192,44695,1,8,0:0:0:0:
448,192,44695,1,0,0:0:0:0:
192,192,44861,1,0,0:0:0:0:
320,192,44945,1,2,0:0:0:0:
448,192,44945,1,0,0:0:0:0:
64,192,45028,1,0,0:0:0:0:
192,192,45195,1,2,0:0:0:0:
320,192,45195,1,0,0:0:0:0:
448,192,45361,1,0,0:0:0:0:
64,192,45528,1,2,0:0:0:0:
192,192,45528,1,0,0:0:0:0:
64,192,45695,1,2,0:0:0:0:
192,192,45695,1,0,0:0:0:0:
448,192,45861,1,0,0:0:0:0:
192,192,46028,1,8,0:0:0:0:
320,192,46028,1,0,0:0:0:0:
64,192,46195,1,0,0:0:0:0:
448,192,46361,1,0,0:0:0:0:
320,192,46445,1,0,0:0:0:0:
64,192,46528,1,2,0:0:0:0:
192,192,46528,1,0,0:0:0:0:
64,192,46695,1,2,0:0:0:0:
192,192,46695,1,0,0:0:0:0:
448,192,46778,1,0,0:0:0:0:
320,192,46861,1,0,0:0:0:0:
192,192,46945,1,0,0:0:0:0:
64,192,47028,1,0,0:0:0:0:
320,192,47195,1,2,0:0:0:0:
448,192,47195,1,0,0:0:0:0:
64,192,47361,1,8,0:0:0:0:
192,192,47361,1,0,0:0:0:0:
448,192,47528,1,0,0:0:0:0:
192,192,47611,1,2,0:0:0:0:
320,192,47611,1,0,0:0:0:0:
64,192,47695,1,0,0:0:0:0:
320,192,47861,1,2,0:0:0:0:
448,192,47861,1,0,0:0:0:0:
64,192,48028,1,0,0:0:0:0:
192,192,48195,1,2,0:0:0:0:
320,192,48195,1,0,0:0:0:0:
192,192,48361,1,2,0:0:0:0:
320,192,48361,1,0,0:0:0:0:
448,192,48528,1,0,0:0:0:0:
64,192,48695,1,8,0:0:0:0:
192,192,48695,1,0,0:0:0:0:
320,192,48861,1,0,0:0:0:0:
64,192,49028,1,0,0:0:0:0:
192,192,49111,1,0,0:0:0:0:
448,192,49195,1,0,0:0:0:0:
320,192,49278,1,0,0:0:0:0:
64,192,49361,1,2,0:0:0:0:
192,192,49361,1,4,0:0:0:0:
320,192,49611,1,4,0:0:0:0:
448,192,49611,1,2,0:0:0:0:
64,192,49861,1,2,0:0:0:0:
192,192,49861,1,4,0:0:0:0:
448,192,50028,1,0,0:0:0:0:
320,192,50111,1,0,0:0:0:0:
192,192,50195,1,2,0:0:0:0:
64,192,50361,1,4,0:0:0:0:
448,192,50361,1,0,0:0:0:50:LR4_SnareKKF.wav
192,192,50445,1,0,0:0:0:0:
320,192,50528,1,0,0:0:0:0:
192,192,50695,1,0,0:0:0:0:
64,192,50861,1,2,0:0:0:0:
448,192,50861,1,0,0:0:0:0:
320,192,51028,1,0,0:0:0:0:
192,192,51195,1,0,0:0:0:0:
64,192,51361,1,0,0:0:0:50:electronic13.wav
448,192,51361,1,0,0:0:0:0:
320,192,51445,1,0,0:0:0:0:
192,192,51528,1,0,0:0:0:0:
64,192,51611,1,0,0:0:0:0:
448,192,51695,1,0,0:0:0:0:
64,192,51861,1,2,0:0:0:0:
192,192,51861,1,0,0:0:0:0:
64,192,52028,1,2,0:0:0:0:
192,192,52028,1,0,0:0:0:0:
320,192,52195,1,0,0:0:0:0:
64,192,52361,1,0,0:0:0:0:
448,192,52361,1,0,0:0:0:0:
192,192,52528,1,2,0:0:0:0:
320,192,52528,1,0,0:0:0:0:
448,192,52695,1,0,0:0:0:0:
320,192,52778,1,0,0:0:0:0:
64,192,52861,1,0,0:0:0:50:electronic13.wav
192,192,52945,1,0,0:0:0:0:
320,192,53028,1,2,0:0:0:0:
448,192,53028,1,0,0:0:0:0:
64,192,53195,1,0,0:0:0:0:
448,192,53361,1,0,0:0:0:50:electronic13.wav
64,192,53528,1,2,0:0:0:0:
192,192,53528,1,0,0:0:0:0:
320,192,53611,1,0,0:0:0:0:
448,192,53695,1,0,0:0:0:0:
192,192,53778,1,0,0:0:0:0:
64,192,53861,1,0,0:0:0:0:
320,192,54028,1,0,0:0:0:0:
192,192,54195,1,0,0:0:0:0:
64,192,54278,1,0,0:0:0:0:
320,192,54361,1,0,0:0:0:50:LR4_SnareKKF.wav
448,192,54361,1,0,0:0:0:0:
64,192,54445,1,0,0:0:0:0:
192,192,54528,1,0,0:0:0:0:
64,192,54695,128,4,55028:0:0:0:0:
320,192,55028,1,2,0:0:0:0:
448,192,55028,1,4,0:0:0:0:
192,192,55195,1,0,0:0:0:0:
448,192,55361,1,8,0:0:0:0:
192,192,55528,1,2,0:0:0:0:
320,192,55528,1,0,0:0:0:0:
448,192,55695,1,0,0:0:0:0:
320,192,55778,1,0,0:0:0:0:
64,192,55861,1,0,0:0:0:0:
192,192,55945,1,0,0:0:0:0:
320,192,56028,1,2,0:0:0:0:
448,192,56028,1,0,0:0:0:0:
64,192,56111,1,0,0:0:0:0:
192,192,56195,1,0,0:0:0:0:
320,192,56278,1,0,0:0:0:0:
192,192,56445,1,0,0:0:0:0:
320,192,56528,1,2,0:0:0:0:
64,192,56695,1,8,0:0:0:0:
448,192,56695,1,0,0:0:0:0:
320,192,56861,1,0,0:0:0:0:
64,192,57028,128,2,57361:0:0:0:0:
192,192,57028,1,0,0:0:0:0:
448,192,57361,128,0,57695:0:0:0:0:
64,192,57695,1,2,0:0:0:0:
192,192,57695,1,0,0:0:0:0:
320,192,57861,1,0,0:0:0:0:
64,192,58028,1,8,0:0:0:0:
192,192,58195,1,2,0:0:0:0:
320,192,58195,1,0,0:0:0:0:
448,192,58361,1,0,0:0:0:0:
320,192,58445,1,0,0:0:0:0:
64,192,58528,1,0,0:0:0:0:
192,192,58611,1,0,0:0:0:0:
320,192,58695,1,2,0:0:0:0:
448,192,58695,1,0,0:0:0:0:
192,192,58861,1,0,0:0:0:0:
320,192,58945,1,0,0:0:0:0:
64,192,59028,1,0,0:0:0:0:
448,192,59195,1,2,0:0:0:0:
320,192,59278,1,0,0:0:0:0:
64,192,59361,1,8,0:0:0:0:
192,192,59361,1,0,0:0:0:50:tom02.wav
448,192,59445,1,0,0:0:0:50:tom01.wav
64,192,59611,1,0,0:0:0:50:tom01.wav
320,192,59695,1,2,0:0:0:0:
448,192,59695,1,0,0:0:0:0:
192,192,59778,1,0,0:0:0:0:
64,192,59861,1,0,0:0:0:0:
448,192,59861,1,0,0:0:0:0:
320,192,60028,128,0,60195:0:0:0:0:
64,192,60361,1,4,0:0:0:0:
192,192,60361,1,2,0:0:0:0:
448,192,60528,1,0,0:0:0:0:
64,192,60695,1,8,0:0:0:0:
320,192,60861,1,2,0:0:0:0:
448,192,60861,1,0,0:0:0:0:
64,192,61028,1,0,0:0:0:0:
448,192,61195,1,0,0:0:0:0:
192,192,61361,1,2,0:0:0:0:
320,192,61361,128,0,61528:0:0:0:0:
64,192,61695,128,0,61861:0:0:0:0:
320,192,61861,1,2,0:0:0:0:
448,192,61861,1,0,0:0:0:0:
64,192,62028,1,8,0:0:0:0:
192,192,62028,1,0,0:0:0:0:
448,192,62195,1,0,0:0:0:0:
64,192,62361,1,2,0:0:0:0:
192,192,62361,1,0,0:0:0:0:
448,192,62528,1,0,0:0:0:0:
64,192,62695,128,2,62861:0:0:0:0:
192,192,62695,1,0,0:0:0:0:
448,192,62778,1,0,0:0:0:0:
320,192,62861,1,0,0:0:0:0:
192,192,62945,1,0,0:0:0:0:
448,192,63028,128,0,63195:0:0:0:0:
64,192,63195,1,2,0:0:0:0:
192,192,63195,1,0,0:0:0:0:
320,192,63361,1,8,0:0:0:0:
448,192,63361,1,0,0:0:0:0:
64,192,63528,1,0,0:0:0:0:
320,192,63695,1,2,0:0:0:0:
448,192,63695,1,0,0:0:0:0:
64,192,63861,1,0,0:0:0:0:
320,192,64028,1,2,0:0:0:0:
448,192,64028,128,0,64195:0:0:0:0:
64,192,64361,128,2,64528:0:0:0:0:
192,192,64361,1,0,0:0:0:0:
448,192,64445,1,0,0:0:0:0:
320,192,64528,1,0,0:0:0:0:
192,192,64611,1,0,0:0:0:0:
64,192,64695,1,2,0:0:0:0:
448,192,64695,1,0,0:0:0:0:
320,192,64778,1,0,0:0:0:0:
192,192,64861,1,0,0:0:0:0:
64,192,64945,1,0,0:0:0:0:
320,192,65028,1,0,0:0:0:0:
448,192,65028,1,0,0:0:0:0:
64,192,65361,128,0,65695:0:0:0:0:
448,192,65695,1,0,0:0:0:0:
192,192,65778,1,0,0:0:0:0:
448,192,65861,1,0,0:0:0:0:
192,192,65945,1,0,0:0:0:0:
320,192,66028,1,4,0:0:0:0:
448,192,66028,1,8,0:0:0:0:
64,192,66111,1,0,0:0:0:0:
320,192,66195,1,0,0:0:0:0:
64,192,66278,1,0,0:0:0:0:
192,192,66361,1,4,0:0:0:0:
320,192,66361,1,2,0:0:0:0:
448,192,66445,1,0,0:0:0:0:
192,192,66528,1,0,0:0:0:0:
448,192,66611,1,0,0:0:0:0:
192,192,66695,128,0,66861:0:0:0:0:
320,192,66861,1,2,0:0:0:0:
448,192,66861,1,0,0:0:0:0:
64,192,67028,1,2,0:0:0:0:
192,192,67028,1,0,0:0:0:0:
320,192,67111,1,0,0:0:0:0:
192,192,67195,1,0,0:0:0:0:
320,192,67278,1,0,0:0:0:0:
64,192,67361,1,8,0:0:0:0:
448,192,67361,1,0,0:0:0:0:
192,192,67528,1,0,0:0:0:0:
320,192,67611,1,0,0:0:0:0:
448,192,67695,1,0,0:0:0:0:
64,192,67861,1,0,0:0:0:0:
192,192,68028,1,2,0:0:0:0:
320,192,68028,1,0,0:0:0:0:
448,192,68111,1,0,0:0:0:0:
192,192,68195,1,0,0:0:0:0:
448,192,68278,1,0,0:0:0:0:
320,192,68361,1,0,0:0:0:0:
64,192,68445,1,0,0:0:0:0:
320,192,68528,1,0,0:0:0:0:
64,192,68611,1,0,0:0:0:0:
192,192,68695,1,8,0:0:0:0:
320,192,68695,1,0,0:0:0:0:
448,192,68778,1,0,0:0:0:0:
192,192,68861,1,0,0:0:0:0:
448,192,68945,1,0,0:0:0:0:
192,192,69028,1,2,0:0:0:0:
320,192,69028,1,0,0:0:0:0:
64,192,69111,1,0,0:0:0:0:
320,192,69195,1,0,0:0:0:0:
64,192,69278,1,0,0:0:0:0:
320,192,69361,128,0,69528:0:0:0:0:
64,192,69528,1,2,0:0:0:0:
192,192,69528,1,0,0:0:0:0:
320,192,69695,1,2,0:0:0:0:
448,192,69695,1,0,0:0:0:0:
64,192,69778,1,0,0:0:0:0:
192,192,69861,1,0,0:0:0:0:
320,192,69945,1,0,0:0:0:0:
448,192,70028,1,8,0:0:0:0:
64,192,70111,1,0,0:0:0:50:tom01.wav
192,192,70278,1,0,0:0:0:50:tom03.wav
320,192,70361,1,0,0:0:0:50:tom03.wav
448,192,70445,1,0,0:0:0:50:tom04.wav
64,192,70528,1,0,0:0:0:50:tom04.wav
320,192,70695,1,2,0:0:0:0:
448,192,70695,1,0,0:0:0:0:
320,192,70945,1,2,0:0:0:0:
448,192,70945,1,0,0:0:0:0:
64,192,71028,1,0,0:0:0:0:
192,192,71111,1,0,0:0:0:0:
320,192,71195,1,2,0:0:0:0:
448,192,71195,1,0,0:0:0:0:
64,192,71278,1,0,0:0:0:0:
192,192,71361,1,2,0:0:0:0:
320,192,71361,1,0,0:0:0:0:
448,192,71445,1,8,0:0:0:0:
64,192,71528,1,0,0:0:0:0:
192,192,71611,1,2,0:0:0:0:
320,192,71611,1,0,0:0:0:0:
448,192,71695,1,0,0:0:0:0:
64,192,71778,1,0,0:0:0:0:
192,192,71861,1,2,0:0:0:0:
320,192,71861,1,0,0:0:0:0:
448,192,71945,1,0,0:0:0:0:
64,192,72028,1,2,0:0:0:0:
192,192,72028,1,0,0:0:0:0:
320,192,72111,1,0,0:0:0:0:
448,192,72195,1,0,0:0:0:0:
64,192,72278,1,2,0:0:0:0:
192,192,72278,1,0,0:0:0:0:
320,192,72361,128,0,72695:0:0:0:50:electronic13.wav
64,192,72528,1,2,0:0:0:0:
192,192,72528,1,0,0:0:0:0:
192,192,72695,1,2,0:0:0:0:
448,192,72695,1,8,0:0:0:0:
64,192,72778,1,0,0:0:0:0:
320,192,72861,1,0,0:0:0:0:
192,192,72945,1,2,0:0:0:0:
448,192,72945,1,0,0:0:0:0:
64,192,73028,1,0,0:0:0:0:
320,192,73111,1,0,0:0:0:0:
192,192,73195,1,2,0:0:0:0:
448,192,73195,1,0,0:0:0:0:
64,192,73278,1,0,0:0:0:0:
320,192,73361,1,2,0:0:0:0:
448,192,73361,1,0,0:0:0:0:
192,192,73445,1,0,0:0:0:0:
64,192,73528,1,2,0:0:0:0:
448,192,73528,1,0,0:0:0:0:
320,192,73611,1,0,0:0:0:0:
64,192,73695,1,2,0:0:0:0:
192,192,73695,1,0,0:0:0:0:
320,192,73861,1,2,0:0:0:0:
448,192,73861,1,0,0:0:0:0:
64,192,74028,1,2,0:0:0:0:
192,192,74028,1,0,0:0:0:0:
64,192,74195,1,2,0:0:0:0:
192,192,74195,1,0,0:0:0:0:
320,192,74361,1,2,0:0:0:0:
448,192,74361,1,0,0:0:0:0:
320,192,74528,1,2,0:0:0:0:
448,192,74528,1,0,0:0:0:0:
64,192,74695,1,2,0:0:0:0:
192,192,74695,1,0,0:0:0:0:
448,192,75028,1,0,0:0:0:0:
320,192,75111,1,0,0:0:0:0:
64,192,75195,1,0,0:0:0:0:
192,192,75278,1,0,0:0:0:0:
448,192,75361,1,0,0:0:0:0:
320,192,75445,1,0,0:0:0:0:
64,192,75528,1,0,0:0:0:0:
192,192,75611,1,0,0:0:0:0:
320,192,75695,1,8,0:0:0:0:
448,192,75695,1,0,0:0:0:0:
64,192,76028,1,4,0:0:0:0:
192,192,76028,1,2,0:0:0:0:
448,192,76361,1,2,0:0:0:0:
64,192,76528,1,2,0:0:0:0:
320,192,76695,1,2,0:0:0:0:
320,192,77028,1,2,0:0:0:0:
448,192,77361,1,2,0:0:0:0:
64,192,77528,1,2,0:0:0:0:
192,192,77611,1,0,0:0:0:0:
320,192,77695,1,2,0:0:0:0:
64,192,77861,1,2,0:0:0:0:
448,192,78028,1,2,0:0:0:0:
192,192,78195,1,2,0:0:0:0:
448,192,78361,1,0,0:0:0:50:electronic19.wav
64,192,78695,1,0,0:0:0:50:electronic19.wav
448,192,78861,1,0,0:0:0:50:tom01.wav
320,192,78945,1,0,0:0:0:50:tom02.wav
192,192,79028,1,0,0:0:0:50:electronic19.wav
448,192,79195,1,8,0:0:0:0:
64,192,79361,1,0,0:0:0:50:electronic19.wav
448,192,79528,1,0,0:0:0:50:electronic19.wav
64,192,79695,1,0,0:0:0:0:
64,192,80195,1,0,0:0:0:0:
192,192,80278,1,0,0:0:0:0:
320,192,80361,1,2,0:0:0:0:
448,192,80445,1,0,0:0:0:50:LR_Drum Rim Fast.wav
64,192,80528,1,0,0:0:0:50:LR_Drum Rim Fast C#.wav
192,192,80611,1,0,0:0:0:0:
320,192,80695,1,0,0:0:0:50:LR_Drum Rim Fast.wav
448,192,80778,1,0,0:0:0:50:LR_Drum Rim Fast C#.wav
64,192,80861,1,0,0:0:0:0:
192,192,80945,1,0,0:0:0:50:LR_Drum Rim Fast.wav
320,192,81028,1,0,0:0:0:50:LR4_SnareKKF.wav
448,192,81028,1,0,0:0:0:0:
64,192,81361,128,2,81528:0:0:0:0:
192,192,81361,1,4,0:0:0:0:
320,192,81528,1,0,0:0:0:0:
448,192,81695,1,0,0:0:0:0:
192,192,81861,1,0,0:0:0:0:
320,192,82028,1,0,0:0:0:50:electronic13.wav
448,192,82028,128,0,82195:0:0:0:0:
64,192,82195,1,2,0:0:0:0:
192,192,82195,1,0,0:0:0:0:
64,192,82361,1,2,0:0:0:0:
192,192,82361,1,0,0:0:0:0:
320,192,82528,1,0,0:0:0:0:
64,192,82695,1,0,0:0:0:0:
192,192,82778,1,0,0:0:0:0:
320,192,82861,1,2,0:0:0:0:
448,192,82861,1,0,0:0:0:0:
192,192,82945,1,0,0:0:0:0:
320,192,83028,1,2,0:0:0:0:
448,192,83028,1,0,0:0:0:0:
64,192,83111,1,0,0:0:0:0:
192,192,83195,1,0,0:0:0:0:
320,192,83278,1,0,0:0:0:0:
448,192,83361,1,0,0:0:0:50:electronic13.wav
448,192,83528,1,0,0:0:0:0:
192,192,83611,1,0,0:0:0:0:
320,192,83695,1,0,0:0:0:0:
64,192,83778,1,0,0:0:0:0:
192,192,83861,1,0,0:0:0:0:
320,192,84028,1,2,0:0:0:0:
448,192,84028,128,0,84195:0:0:0:0:
192,192,84195,1,0,0:0:0:0:
64,192,84361,1,0,0:0:0:0:
320,192,84528,1,2,0:0:0:0:
448,192,84528,1,0,0:0:0:0:
64,192,84695,128,0,84861:0:0:0:50:electronic13.wav
192,192,84695,1,0,0:0:0:0:
320,192,84861,1,0,0:0:0:0:
64,192,85028,1,2,0:0:0:0:
448,192,85028,1,0,0:0:0:0:
192,192,85111,1,0,0:0:0:0:
320,192,85195,1,0,0:0:0:0:
448,192,85278,1,0,0:0:0:0:
192,192,85361,1,0,0:0:0:0:
64,192,85445,1,0,0:0:0:0:
320,192,85528,1,2,0:0:0:0:
448,192,85528,1,0,0:0:0:0:
192,192,85611,1,0,0:0:0:0:
64,192,85695,1,2,0:0:0:0:
448,192,85695,1,0,0:0:0:0:
320,192,85861,1,0,0:0:0:0:
64,192,86028,1,0,0:0:0:50:electronic13.wav
192,192,86028,1,0,0:0:0:0:
448,192,86195,1,0,0:0:0:0:
320,192,86361,1,0,0:0:0:0:
64,192,86445,1,0,0:0:0:0:
192,192,86528,1,0,0:0:0:0:
64,192,86695,1,2,0:0:0:0:
448,192,86695,1,0,0:0:0:0:
320,192,86861,1,0,0:0:0:0:
192,192,86945,1,0,0:0:0:0:
64,192,87111,1,0,0:0:0:0:
192,192,87195,1,0,0:0:0:0:
320,192,87278,1,0,0:0:0:0:
64,192,87361,1,0,0:0:0:50:electronic13.wav
448,192,87361,1,0,0:0:0:0:
192,192,87528,1,2,0:0:0:0:
320,192,87528,1,0,0:0:0:0:
448,192,87611,1,0,0:0:0:0:
64,192,87695,1,2,0:0:0:0:
192,192,87695,1,0,0:0:0:0:
320,192,87778,1,0,0:0:0:0:
448,192,87861,1,0,0:0:0:0:
64,192,87945,1,0,0:0:0:0:
192,192,88028,1,0,0:0:0:0:
320,192,88195,1,2,0:0:0:0:
448,192,88195,1,0,0:0:0:0:
320,192,88361,1,2,0:0:0:0:
448,192,88361,1,0,0:0:0:0:
192,192,88445,1,0,0:0:0:0:
320,192,88611,1,0,0:0:0:0:
64,192,88695,1,0,0:0:0:50:electronic13.wav
448,192,88695,1,0,0:0:0:0:
320,192,88945,1,0,0:0:0:0:
448,192,89028,1,0,0:0:0:0:
192,192,89111,1,0,0:0:0:0:
64,192,89195,1,0,0:0:0:0:
320,192,89361,1,2,0:0:0:0:
448,192,89361,1,0,0:0:0:0:
192,192,89528,128,0,89695:0:0:0:0:
320,192,89695,128,0,89861:0:0:0:0:
64,192,89861,1,2,0:0:0:0:
448,192,89861,128,0,90028:0:0:0:0:
192,192,90028,128,0,90195:0:0:0:50:electronic13.wav
320,192,90195,128,0,90361:0:0:0:0:
64,192,90361,128,2,90528:0:0:0:0:
448,192,90361,1,0,0:0:0:0:
192,192,90528,128,0,90695:0:0:0:0:
320,192,90695,1,2,0:0:0:0:
448,192,90695,1,0,0:0:0:0:
192,192,90861,1,0,0:0:0:0:
320,192,90945,1,2,0:0:0:0:
448,192,90945,1,0,0:0:0:0:
64,192,91028,1,0,0:0:0:0:
192,192,91111,1,0,0:0:0:0:
320,192,91195,1,2,0:0:0:0:
448,192,91195,1,0,0:0:0:0:
64,192,91278,1,0,0:0:0:0:
192,192,91361,1,0,0:0:0:50:electronic13.wav
320,192,91361,1,0,0:0:0:0:
448,192,91528,1,0,0:0:0:50:tom01.wav
64,192,91695,1,0,0:0:0:50:tom03.wav
192,192,91778,1,0,0:0:0:50:tom03.wav
320,192,91861,1,0,0:0:0:50:tom04.wav
448,192,91945,1,0,0:0:0:50:tom04.wav
64,192,92028,1,2,0:0:0:0:
192,192,92028,1,4,0:0:0:0:
192,192,92278,1,4,0:0:0:0:
320,192,92278,1,2,0:0:0:0:
320,192,92528,1,2,0:0:0:0:
448,192,92528,1,4,0:0:0:0:
64,192,92695,1,0,0:0:0:50:LR4_SnareKKF.wav
192,192,92695,1,0,0:0:0:0:
320,192,92861,1,2,0:0:0:0:
448,192,92861,1,0,0:0:0:0:
320,192,93028,1,2,0:0:0:0:
448,192,93028,1,0,0:0:0:0:
64,192,93195,1,0,0:0:0:0:
448,192,93361,1,0,0:0:0:0:
320,192,93445,1,0,0:0:0:0:
64,192,93528,1,2,0:0:0:0:
192,192,93528,1,0,0:0:0:0:
448,192,93611,1,0,0:0:0:0:
64,192,93695,1,2,0:0:0:0:
192,192,93695,1,0,0:0:0:0:
320,192,93778,1,0,0:0:0:0:
448,192,93861,1,0,0:0:0:0:
64,192,93945,1,0,0:0:0:0:
192,192,94028,1,0,0:0:0:50:electronic13.wav
448,192,94195,1,0,0:0:0:0:
192,192,94278,1,0,0:0:0:0:
320,192,94445,1,0,0:0:0:0:
64,192,94528,1,0,0:0:0:0:
320,192,94695,1,2,0:0:0:0:
448,192,94695,128,0,94861:0:0:0:0:
192,192,94861,1,0,0:0:0:0:
320,192,95195,1,2,0:0:0:0:
448,192,95195,1,0,0:0:0:0:
64,192,95361,128,0,95528:0:0:0:50:electronic13.wav
192,192,95361,1,0,0:0:0:0:
320,192,95528,1,0,0:0:0:0:
64,192,95695,1,2,0:0:0:0:
448,192,95695,1,0,0:0:0:0:
320,192,95778,1,0,0:0:0:0:
192,192,95861,1,0,0:0:0:0:
64,192,95945,1,0,0:0:0:0:
320,192,96028,1,0,0:0:0:0:
448,192,96111,1,0,0:0:0:0:
64,192,96195,1,2,0:0:0:0:
192,192,96195,1,0,0:0:0:0:
320,192,96278,1,0,0:0:0:0:
64,192,96361,1,2,0:0:0:0:
448,192,96361,1,0,0:0:0:0:
192,192,96528,1,0,0:0:0:0:
320,192,96695,1,0,0:0:0:50:electronic13.wav
448,192,96695,1,0,0:0:0:0:
64,192,96861,1,0,0:0:0:0:
192,192,97028,1,0,0:0:0:0:
448,192,97111,1,0,0:0:0:0:
320,192,97195,1,0,0:0:0:0:
64,192,97361,1,2,0:0:0:0:
448,192,97361,1,4,0:0:0:0:
64,192,97611,1,4,0:0:0:0:
448,192,97611,1,2,0:0:0:0:
192,192,97861,1,2,0:0:0:0:
320,192,97861,1,4,0:0:0:0:
64,192,98028,1,8,0:0:0:0:
448,192,98028,1,0,0:0:0:0:
192,192,98195,1,2,0:0:0:0:
320,192,98195,1,0,0:0:0:0:
448,192,98278,1,0,0:0:0:0:
64,192,98445,1,0,0:0:0:0:
192,192,98528,1,2,0:0:0:0:
320,192,98528,1,0,0:0:0:0:
448,192,98695,1,0,0:0:0:0:
64,192,98861,1,2,0:0:0:0:
192,192,98861,1,0,0:0:0:0:
64,192,99028,1,2,0:0:0:0:
192,192,99028,1,0,0:0:0:0:
320,192,99111,1,0,0:0:0:0:
192,192,99278,1,0,0:0:0:0:
320,192,99361,1,0,0:0:0:50:electronic13.wav
448,192,99361,1,0,0:0:0:0:
192,192,99528,1,0,0:0:0:0:
320,192,99611,1,0,0:0:0:0:
64,192,99695,1,0,0:0:0:0:
192,192,99861,1,0,0:0:0:0:
320,192,100028,1,2,0:0:0:0:
448,192,100028,1,0,0:0:0:0:
64,192,100195,1,0,0:0:0:0:
320,192,100278,1,0,0:0:0:0:
448,192,100445,1,0,0:0:0:0:
64,192,100528,1,2,0:0:0:0:
192,192,100528,1,0,0:0:0:0:
320,192,100695,1,0,0:0:0:50:electronic13.wav
448,192,100695,1,0,0:0:0:0:
64,192,100861,1,0,0:0:0:0:
320,192,101028,1,2,0:0:0:0:
448,192,101028,1,0,0:0:0:0:
64,192,101111,1,0,0:0:0:0:
192,192,101195,1,0,0:0:0:0:
64,192,101361,1,0,0:0:0:0:
320,192,101528,1,2,0:0:0:0:
448,192,101528,1,0,0:0:0:0:
64,192,101611,1,0,0:0:0:0:
64,192,101861,1,0,0:0:0:0:
320,192,102028,1,0,0:0:0:0:
64,192,102195,1,0,0:0:0:0:
320,192,102361,1,8,0:0:0:0:
448,192,102361,1,0,0:0:0:50:tom01.wav
64,192,102473,1,0,0:0:0:50:tom02.wav
192,192,102584,1,0,0:0:0:50:tom03.wav
320,192,102695,1,2,0:0:0:0:
448,192,102695,1,4,0:0:0:0:
192,192,102861,1,0,0:0:0:0:
320,192,102945,1,0,0:0:0:0:
64,192,103028,1,0,0:0:0:50:electronic13.wav
448,192,103028,1,0,0:0:0:0:
192,192,103111,1,0,0:0:0:0:
320,192,103195,1,0,0:0:0:0:
64,192,103361,1,0,0:0:0:0:
320,192,103528,1,2,0:0:0:0:
448,192,103528,1,0,0:0:0:0:
192,192,103611,1,0,0:0:0:0:
64,192,103695,1,0,0:0:0:50:electronic13.wav
448,192,103695,1,0,0:0:0:0:
320,192,103778,1,0,0:0:0:0:
192,192,103861,1,0,0:0:0:0:
448,192,104028,1,0,0:0:0:0:
64,192,104195,1,2,0:0:0:0:
192,192,104195,1,0,0:0:0:0:
320,192,104278,1,0,0:0:0:0:
64,192,104361,1,0,0:0:0:50:electronic13.wav
448,192,104361,1,0,0:0:0:0:
192,192,104528,1,0,0:0:0:0:
320,192,104695,1,0,0:0:0:0:
448,192,104861,1,0,0:0:0:0:
64,192,105028,1,0,0:0:0:50:electronic13.wav
192,192,105028,1,0,0:0:0:0:
320,192,105195,1,0,0:0:0:0:
64,192,105361,1,2,0:0:0:0:
448,192,105361,1,0,0:0:0:0:
192,192,105445,1,0,0:0:0:0:
320,192,105528,1,0,0:0:0:0:
448,192,105611,1,0,0:0:0:0:
64,192,105695,1,0,0:0:0:50:electronic13.wav
192,192,105695,1,0,0:0:0:0:
320,192,105861,1,2,0:0:0:0:
448,192,105861,1,0,0:0:0:0:
192,192,106028,1,0,0:0:0:0:
448,192,106195,1,0,0:0:0:0:
64,192,106361,1,0,0:0:0:50:electronic13.wav
192,192,106361,1,0,0:0:0:0:
320,192,106445,1,0,0:0:0:0:
448,192,106528,1,0,0:0:0:0:
64,192,106695,1,0,0:0:0:0:
320,192,106861,1,2,0:0:0:0:
448,192,106861,1,0,0:0:0:0:
192,192,106945,1,0,0:0:0:0:
64,192,107028,1,0,0:0:0:50:electronic13.wav
448,192,107028,1,0,0:0:0:0:
192,192,107195,1,0,0:0:0:0:
448,192,107361,1,0,0:0:0:0:
320,192,107445,1,0,0:0:0:0:
64,192,107528,1,0,0:0:0:0:
192,192,107611,1,0,0:0:0:0:
320,192,107695,1,0,0:0:0:50:electronic13.wav
448,192,107695,1,0,0:0:0:0:
64,192,107778,1,0,0:0:0:0:
192,192,107861,1,0,0:0:0:0:
320,192,107945,1,0,0:0:0:0:
64,192,108028,1,2,0:0:0:0:
448,192,108028,1,0,0:0:0:0:
192,192,108195,1,0,0:0:0:0:
64,192,108278,1,0,0:0:0:0:
320,192,108361,1,0,0:0:0:50:electronic13.wav
448,192,108361,1,0,0:0:0:0:
192,192,108528,1,0,0:0:0:0:
64,192,108695,1,0,0:0:0:0:
320,192,108861,1,2,0:0:0:0:
448,192,108861,1,0,0:0:0:0:
64,192,109028,1,0,0:0:0:50:electronic13.wav
192,192,109028,1,0,0:0:0:0:
448,192,109195,1,0,0:0:0:0:
320,192,109361,1,0,0:0:0:0:
64,192,109528,1,2,0:0:0:0:
192,192,109528,1,0,0:0:0:0:
320,192,109695,1,0,0:0:0:50:electronic13.wav
448,192,109695,1,0,0:0:0:0:
64,192,109861,1,0,0:0:0:0:
192,192,110028,1,0,0:0:0:0:
320,192,110195,1,0,0:0:0:0:
64,192,110361,1,0,0:0:0:50:electronic13.wav
448,192,110361,1,0,0:0:0:0:
192,192,110528,1,0,0:0:0:0:
320,192,110695,1,2,0:0:0:0:
448,192,110695,1,0,0:0:0:0:
192,192,110778,1,0,0:0:0:0:
64,192,110861,1,0,0:0:0:0:
448,192,110945,1,0,0:0:0:0:
192,192,111028,1,0,0:0:0:50:electronic13.wav
320,192,111028,1,0,0:0:0:0:
64,192,111195,1,2,0:0:0:0:
448,192,111195,1,0,0:0:0:0:
320,192,111278,1,0,0:0:0:0:
192,192,111361,1,0,0:0:0:0:
320,192,111528,1,0,0:0:0:0:
64,192,111695,1,0,0:0:0:50:electronic13.wav
448,192,111695,1,0,0:0:0:0:
192,192,111861,1,0,0:0:0:0:
320,192,112028,1,2,0:0:0:0:
448,192,112028,1,0,0:0:0:0:
64,192,112195,1,0,0:0:0:0:
192,192,112278,1,2,0:0:0:0:
320,192,112278,1,0,0:0:0:0:
448,192,112361,1,0,0:0:0:50:electronic13.wav
64,192,112528,1,2,0:0:0:0:
192,192,112528,1,0,0:0:0:0:
448,192,112695,1,0,0:0:0:0:
320,192,112778,1,0,0:0:0:0:
64,192,112861,1,0,0:0:0:50:tom03.wav
192,192,112945,1,0,0:0:0:0:
320,192,113028,1,0,0:0:0:50:tom01.wav
448,192,113111,1,0,0:0:0:50:tom02.wav
320,192,113195,1,0,0:0:0:50:tom03.wav
192,192,113278,1,0,0:0:0:50:tom04.wav
64,192,113361,1,2,0:0:0:0:
448,192,113361,1,4,0:0:0:0:
192,192,113611,1,4,0:0:0:0:
320,192,113611,1,2,0:0:0:0:
64,192,113861,1,2,0:0:0:0:
192,192,113861,1,4,0:0:0:0:
320,192,114028,1,0,0:0:0:50:LR4_SnareKKF.wav
448,192,114028,1,0,0:0:0:0:
64,192,114195,1,2,0:0:0:0:
192,192,114195,1,0,0:0:0:0:
320,192,114278,1,0,0:0:0:0:
448,192,114361,1,0,0:0:0:50:electronic13.wav
64,192,114445,1,0,0:0:0:0:
192,192,114528,1,2,0:0:0:0:
320,192,114528,1,0,0:0:0:0:
448,192,114695,1,0,0:0:0:0:
64,192,114861,1,2,0:0:0:0:
192,192,114861,1,0,0:0:0:0:
320,192,114945,1,0,0:0:0:0:
64,192,115028,1,0,0:0:0:50:electronic13.wav
448,192,115028,1,0,0:0:0:0:
192,192,115195,1,0,0:0:0:0:
320,192,115278,1,0,0:0:0:0:
64,192,115361,1,0,0:0:0:0:
320,192,115528,1,2,0:0:0:0:
448,192,115528,1,0,0:0:0:0:
64,192,115695,1,0,0:0:0:50:electronic13.wav
192,192,115695,1,0,0:0:0:0:
320,192,115861,1,0,0:0:0:0:
64,192,116028,1,2,0:0:0:0:
448,192,116028,1,0,0:0:0:0:
320,192,116111,1,0,0:0:0:0:
192,192,116195,1,0,0:0:0:0:
64,192,116278,1,0,0:0:0:0:
320,192,116361,1,0,0:0:0:50:electronic13.wav
448,192,116361,1,0,0:0:0:0:
64,192,116528,1,2,0:0:0:0:
192,192,116528,1,0,0:0:0:0:
448,192,116695,1,0,0:0:0:0:
320,192,116861,1,0,0:0:0:0:
64,192,117028,1,0,0:0:0:50:electronic13.wav
192,192,117028,1,0,0:0:0:0:
320,192,117111,1,0,0:0:0:0:
448,192,117195,1,0,0:0:0:0:
64,192,117278,1,0,0:0:0:0:
192,192,117361,1,0,0:0:0:0:
320,192,117361,1,0,0:0:0:0:
64,192,117528,1,2,0:0:0:0:
448,192,117528,1,0,0:0:0:0:
320,192,117611,1,0,0:0:0:0:
64,192,117695,1,0,0:0:0:50:electronic13.wav
192,192,117695,1,0,0:0:0:0:
320,192,117861,1,2,0:0:0:0:
448,192,117861,1,0,0:0:0:0:
64,192,118028,1,0,0:0:0:0:
192,192,118111,1,0,0:0:0:0:
448,192,118195,1,0,0:0:0:0:
320,192,118278,1,0,0:0:0:0:
64,192,118361,1,0,0:0:0:0:
192,192,118361,1,0,0:0:0:0:
448,192,118445,1,0,0:0:0:0:
320,192,118528,1,0,0:0:0:0:
192,192,118611,1,0,0:0:0:0:
64,192,118695,1,2,0:0:0:0:
448,192,118695,1,0,0:0:0:0:
192,192,118778,1,2,0:0:0:0:
320,192,118778,1,0,0:0:0:0:
64,192,118861,1,2,0:0:0:0:
448,192,118861,1,0,0:0:0:0:
192,192,118945,1,2,0:0:0:0:
320,192,118945,1,4,0:0:0:0:
64,192,119195,1,2,0:0:0:0:
192,192,119195,1,4,0:0:0:0:
320,192,119361,1,0,0:0:0:50:electronic13.wav
448,192,119361,1,0,0:0:0:0:
192,192,119528,1,2,0:0:0:0:
320,192,119528,1,0,0:0:0:0:
64,192,119695,1,0,0:0:0:50:electronic13.wav
192,192,119695,1,0,0:0:0:0:
320,192,119861,1,4,0:0:0:0:
448,192,119861,1,2,0:0:0:0:
192,192,120028,1,0,0:0:0:0:
320,192,120195,1,2,0:0:0:0:
448,192,120195,1,0,0:0:0:0:
64,192,120278,1,0,0:0:0:0:
192,192,120361,1,0,0:0:0:50:electronic13.wav
448,192,120361,1,0,0:0:0:0:
320,192,120528,1,0,0:0:0:0:
448,192,120611,1,0,0:0:0:0:
64,192,120695,1,0,0:0:0:0:
192,192,120861,1,0,0:0:0:0:
320,192,121028,1,0,0:0:0:50:electronic13.wav
448,192,121028,1,0,0:0:0:0:
64,192,121195,1,0,0:0:0:0:
192,192,121361,1,2,0:0:0:0:
320,192,121361,1,0,0:0:0:0:
448,192,121528,1,0,0:0:0:0:
64,192,121695,1,0,0:0:0:50:electronic13.wav
192,192,121695,1,0,0:0:0:0:
320,192,121861,1,2,0:0:0:0:
448,192,121861,1,0,0:0:0:0:
64,192,121945,1,0,0:0:0:0:
448,192,122028,1,0,0:0:0:0:
192,192,122111,1,0,0:0:0:0:
320,192,122195,1,0,0:0:0:0:
64,192,122278,1,0,0:0:0:0:
320,192,122361,1,2,0:0:0:0:
448,192,122361,1,0,0:0:0:50:electronic13.wav
192,192,122528,1,0,0:0:0:0:
448,192,122695,1,0,0:0:0:0:
64,192,122861,1,2,0:0:0:0:
192,192,122861,1,0,0:0:0:0:
320,192,123028,1,0,0:0:0:50:electronic13.wav
448,192,123028,1,0,0:0:0:0:
64,192,123195,1,0,0:0:0:0:
192,192,123278,1,0,0:0:0:0:
448,192,123361,1,0,0:0:0:0:
320,192,123445,1,0,0:0:0:0:
64,192,123528,1,0,0:0:0:0:
192,192,123611,1,0,0:0:0:0:
320,192,123695,1,0,0:0:0:50:LR4_SnareKKF.wav
448,192,123695,1,0,0:0:0:0:
64,192,123778,1,0,0:0:0:0:
192,192,123861,1,0,0:0:0:0:
320,192,123945,1,0,0:0:0:0:
64,192,124028,1,2,0:0:0:0:
448,192,124028,1,4,0:0:0:0:
192,192,124111,1,2,0:0:0:0:
320,192,124111,1,4,0:0:0:0:
64,192,124195,128,2,124361:0:0:0:0:
448,192,124195,128,4,124361:0:0:0:0:
320,192,124528,1,2,0:0:0:0:
448,192,124528,1,4,0:0:0:0:
64,192,124611,1,2,0:0:0:0:
192,192,124611,1,4,0:0:0:0:
320,192,124695,128,2,124861:0:0:0:0:
448,192,124695,128,4,124861:0:0:0:0:
192,192,124945,128,4,125111:0:0:0:0:
320,192,124945,128,2,125111:0:0:0:0:
64,192,125195,1,2,0:0:0:0:
192,192,125195,1,4,0:0:0:0:
320,192,125278,1,2,0:0:0:0:
448,192,125278,1,4,0:0:0:0:
64,192,125361,1,2,0:0:0:0:
192,192,125361,1,4,0:0:0:0:
192,192,125528,1,2,0:0:0:0:
320,192,125528,1,4,0:0:0:0:
320,192,125695,1,2,0:0:0:0:
448,192,125695,1,4,0:0:0:0:
64,192,125861,128,4,126195:0:0:0:0:
192,192,125861,128,2,126195:0:0:0:0:
448,192,125861,128,8,126195:0:0:0:0:
