osu file format v14

[General]
AudioFilename: audio.mp3
AudioLeadIn: 0
PreviewTime: 10695
Countdown: 0
SampleSet: Soft
StackLeniency: 0.7
Mode: 3
LetterboxInBreaks: 0
SpecialStyle: 0
WidescreenStoryboard: 1

[Editor]
DistanceSpacing: 0.4
BeatDivisor: 4
GridSize: 8
TimelineZoom: 2.3

[Metadata]
Title:OZONE
TitleUnicode:OZONE
Artist:BEMANI Sound Team "Sota Fujimori"
ArtistUnicode:BEMANI Sound Team "Sota Fujimori"
Creator:_Stan
Version:BASIC
Source:SOUND VOLTEX III GRAVITY WARS コナステ
Tags:electronic instrumental sdvx konami rhythm game vivid wave shima rin Otosaka-Yu tofu1222 Suzuki_1112 famoss
BeatmapID:2611191
BeatmapSetID:1204322

[Difficulty]
HPDrainRate:7
CircleSize:4
OverallDifficulty:7
ApproachRate:5
SliderMultiplier:1.4
SliderTickRate:1

[Events]
//Background and Video events
0,0,"bg.jpg",0,0
//Break Periods
//Storyboard Layer 0 (Background)
//Storyboard Layer 1 (Fail)
//Storyboard Layer 2 (Pass)
//Storyboard Layer 3 (Foreground)
//Storyboard Layer 4 (Overlay)
//Storyboard Sound Samples

[TimingPoints]
1362,333.333333333333,4,2,1,50,1,0
34028,-100,4,2,1,50,0,1
44028,-100,4,2,1,50,0,0
44695,-100,4,2,1,50,0,1
49361,-100,4,2,1,50,0,0
50361,-100,4,2,1,50,0,1
54695,-100,4,2,1,50,0,0
81361,-100,4,2,1,50,0,1
92028,-100,4,2,1,50,0,0
92695,-100,4,2,1,50,0,1
97361,-100,4,2,1,50,0,0
98028,-100,4,2,1,50,0,1
102695,-100,4,2,1,50,0,0

[HitObjects]
64,192,1362,5,0,0:0:0:50:tom04.wav
448,192,1362,1,0,0:0:0:0:
192,192,1695,1,0,0:0:0:0:
320,192,2028,128,0,2361:0:0:0:0:
64,192,2361,1,0,0:0:0:0:
448,192,2528,1,0,0:0:0:0:
192,192,2695,128,0,3028:0:0:0:50:tom04.wav
320,192,3028,128,0,3361:0:0:0:0:
64,192,3361,1,0,0:0:0:0:
192,192,3528,1,0,0:0:0:0:
448,192,3695,1,0,0:0:0:50:tom03.wav
64,192,4028,1,0,0:0:0:50:tom03.wav
64,192,4361,128,0,4695:0:0:0:0:
448,192,4695,1,0,0:0:0:0:
192,192,4861,1,0,0:0:0:0:
320,192,5028,1,0,0:0:0:0:
64,192,5361,128,0,5695:0:0:0:50:tom03.wav
320,192,5695,128,0,6028:0:0:0:0:
448,192,6028,128,0,6361:0:0:0:50:tom02.wav
192,192,6361,128,0,6695:0:0:0:0:
64,192,6695,1,0,0:0:0:50:tom03.wav
320,192,7028,1,0,0:0:0:0:
448,192,7361,128,0,7695:0:0:0:50:tom03.wav
64,192,7695,1,0,0:0:0:0:
192,192,7861,1,0,0:0:0:0:
320,192,8028,128,0,8361:0:0:0:50:tom02.wav
192,192,8361,128,0,8695:0:0:0:0:
448,192,8695,1,0,0:0:0:50:tom02.wav
320,192,8861,1,0,0:0:0:0:
64,192,9028,1,0,0:0:0:0:
192,192,9361,128,0,9695:0:0:0:50:tom02.wav
320,192,9695,128,0,10028:0:0:0:0:
64,192,10028,1,2,0:0:0:0:
448,192,10195,1,2,0:0:0:0:
192,192,10361,1,2,0:0:0:0:
320,192,10528,1,2,0:0:0:0:
448,192,10695,128,0,11028:0:0:0:0:
192,192,11028,1,0,0:0:0:0:
64,192,11028,1,0,0:0:0:50:electronic19.wav
320,192,11361,128,0,11695:0:0:0:0:
448,192,11695,1,0,0:0:0:0:
64,192,11695,1,8,0:0:0:0:
192,192,12028,128,0,12361:0:0:0:0:
448,192,12361,1,2,0:0:0:0:
64,192,12361,1,4,0:0:0:0:
192,192,12695,1,2,0:0:0:0:
192,192,12945,1,2,0:0:0:0:
192,192,13195,1,2,0:0:0:0:
448,192,13361,1,2,0:0:0:0:
64,192,13695,1,2,0:0:0:0:
320,192,14028,1,2,0:0:0:0:
320,192,14278,1,2,0:0:0:0:
320,192,14528,1,2,0:0:0:0:
64,192,14695,1,2,0:0:0:0:
192,192,15028,1,2,0:0:0:0:
448,192,15361,1,2,0:0:0:0:
320,192,15611,1,2,0:0:0:0:
192,192,15861,1,2,0:0:0:0:
448,192,16028,1,2,0:0:0:0:
320,192,16361,1,2,0:0:0:0:
64,192,16695,1,2,0:0:0:0:
192,192,16945,1,2,0:0:0:0:
320,192,17195,1,2,0:0:0:0:
64,192,17361,128,2,17695:0:0:0:0:
448,192,17695,128,2,18028:0:0:0:0:
192,192,18028,1,2,0:0:0:0:
320,192,18278,1,2,0:0:0:0:
192,192,18528,1,2,0:0:0:0:
448,192,18695,128,2,19028:0:0:0:0:
64,192,19028,128,2,19361:0:0:0:0:
448,192,20028,1,4,0:0:0:0:
320,192,20028,1,2,0:0:0:0:
64,192,20361,1,2,0:0:0:0:
192,192,20528,1,2,0:0:0:0:
448,192,20695,1,2,0:0:0:0:
320,192,20945,1,2,0:0:0:0:
192,192,21195,1,2,0:0:0:0:
64,192,21361,128,2,21695:0:0:0:0:
320,192,21695,128,0,22028:0:0:0:0:
64,192,22028,128,0,22361:0:0:0:0:
448,192,22361,1,0,0:0:0:0:
192,192,22695,128,0,23028:0:0:0:0:
448,192,23028,1,6,0:0:0:0:
320,192,23361,1,0,0:0:0:0:
64,192,23361,1,8,0:0:0:0:
448,192,23611,1,2,0:0:0:0:
448,192,23861,1,2,0:0:0:0:
64,192,24028,1,2,0:0:0:0:
320,192,24361,1,2,0:0:0:0:
448,192,24695,1,0,0:0:0:0:
192,192,24695,1,8,0:0:0:0:
64,192,24945,1,2,0:0:0:0:
64,192,25195,1,2,0:0:0:0:
320,192,25361,1,2,0:0:0:0:
192,192,25695,1,2,0:0:0:0:
448,192,26028,1,0,0:0:0:0:
64,192,26028,1,8,0:0:0:0:
320,192,26278,1,2,0:0:0:0:
320,192,26528,1,2,0:0:0:0:
64,192,26695,1,2,0:0:0:0:
448,192,27028,1,2,0:0:0:0:
192,192,27361,1,0,0:0:0:0:
64,192,27361,1,8,0:0:0:0:
320,192,27528,1,2,0:0:0:0:
448,192,27695,1,2,0:0:0:0:
64,192,28528,1,0,0:0:0:0:
448,192,28695,1,4,0:0:0:0:
320,192,28695,1,8,0:0:0:0:
192,192,28945,1,2,0:0:0:0:
192,192,29195,1,2,0:0:0:0:
448,192,29361,1,2,0:0:0:0:
320,192,29695,1,2,0:0:0:0:
192,192,30028,1,0,0:0:0:0:
64,192,30028,1,8,0:0:0:0:
448,192,30278,1,2,0:0:0:0:
448,192,30528,1,2,0:0:0:0:
64,192,30695,1,2,0:0:0:0:
192,192,31028,1,2,0:0:0:0:
448,192,31361,1,0,0:0:0:0:
320,192,31361,1,8,0:0:0:0:
192,192,31695,1,2,0:0:0:0:
64,192,32028,128,0,32361:0:0:0:0:
448,192,32361,128,0,32695:0:0:0:50:tom03.wav
192,192,32695,1,0,0:0:0:50:LR_Drum Rim Fast C#.wav
320,192,32861,1,0,0:0:0:50:LR_Drum Rim Fast.wav
448,192,33028,1,0,0:0:0:0:
64,192,33028,1,0,0:0:0:50:LR4_SnareKKF.wav
192,192,33361,128,0,33695:0:0:0:0:
320,192,33695,1,8,0:0:0:0:
448,192,34028,1,8,0:0:0:0:
64,192,34028,1,4,0:0:0:0:
192,192,34361,1,0,0:0:0:0:
320,192,34528,1,2,0:0:0:0:
448,192,34695,1,0,0:0:0:0:
64,192,34861,1,2,0:0:0:0:
448,192,35028,1,2,0:0:0:0:
64,192,35361,1,8,0:0:0:0:
320,192,35528,1,0,0:0:0:0:
192,192,35695,1,0,0:0:0:0:
448,192,35861,1,2,0:0:0:0:
64,192,36028,128,2,36361:0:0:0:0:
320,192,36361,128,0,36695:0:0:0:0:
448,192,36695,1,8,0:0:0:0:
192,192,36861,1,0,0:0:0:0:
64,192,37028,128,0,37361:0:0:0:0:
320,192,37361,1,0,0:0:0:0:
448,192,37528,1,2,0:0:0:0:
448,192,37861,1,0,0:0:0:0:
192,192,38028,1,8,0:0:0:0:
64,192,38195,1,0,0:0:0:0:
64,192,38528,1,0,0:0:0:50:tom03.wav
448,192,38695,1,6,0:0:0:0:
192,192,39028,1,0,0:0:0:0:
448,192,39195,1,2,0:0:0:0:
64,192,39528,1,0,0:0:0:0:
448,192,39695,1,2,0:0:0:0:
192,192,40028,1,0,0:0:0:0:
448,192,40195,1,2,0:0:0:0:
320,192,40528,1,0,0:0:0:0:
448,192,40695,1,0,0:0:0:0:
64,192,40695,1,0,0:0:0:50:electronic13.wav
192,192,41028,1,2,0:0:0:0:
448,192,41361,128,2,41695:0:0:0:0:
64,192,41695,128,0,42028:0:0:0:0:
320,192,42028,1,0,0:0:0:50:electronic13.wav
192,192,42195,1,0,0:0:0:0:
448,192,42528,1,0,0:0:0:0:
64,192,42695,128,0,43028:0:0:0:0:
448,192,43028,128,2,43361:0:0:0:0:
192,192,43361,1,0,0:0:0:50:electronic13.wav
64,192,43528,1,0,0:0:0:50:tom03.wav
320,192,43695,1,8,0:0:0:0:
192,192,43861,1,0,0:0:0:0:
448,192,44028,128,0,44361:0:0:0:0:
64,192,44361,1,0,0:0:0:50:LR4_SnareKKF.wav
320,192,44695,1,8,0:0:0:0:
192,192,44695,1,4,0:0:0:0:
448,192,45028,1,0,0:0:0:0:
64,192,45195,1,2,0:0:0:0:
320,192,45361,1,0,0:0:0:0:
192,192,45528,1,2,0:0:0:0:
448,192,45695,128,2,46028:0:0:0:0:
64,192,46028,1,8,0:0:0:0:
320,192,46195,1,0,0:0:0:0:
192,192,46361,1,0,0:0:0:0:
448,192,46528,1,2,0:0:0:0:
64,192,46695,128,2,47028:0:0:0:0:
320,192,47028,128,0,47361:0:0:0:0:
448,192,47361,1,8,0:0:0:0:
64,192,47528,1,0,0:0:0:0:
192,192,47695,128,0,48028:0:0:0:0:
448,192,48028,1,0,0:0:0:0:
64,192,48195,1,2,0:0:0:0:
64,192,48528,1,0,0:0:0:0:
320,192,48695,1,8,0:0:0:0:
192,192,48861,1,0,0:0:0:0:
192,192,49195,1,0,0:0:0:0:
448,192,49361,1,6,0:0:0:0:
320,192,49611,1,6,0:0:0:0:
192,192,49861,1,6,0:0:0:0:
64,192,50028,128,0,50361:0:0:0:0:
448,192,50361,1,4,0:0:0:0:
192,192,50695,1,0,0:0:0:0:
320,192,50861,1,2,0:0:0:0:
64,192,51028,128,0,51361:0:0:0:0:
448,192,51361,1,0,0:0:0:50:electronic13.wav
192,192,51695,1,0,0:0:0:0:
320,192,51861,1,2,0:0:0:0:
64,192,52028,128,2,52361:0:0:0:0:
448,192,52361,128,0,52695:0:0:0:0:
192,192,52695,1,0,0:0:0:0:
320,192,52861,1,0,0:0:0:50:electronic13.wav
64,192,53195,1,0,0:0:0:0:
448,192,53361,128,0,53695:0:0:0:50:electronic13.wav
192,192,53695,128,0,54028:0:0:0:0:
320,192,54028,1,0,0:0:0:0:
64,192,54195,1,0,0:0:0:0:
448,192,54361,1,0,0:0:0:50:LR4_SnareKKF.wav
320,192,54528,1,0,0:0:0:0:
192,192,54695,128,4,55028:0:0:0:0:
64,192,55028,1,6,0:0:0:0:
448,192,55195,1,0,0:0:0:0:
64,192,55361,1,8,0:0:0:0:
448,192,55528,1,2,0:0:0:0:
192,192,56028,128,2,56528:0:0:0:0:
448,192,56528,1,2,0:0:0:0:
320,192,56695,1,8,0:0:0:0:
192,192,56861,1,0,0:0:0:0:
64,192,57028,128,2,57361:0:0:0:0:
448,192,57361,128,0,57695:0:0:0:0:
320,192,57695,1,2,0:0:0:0:
64,192,57861,1,0,0:0:0:0:
320,192,58028,1,8,0:0:0:0:
64,192,58195,1,2,0:0:0:0:
448,192,58695,128,2,59195:0:0:0:0:
64,192,59195,1,2,0:0:0:0:
320,192,59361,1,8,0:0:0:0:
192,192,59695,1,2,0:0:0:0:
64,192,60028,128,0,60361:0:0:0:0:
448,192,60361,1,6,0:0:0:0:
192,192,60528,1,0,0:0:0:0:
448,192,60695,1,8,0:0:0:0:
192,192,60861,1,2,0:0:0:0:
448,192,61028,128,0,61361:0:0:0:0:
64,192,61361,128,2,61695:0:0:0:0:
192,192,61695,128,0,62028:0:0:0:0:
320,192,62028,128,8,62361:0:0:0:0:
448,192,62361,1,2,0:0:0:0:
64,192,62695,128,2,63028:0:0:0:0:
448,192,63028,128,0,63361:0:0:0:0:
192,192,63361,1,8,0:0:0:0:
320,192,63528,1,0,0:0:0:0:
64,192,63695,1,2,0:0:0:0:
448,192,63861,1,0,0:0:0:0:
192,192,64028,1,2,0:0:0:0:
192,192,64361,1,2,0:0:0:0:
192,192,64695,1,2,0:0:0:0:
448,192,65028,1,0,0:0:0:0:
64,192,65028,1,0,0:0:0:0:
320,192,65361,128,0,65695:0:0:0:0:
448,192,65695,1,0,0:0:0:0:
64,192,66028,1,12,0:0:0:0:
192,192,66361,1,6,0:0:0:0:
448,192,66861,1,2,0:0:0:0:
320,192,67028,1,2,0:0:0:0:
64,192,67361,1,8,0:0:0:0:
448,192,67695,128,0,68028:0:0:0:0:
64,192,68028,1,2,0:0:0:0:
320,192,68695,1,8,0:0:0:0:
192,192,69028,1,2,0:0:0:0:
448,192,69528,1,2,0:0:0:0:
64,192,69695,1,2,0:0:0:0:
320,192,70028,128,8,70361:0:0:0:0:
192,192,70361,128,0,70695:0:0:0:50:tom03.wav
448,192,70695,1,2,0:0:0:0:
320,192,70945,1,2,0:0:0:0:
448,192,71195,1,2,0:0:0:0:
64,192,71361,1,2,0:0:0:0:
192,192,71611,1,2,0:0:0:0:
64,192,71861,1,2,0:0:0:0:
448,192,72028,1,2,0:0:0:0:
64,192,72278,1,2,0:0:0:0:
448,192,72528,1,2,0:0:0:0:
192,192,72695,1,10,0:0:0:0:
320,192,72945,1,2,0:0:0:0:
192,192,73195,1,2,0:0:0:0:
448,192,73361,128,2,73695:0:0:0:0:
64,192,73695,128,2,74028:0:0:0:0:
448,192,74028,1,2,0:0:0:0:
320,192,74195,1,2,0:0:0:0:
192,192,74361,1,2,0:0:0:0:
64,192,74528,1,2,0:0:0:0:
448,192,74695,1,2,0:0:0:0:
64,192,75028,128,0,75695:0:0:0:0:
448,192,75695,1,0,0:0:0:0:
320,192,75695,1,8,0:0:0:0:
192,192,76028,128,6,76695:0:0:0:0:
448,192,76695,1,2,0:0:0:0:
64,192,77361,1,2,0:0:0:0:
448,192,78028,1,2,0:0:0:0:
64,192,78695,1,0,0:0:0:50:electronic19.wav
320,192,79028,1,0,0:0:0:50:electronic19.wav
192,192,79361,1,0,0:0:0:50:electronic19.wav
448,192,79695,1,0,0:0:0:0:
64,192,80195,128,0,80695:0:0:0:0:
448,192,80695,128,0,81028:0:0:0:50:LR_Drum Rim Fast.wav
320,192,81028,1,0,0:0:0:0:
192,192,81028,1,0,0:0:0:50:LR4_SnareKKF.wav
64,192,81361,1,6,0:0:0:0:
448,192,82028,1,0,0:0:0:0:
320,192,82028,1,0,0:0:0:50:electronic13.wav
192,192,82195,1,2,0:0:0:0:
64,192,82361,1,2,0:0:0:0:
448,192,82861,1,2,0:0:0:0:
64,192,83028,1,2,0:0:0:0:
448,192,83361,1,0,0:0:0:0:
320,192,83361,1,0,0:0:0:50:electronic13.wav
64,192,84028,1,2,0:0:0:0:
192,192,84528,1,2,0:0:0:0:
448,192,84695,1,0,0:0:0:0:
320,192,84695,1,0,0:0:0:50:electronic13.wav
64,192,85028,1,2,0:0:0:0:
192,192,85528,1,2,0:0:0:0:
320,192,85695,1,2,0:0:0:0:
448,192,86028,1,0,0:0:0:0:
64,192,86028,1,0,0:0:0:50:electronic13.wav
192,192,86695,1,2,0:0:0:0:
448,192,87361,1,0,0:0:0:0:
320,192,87361,1,0,0:0:0:50:electronic13.wav
192,192,87528,1,2,0:0:0:0:
64,192,87695,1,2,0:0:0:0:
320,192,88195,1,2,0:0:0:0:
192,192,88361,1,2,0:0:0:0:
448,192,88695,1,0,0:0:0:0:
64,192,88695,1,0,0:0:0:50:electronic13.wav
320,192,89361,1,2,0:0:0:0:
64,192,89861,1,2,0:0:0:0:
448,192,90028,1,0,0:0:0:0:
192,192,90028,1,0,0:0:0:50:electronic13.wav
320,192,90361,1,2,0:0:0:0:
64,192,90695,1,2,0:0:0:0:
192,192,90945,1,2,0:0:0:0:
320,192,91195,1,2,0:0:0:0:
448,192,91361,1,0,0:0:0:0:
64,192,91361,1,0,0:0:0:50:electronic13.wav
320,192,92028,1,6,0:0:0:0:
192,192,92278,1,6,0:0:0:0:
320,192,92528,1,6,0:0:0:0:
448,192,92695,1,0,0:0:0:0:
64,192,92695,1,0,0:0:0:50:LR4_SnareKKF.wav
192,192,92861,1,2,0:0:0:0:
320,192,93028,1,2,0:0:0:0:
192,192,93528,1,2,0:0:0:0:
64,192,93695,1,2,0:0:0:0:
448,192,94028,1,0,0:0:0:0:
320,192,94028,1,0,0:0:0:50:electronic13.wav
192,192,94695,1,2,0:0:0:0:
320,192,95195,1,2,0:0:0:0:
448,192,95361,1,0,0:0:0:0:
64,192,95361,1,0,0:0:0:50:electronic13.wav
192,192,95695,1,2,0:0:0:0:
448,192,96195,1,2,0:0:0:0:
64,192,96361,1,2,0:0:0:0:
320,192,96695,1,0,0:0:0:0:
192,192,96695,1,0,0:0:0:50:electronic13.wav
64,192,97361,1,6,0:0:0:0:
448,192,97611,1,6,0:0:0:0:
320,192,97861,1,6,0:0:0:0:
192,192,98028,1,0,0:0:0:0:
64,192,98028,1,8,0:0:0:0:
448,192,98195,1,2,0:0:0:0:
320,192,98528,1,2,0:0:0:0:
192,192,98861,1,2,0:0:0:0:
448,192,99028,1,2,0:0:0:0:
320,192,99361,1,0,0:0:0:0:
64,192,99361,1,0,0:0:0:50:electronic13.wav
448,192,100028,1,2,0:0:0:0:
320,192,100528,1,2,0:0:0:0:
192,192,100695,1,0,0:0:0:0:
64,192,100695,1,0,0:0:0:50:electronic13.wav
448,192,101028,1,2,0:0:0:0:
320,192,101528,1,2,0:0:0:0:
64,192,102028,128,0,102361:0:0:0:0:
448,192,102361,128,8,102695:0:0:0:0:
192,192,102695,1,6,0:0:0:0:
448,192,103028,1,0,0:0:0:0:
64,192,103028,1,0,0:0:0:50:electronic13.wav
320,192,103528,1,2,0:0:0:0:
448,192,103695,1,0,0:0:0:0:
64,192,103695,1,0,0:0:0:50:electronic13.wav
192,192,104195,1,2,0:0:0:0:
448,192,104361,1,0,0:0:0:0:
64,192,104361,1,0,0:0:0:50:electronic13.wav
320,192,105028,1,0,0:0:0:0:
192,192,105028,1,0,0:0:0:50:electronic13.wav
448,192,105361,1,2,0:0:0:0:
192,192,105695,1,0,0:0:0:0:
64,192,105695,1,0,0:0:0:50:electronic13.wav
448,192,105861,1,2,0:0:0:0:
192,192,106361,1,0,0:0:0:0:
64,192,106361,1,0,0:0:0:50:electronic13.wav
320,192,106861,1,2,0:0:0:0:
192,192,107028,1,0,0:0:0:0:
64,192,107028,1,0,0:0:0:50:electronic13.wav
448,192,107695,1,0,0:0:0:0:
320,192,107695,1,0,0:0:0:50:electronic13.wav
64,192,108028,1,2,0:0:0:0:
448,192,108361,1,0,0:0:0:0:
192,192,108361,1,0,0:0:0:50:electronic13.wav
320,192,108861,1,2,0:0:0:0:
448,192,109028,1,0,0:0:0:0:
192,192,109028,1,0,0:0:0:50:electronic13.wav
64,192,109528,1,2,0:0:0:0:
448,192,109695,1,0,0:0:0:0:
192,192,109695,1,0,0:0:0:50:electronic13.wav
320,192,110361,1,0,0:0:0:0:
64,192,110361,1,0,0:0:0:50:electronic13.wav
192,192,110695,1,2,0:0:0:0:
448,192,111028,1,0,0:0:0:0:
320,192,111028,1,0,0:0:0:50:electronic13.wav
64,192,111195,1,2,0:0:0:0:
448,192,111695,1,0,0:0:0:0:
320,192,111695,1,0,0:0:0:50:electronic13.wav
64,192,112028,1,2,0:0:0:0:
192,192,112278,1,2,0:0:0:0:
320,192,112528,1,2,0:0:0:0:
448,192,112695,128,0,113028:0:0:0:0:
64,192,113028,128,0,113361:0:0:0:50:tom01.wav
448,192,113361,1,6,0:0:0:0:
320,192,113611,1,6,0:0:0:0:
192,192,113861,1,6,0:0:0:0:
448,192,114028,1,0,0:0:0:50:LR4_SnareKKF.wav
64,192,114195,1,2,0:0:0:0:
320,192,114361,1,0,0:0:0:50:electronic13.wav
192,192,114528,1,2,0:0:0:0:
320,192,114861,1,2,0:0:0:0:
448,192,115028,1,0,0:0:0:0:
64,192,115028,1,0,0:0:0:50:electronic13.wav
192,192,115528,1,2,0:0:0:0:
448,192,115695,1,0,0:0:0:0:
64,192,115695,1,0,0:0:0:50:electronic13.wav
320,192,116028,1,2,0:0:0:0:
192,192,116361,1,0,0:0:0:0:
64,192,116361,1,0,0:0:0:50:electronic13.wav
448,192,116528,1,2,0:0:0:0:
192,192,117028,1,0,0:0:0:0:
64,192,117028,1,0,0:0:0:50:electronic13.wav
320,192,117528,1,2,0:0:0:0:
448,192,117695,1,0,0:0:0:0:
64,192,117695,1,0,0:0:0:50:electronic13.wav
192,192,117861,1,2,0:0:0:0:
320,192,118028,128,0,118361:0:0:0:0:
192,192,118361,128,0,118695:0:0:0:0:
64,192,118695,1,2,0:0:0:0:
448,192,118945,1,6,0:0:0:0:
64,192,119195,1,6,0:0:0:0:
448,192,119361,1,0,0:0:0:50:electronic13.wav
192,192,119528,1,2,0:0:0:0:
320,192,119695,1,0,0:0:0:50:electronic13.wav
64,192,119861,1,6,0:0:0:0:
448,192,120195,1,2,0:0:0:0:
192,192,120361,1,0,0:0:0:0:
64,192,120361,1,0,0:0:0:50:electronic13.wav
448,192,121028,1,0,0:0:0:0:
320,192,121028,1,0,0:0:0:50:electronic13.wav
64,192,121361,1,2,0:0:0:0:
448,192,121695,1,0,0:0:0:0:
192,192,121695,1,0,0:0:0:50:electronic13.wav
64,192,121861,1,2,0:0:0:0:
320,192,122361,1,2,0:0:0:0:
192,192,122861,1,2,0:0:0:0:
448,192,123028,1,0,0:0:0:0:
64,192,123028,1,0,0:0:0:50:electronic13.wav
320,192,123361,128,0,123695:0:0:0:0:
192,192,123695,1,0,0:0:0:50:LR4_SnareKKF.wav
448,192,124028,1,4,0:0:0:0:
64,192,124028,1,2,0:0:0:0:
320,192,124528,1,4,0:0:0:0:
192,192,124528,1,2,0:0:0:0:
448,192,124945,1,2,0:0:0:0:
64,192,124945,1,4,0:0:0:0:
320,192,125195,1,4,0:0:0:0:
192,192,125195,1,2,0:0:0:0:
64,192,125361,1,6,0:0:0:0:
448,192,125528,1,6,0:0:0:0:
192,192,125695,1,6,0:0:0:0:
320,192,125861,1,14,0:0:0:0:
