osu file format v14

[General]
AudioFilename: audio.mp3
AudioLeadIn: 0
PreviewTime: 80164
Countdown: 0
SampleSet: Normal
StackLeniency: 0.7
Mode: 1
LetterboxInBreaks: 0
WidescreenStoryboard: 1

[Editor]
Bookmarks: 12081,22748,34081,54748,76081,81414,102748,114081,124081
DistanceSpacing: 0.7
BeatDivisor: 4
GridSize: 32
TimelineZoom: 2.3

[Metadata]
Title:OZONE
TitleUnicode:OZONE
Artist:BEMANI Sound Team "Sota Fujimori"
ArtistUnicode:BEMANI Sound Team "Sota Fujimori"
Creator:Cychloryn
Version:Kantan
Source:SOUND VOLTEX III GRAVITY WARS
Tags:electronic instrumental sdvx konami rhythm game VIVID WAVE
BeatmapID:2366206
BeatmapSetID:1131154

[Difficulty]
HPDrainRate:8
CircleSize:2
OverallDifficulty:3
ApproachRate:10
SliderMultiplier:1.4
SliderTickRate:1

[Events]
//Background and Video events
0,0,"sky.jpg",0,12
//Break Periods
//Storyboard Layer 0 (Background)
//Storyboard Layer 1 (Fail)
//Storyboard Layer 2 (Pass)
//Storyboard Layer 3 (Foreground)
//Storyboard Layer 4 (Overlay)
//Storyboard Sound Samples

[TimingPoints]
1415,333.333333333333,4,1,0,65,1,0
1415,-105.263157894737,4,1,0,65,0,0
11081,-104.166666666667,4,1,0,65,0,0
11748,-103.092783505155,4,1,0,65,0,0
12414,-102.040816326531,4,1,0,75,0,0
12748,-100,4,1,0,75,0,0
34081,-100,4,1,0,80,0,1
44081,-100,4,1,0,80,0,0
44748,-100,4,1,0,80,0,1
49414,-100,4,1,0,80,0,0
50414,-100,4,1,0,80,0,1
54748,-100,4,1,0,75,0,0
65414,-100,4,1,0,75,0,0
76081,-103.092783505155,4,1,0,75,0,0
76748,-105.263157894737,4,1,0,65,0,0
80414,-106.382978723404,4,1,0,65,0,0
80748,-104.166666666667,4,1,0,65,0,0
81081,-102.040816326531,4,1,0,65,0,0
81414,-100,4,1,0,90,0,1
92081,-100,4,1,0,90,0,0
92748,-100,4,1,0,90,0,1
97414,-100,4,1,0,90,0,0
98081,-100,4,1,0,90,0,1
102081,-101.010101010101,4,1,0,90,0,1
102414,-103.092783505155,4,1,0,90,0,1
102748,-105.263157894737,4,1,0,70,0,0
114081,-100,4,1,0,75,0,0
123748,-98.0392156862745,4,1,0,75,0,0
124081,-95.2380952380952,4,1,0,85,0,0

[HitObjects]
256,192,1415,5,0,0:0:0:0:
256,192,2081,1,8,0:0:0:0:
256,192,2748,1,0,0:0:0:0:
256,192,3081,1,8,0:0:0:0:
256,192,3414,1,8,0:0:0:0:
256,192,4081,1,0,0:0:0:0:
256,192,4414,1,0,0:0:0:0:
256,192,4748,1,0,0:0:0:0:
256,192,5414,1,8,0:0:0:0:
256,192,6081,1,0,0:0:0:0:
256,192,7414,1,8,0:0:0:0:
256,192,7748,1,0,0:0:0:0:
256,192,8081,1,0,0:0:0:0:
256,192,8748,1,8,0:0:0:0:
256,192,9414,1,0,0:0:0:0:
256,192,9748,1,0,0:0:0:0:
256,192,10081,1,8,0:0:0:0:
256,192,10414,1,8,0:0:0:0:
256,192,11081,1,12,0:0:0:0:
256,192,11748,1,4,0:0:0:0:
256,192,12414,5,4,0:0:0:0:
256,192,13414,1,8,0:0:0:0:
256,192,13748,1,0,0:0:0:0:
256,192,14081,1,8,0:0:0:0:
256,192,14748,1,0,0:0:0:0:
256,192,15081,1,0,0:0:0:0:
256,192,15414,1,0,0:0:0:0:
256,192,16081,1,8,0:0:0:0:
256,192,16748,1,8,0:0:0:0:
256,192,17081,1,8,0:0:0:0:
256,192,17414,1,0,0:0:0:0:
256,192,18748,1,0,0:0:0:0:
256,192,19081,1,0,0:0:0:0:
256,192,19414,1,8,0:0:0:0:
256,192,19748,1,8,0:0:0:0:
256,192,20081,1,4,0:0:0:0:
256,192,20748,1,8,0:0:0:0:
256,192,21414,1,0,0:0:0:0:
256,192,21748,1,0,0:0:0:0:
256,192,22081,1,8,0:0:0:0:
256,192,23081,5,4,0:0:0:0:
256,192,23414,1,8,0:0:0:0:
256,192,23748,1,8,0:0:0:0:
256,192,24081,1,0,0:0:0:0:
256,192,24748,1,8,0:0:0:0:
256,192,25414,1,8,0:0:0:0:
256,192,25748,1,0,0:0:0:0:
256,192,26081,1,8,0:0:0:0:
256,192,26414,1,8,0:0:0:0:
256,192,26748,1,0,0:0:0:0:
256,192,27414,1,8,0:0:0:0:
256,192,27748,1,0,0:0:0:0:
256,192,28748,1,8,0:0:0:0:
256,192,29081,1,8,0:0:0:0:
256,192,29414,1,0,0:0:0:0:
256,192,30081,1,8,0:0:0:0:
256,192,30748,1,0,0:0:0:0:
256,192,31081,1,0,0:0:0:0:
256,192,31414,1,8,0:0:0:0:
256,192,31748,1,0,0:0:0:0:
256,192,32748,1,8,0:0:0:0:
256,192,33081,1,4,0:0:0:0:
256,192,33748,5,0,0:0:0:0:
256,192,34081,5,12,0:0:0:0:
256,192,34748,1,0,0:0:0:0:
256,192,35081,1,0,0:0:0:0:
256,192,35414,1,8,0:0:0:0:
256,192,35748,1,8,0:0:0:0:
256,192,36081,1,0,0:0:0:0:
256,192,36748,1,8,0:0:0:0:
256,192,37414,1,0,0:0:0:0:
256,192,37748,1,0,0:0:0:0:
256,192,38081,1,8,0:0:0:0:
256,192,38748,1,0,0:0:0:0:
256,192,39248,1,0,0:0:0:0:
256,192,39748,1,0,0:0:0:0:
256,192,40748,1,8,0:0:0:0:
256,192,41414,1,0,0:0:0:0:
256,192,41914,1,0,0:0:0:0:
256,192,42414,1,0,0:0:0:0:
256,192,43081,1,0,0:0:0:0:
256,192,43414,1,8,0:0:0:0:
256,192,43748,1,0,0:0:0:0:
256,192,44748,5,12,0:0:0:0:
256,192,45415,1,0,0:0:0:0:
256,192,45748,1,0,0:0:0:0:
256,192,46081,1,8,0:0:0:0:
256,192,46415,1,8,0:0:0:0:
256,192,46748,1,0,0:0:0:0:
256,192,47415,1,8,0:0:0:0:
256,192,48081,1,0,0:0:0:0:
256,192,48415,1,0,0:0:0:0:
256,192,48748,1,8,0:0:0:0:
248,193,49414,1,4,0:0:0:0:
248,193,50414,1,12,0:0:0:0:
247,201,51081,1,0,0:0:0:0:
256,192,51414,1,8,0:0:0:0:
256,192,52081,1,0,0:0:0:0:
256,192,52581,1,0,0:0:0:0:
256,192,53081,1,0,0:0:0:0:
256,192,53581,1,0,0:0:0:0:
249,187,54081,1,8,0:0:0:0:
256,192,55081,1,0,0:0:0:0:
256,192,55414,1,8,0:0:0:0:
256,192,55748,1,8,0:0:0:0:
256,192,56081,1,0,0:0:0:0:
256,192,56748,1,8,0:0:0:0:
256,192,57414,1,8,0:0:0:0:
256,192,57748,1,0,0:0:0:0:
256,192,58081,1,8,0:0:0:0:
256,192,58414,1,8,0:0:0:0:
256,192,58748,1,0,0:0:0:0:
256,192,59414,1,8,0:0:0:0:
256,192,60414,5,4,0:0:0:0:
256,192,60748,1,8,0:0:0:0:
256,192,61081,1,8,0:0:0:0:
256,192,61414,1,0,0:0:0:0:
256,192,62081,1,8,0:0:0:0:
256,192,62748,1,0,0:0:0:0:
256,192,63081,1,8,0:0:0:0:
256,192,63414,1,0,0:0:0:0:
256,192,63748,1,8,0:0:0:0:
256,192,64081,1,0,0:0:0:0:
256,192,65081,1,12,0:0:0:0:
256,192,65748,1,0,0:0:0:0:
256,192,66081,1,8,0:0:0:0:
256,192,66414,1,0,0:0:0:0:
256,192,66748,1,0,0:0:0:0:
256,192,67414,1,8,0:0:0:0:
256,192,68081,1,0,0:0:0:0:
256,192,68414,1,8,0:0:0:0:
256,192,68748,1,8,0:0:0:0:
256,192,69081,1,8,0:0:0:0:
256,192,69414,1,8,0:0:0:0:
256,192,70414,1,0,0:0:0:0:
256,192,70748,1,8,0:0:0:0:
256,192,71414,1,8,0:0:0:0:
256,192,71748,1,8,0:0:0:0:
256,192,72081,1,0,0:0:0:0:
256,192,72748,1,0,0:0:0:0:
256,192,73414,1,8,0:0:0:0:
256,192,73748,1,8,0:0:0:0:
256,192,74081,1,8,0:0:0:0:
256,192,74414,1,8,0:0:0:0:
256,192,74748,1,0,0:0:0:0:
256,192,75748,1,12,0:0:0:0:
256,192,76081,1,4,0:0:0:0:
256,192,76748,1,0,0:0:0:0:
256,192,77414,1,0,0:0:0:0:
256,192,77748,1,8,0:0:0:0:
256,192,78081,1,0,0:0:0:0:
256,192,78748,1,0,0:0:0:0:
256,192,79414,1,0,0:0:0:0:
256,192,79748,1,8,0:0:0:0:
256,192,80414,1,0,0:0:0:0:
256,192,80748,1,8,0:0:0:0:
256,192,81081,1,12,0:0:0:0:
256,192,81414,5,4,0:0:0:0:
256,192,82414,1,8,0:0:0:0:
256,192,82748,1,0,0:0:0:0:
256,192,83081,1,0,0:0:0:0:
256,192,83414,1,8,0:0:0:0:
256,192,84081,1,0,0:0:0:0:
256,192,84748,1,8,0:0:0:0:
256,192,85081,1,0,0:0:0:0:
256,192,85748,1,0,0:0:0:0:
256,192,86081,1,8,0:0:0:0:
256,192,87081,1,0,0:0:0:0:
256,192,87414,1,8,0:0:0:0:
256,192,87748,1,0,0:0:0:0:
256,192,88414,1,0,0:0:0:0:
256,192,88748,1,8,0:0:0:0:
256,192,89081,1,8,0:0:0:0:
256,192,89414,1,0,0:0:0:0:
256,192,89914,1,0,0:0:0:0:
256,192,90414,1,0,0:0:0:0:
256,192,91081,1,0,0:0:0:0:
256,192,91414,1,8,0:0:0:0:
288,192,92081,5,4,0:0:0:0:
288,192,92748,1,12,0:0:0:0:
288,192,93748,1,0,0:0:0:0:
288,192,94081,1,8,0:0:0:0:
256,192,94748,1,0,0:0:0:0:
256,192,95415,1,8,0:0:0:0:
256,192,95748,1,0,0:0:0:0:
256,192,96415,1,0,0:0:0:0:
256,192,96748,1,8,0:0:0:0:
256,192,97414,1,4,0:0:0:0:
256,192,98081,1,12,0:0:0:0:
256,192,99081,1,0,0:0:0:0:
288,192,99414,1,8,0:0:0:0:
256,192,99748,1,8,0:0:0:0:
288,192,100081,1,0,0:0:0:0:
288,192,100581,1,0,0:0:0:0:
288,192,101081,1,0,0:0:0:0:
288,192,101748,1,8,0:0:0:0:
288,192,102081,1,0,0:0:0:0:
288,192,102414,1,8,0:0:0:0:
288,192,102748,5,4,0:0:0:0:
288,192,104081,1,0,0:0:0:0:
288,192,104414,1,8,0:0:0:0:
288,192,104748,1,8,0:0:0:0:
288,192,105414,1,0,0:0:0:0:
288,192,106081,1,8,0:0:0:0:
288,192,106748,1,0,0:0:0:0:
288,192,107081,1,0,0:0:0:0:
288,192,107414,1,8,0:0:0:0:
288,192,108081,1,0,0:0:0:0:
288,192,109081,1,8,0:0:0:0:
288,192,109414,1,0,0:0:0:0:
288,192,110081,1,8,0:0:0:0:
288,192,110748,1,0,0:0:0:0:
288,192,111414,1,0,0:0:0:0:
288,192,111748,1,8,0:0:0:0:
288,192,112081,1,0,0:0:0:0:
288,192,113414,1,4,0:0:0:0:
256,192,114081,1,12,0:0:0:0:
256,192,114748,1,0,0:0:0:0:
288,192,115081,1,8,0:0:0:0:
256,192,115414,1,8,0:0:0:0:
256,192,116081,1,0,0:0:0:0:
256,192,116414,1,8,0:0:0:0:
256,192,117081,1,8,0:0:0:0:
256,192,117414,1,0,0:0:0:0:
256,192,117748,1,8,0:0:0:0:
256,192,118748,1,0,0:0:0:0:
256,192,119081,1,0,0:0:0:0:
256,192,119414,1,12,0:0:0:0:
256,192,120081,1,0,0:0:0:0:
256,192,120414,1,8,0:0:0:0:
256,192,120748,1,8,0:0:0:0:
256,192,121414,1,8,0:0:0:0:
256,192,121748,1,0,0:0:0:0:
256,192,122081,1,8,0:0:0:0:
256,192,122748,1,0,0:0:0:0:
256,192,123414,1,0,0:0:0:0:
256,192,123748,1,12,0:0:0:0:
256,192,124081,1,0,0:0:0:0:
256,192,124581,1,0,0:0:0:0:
256,192,125414,1,0,0:0:0:0:
256,192,125914,1,12,0:0:0:0:
