osu file format v14

[General]
AudioFilename: tadoru kimi wo koete.ogg
AudioLeadIn: 0
PreviewTime: 37814
Countdown: 0
SampleSet: Normal
StackLeniency: 0.7
Mode: 1
LetterboxInBreaks: 0
WidescreenStoryboard: 1

[Editor]
DistanceSpacing: 0.2
BeatDivisor: 4
GridSize: 32
TimelineZoom: 2.2

[Metadata]
Title:Tadoru Kimi o Koete
TitleUnicode:辿る君を超えて
Artist:BEMANI Sound Team "Power Of Nature"
ArtistUnicode:BEMANI Sound Team "Power Of Nature"
Creator:TaikOseania
Version:Muzukashii
Source:pop'n music うさぎと猫と少年の夢
Tags:mtntwarz eyenine rosemi lovelock ポップンミュージック poppun popn music usagi to neko to shounen no yume usaneko うさねこ rabbit, cat and boy's dream PON 渡辺大地 daichi watanabe 少年は空を辿る shounen wa sora o wo tadoru chaos:q instrumental video game electronic ナビくん navi-kun KONAMI
BeatmapID:3222585
BeatmapSetID:1576244

[Difficulty]
HPDrainRate:6
CircleSize:5
OverallDifficulty:5
ApproachRate:5
SliderMultiplier:1.4
SliderTickRate:1

[Events]
//Background and Video events
0,0,"bgg.jpg",0,-30
//Break Periods
//Storyboard Layer 0 (Background)
//Storyboard Layer 1 (Fail)
//Storyboard Layer 2 (Pass)
//Storyboard Layer 3 (Foreground)
//Storyboard Layer 4 (Overlay)
//Storyboard Sound Samples

[TimingPoints]
-1233,500,4,1,0,60,1,0
767,500,4,1,0,60,1,0
767,-100,4,1,0,60,0,0
8767,428.571428571429,4,1,0,70,1,0
8767,-100,4,1,0,70,0,0
13909,375,7,1,0,60,1,0
13909,-100,7,1,0,60,0,0
14096,-100,7,1,0,50,0,0
16534,375,4,1,0,50,1,0
16534,-100,4,1,0,50,0,0
22534,375,4,1,0,60,1,8
22909,375,7,1,0,80,1,0
22909,-100,7,1,0,80,0,0
24221,-100,7,1,0,80,0,0
25534,375,5,1,0,80,1,0
25534,-100,5,1,0,80,0,0
27221,375,7,1,0,80,1,0
27221,-100,7,1,0,80,0,0
29846,375,8,1,0,80,1,0
29846,-100,7,1,0,80,0,0
32658,375,6,1,0,80,1,0
32658,-100,7,1,0,80,0,0
34908,375,8,1,0,80,1,0
34908,-100,7,1,0,80,0,0
37814,-100,7,1,0,90,0,1
37908,375,4,1,0,90,1,1
51408,375,4,1,0,90,1,1
64814,375,3,1,0,90,1,0
64814,-100,4,1,0,90,0,0
64908,-100,3,1,0,50,0,0
75032,375,4,1,0,30,1,8
75032,-100,4,1,0,30,0,0
81032,-100,4,1,0,60,0,0
87032,-100,4,1,0,70,0,0
91532,187.5,4,1,0,100,1,1
91532,-166.666666666667,4,1,0,100,0,1
97532,-166.666666666667,4,1,0,80,0,0
102032,187.5,4,1,0,100,1,1
102032,-166.666666666667,4,1,0,100,0,1
111032,187.5,7,1,0,80,1,0
111032,-166.666666666667,7,1,0,80,0,0
113657,375,4,1,0,60,1,0
113657,-83.3333333333333,4,1,0,60,0,0
114969,-100,4,1,0,80,0,0
115157,375,4,1,0,80,1,0

[HitObjects]
256,192,767,5,0,0:0:0:0:
256,192,1267,1,0,0:0:0:0:
256,192,1517,1,0,0:0:0:0:
256,192,1767,1,8,0:0:0:0:
256,192,2267,1,0,0:0:0:0:
256,192,2517,1,8,0:0:0:0:
256,192,2767,1,0,0:0:0:0:
256,192,3267,1,0,0:0:0:0:
256,192,3517,1,8,0:0:0:0:
256,192,3767,1,8,0:0:0:0:
256,192,4267,1,0,0:0:0:0:
256,192,4517,1,0,0:0:0:0:
256,192,4767,1,8,0:0:0:0:
256,192,5267,1,0,0:0:0:0:
256,192,5517,1,8,0:0:0:0:
256,192,5767,1,0,0:0:0:0:
256,192,6267,1,0,0:0:0:0:
256,192,6767,1,8,0:0:0:0:
256,192,7017,1,0,0:0:0:0:
256,192,7267,1,8,0:0:0:0:
256,192,7517,1,8,0:0:0:0:
256,192,7767,1,0,0:0:0:0:
256,192,8017,1,0,0:0:0:0:
256,192,8267,1,8,0:0:0:0:
256,192,8767,1,4,0:0:0:0:
256,192,9195,1,8,0:0:0:0:
256,192,9409,1,0,0:0:0:0:
256,192,9517,1,0,0:0:0:0:
256,192,9624,1,0,0:0:0:0:
256,192,10052,1,0,0:0:0:0:
256,192,10267,1,8,0:0:0:0:
256,192,10374,1,8,0:0:0:0:
256,192,10481,1,8,0:0:0:0:
256,192,10909,1,0,0:0:0:0:
256,192,11124,1,8,0:0:0:0:
256,192,11231,1,8,0:0:0:0:
256,192,11338,1,8,0:0:0:0:
256,192,11767,1,8,0:0:0:0:
256,192,11981,1,0,0:0:0:0:
256,192,12195,1,12,0:0:0:0:
256,192,12624,1,0,0:0:0:0:
256,192,12838,1,0,0:0:0:0:
256,192,13052,1,12,0:0:0:0:
256,192,13267,1,8,0:0:0:0:
256,192,13374,1,8,0:0:0:0:
256,192,13481,1,8,0:0:0:0:
256,192,13695,1,8,0:0:0:0:
256,192,13909,1,4,0:0:0:0:
256,192,14096,12,0,16346,0:0:0:0:
256,192,16534,5,0,0:0:0:0:
256,192,16784,1,0,0:0:0:0:
256,192,16909,1,8,0:0:0:0:
256,192,17409,1,8,0:0:0:0:
256,192,17534,1,8,0:0:0:0:
256,192,17659,1,0,0:0:0:0:
256,192,18034,1,0,0:0:0:0:
256,192,18284,1,0,0:0:0:0:
256,192,18409,1,8,0:0:0:0:
256,192,18659,1,8,0:0:0:0:
256,192,18784,1,0,0:0:0:0:
256,192,19534,1,8,0:0:0:0:
256,192,19784,1,8,0:0:0:0:
256,192,19909,1,0,0:0:0:0:
256,192,20409,1,0,0:0:0:0:
256,192,20534,1,0,0:0:0:0:
256,192,20659,1,8,0:0:0:0:
256,192,21034,1,0,0:0:0:0:
256,192,21284,1,0,0:0:0:0:
256,192,21409,1,8,0:0:0:0:
256,192,21659,1,8,0:0:0:0:
256,192,21784,1,8,0:0:0:0:
256,192,22909,1,0,0:0:0:0:
256,192,23190,1,8,0:0:0:0:
256,192,23471,1,0,0:0:0:0:
256,192,23565,1,0,0:0:0:0:
256,192,23752,1,8,0:0:0:0:
256,192,23846,1,8,0:0:0:0:
256,192,24221,1,0,0:0:0:0:
256,192,24502,1,8,0:0:0:0:
256,192,24784,1,0,0:0:0:0:
256,192,24877,1,0,0:0:0:0:
256,192,25065,1,8,0:0:0:0:
256,192,25159,1,8,0:0:0:0:
256,192,25534,1,4,0:0:0:0:
256,192,26002,1,8,0:0:0:0:
256,192,26190,1,8,0:0:0:0:
256,192,26471,1,0,0:0:0:0:
256,192,26659,1,8,0:0:0:0:
256,192,26940,1,8,0:0:0:0:
256,192,27127,1,8,0:0:0:0:
256,192,27221,1,0,0:0:0:0:
256,192,27502,1,8,0:0:0:0:
256,192,27783,1,0,0:0:0:0:
256,192,27877,1,0,0:0:0:0:
256,192,28064,1,8,0:0:0:0:
256,192,28158,1,8,0:0:0:0:
256,192,28533,1,0,0:0:0:0:
256,192,28814,1,8,0:0:0:0:
256,192,29096,1,0,0:0:0:0:
256,192,29189,1,0,0:0:0:0:
256,192,29377,1,8,0:0:0:0:
256,192,29471,1,8,0:0:0:0:
256,192,29846,1,4,0:0:0:0:
256,192,30314,1,8,0:0:0:0:
256,192,30502,1,8,0:0:0:0:
256,192,30783,1,0,0:0:0:0:
256,192,30971,1,8,0:0:0:0:
256,192,31252,1,8,0:0:0:0:
256,192,31439,1,0,0:0:0:0:
256,192,31721,1,0,0:0:0:0:
256,192,31908,1,8,0:0:0:0:
256,192,32189,1,8,0:0:0:0:
256,192,32377,1,0,0:0:0:0:
256,192,32658,1,0,0:0:0:0:
256,192,32939,1,8,0:0:0:0:
256,192,33220,1,0,0:0:0:0:
256,192,33501,1,8,0:0:0:0:
256,192,33783,1,0,0:0:0:0:
256,192,34064,1,0,0:0:0:0:
256,192,34345,1,12,0:0:0:0:
256,192,34908,1,12,0:0:0:0:
256,192,35283,1,0,0:0:0:0:
256,192,35470,1,0,0:0:0:0:
256,192,35658,1,0,0:0:0:0:
256,192,35845,1,0,0:0:0:0:
256,192,36033,1,0,0:0:0:0:
256,192,36126,1,0,0:0:0:0:
256,192,36314,1,12,0:0:0:0:
256,192,36501,1,12,0:0:0:0:
256,192,36783,1,0,0:0:0:0:
256,192,36970,1,0,0:0:0:0:
256,192,37158,1,8,0:0:0:0:
256,192,37345,1,8,0:0:0:0:
256,192,37533,1,0,0:0:0:0:
256,192,37626,1,0,0:0:0:0:
256,192,37814,1,12,0:0:0:0:
256,192,38095,1,0,0:0:0:0:
256,192,38283,1,8,0:0:0:0:
256,192,38564,1,0,0:0:0:0:
256,192,38751,1,8,0:0:0:0:
256,192,38939,1,0,0:0:0:0:
256,192,39033,1,0,0:0:0:0:
256,192,39314,1,4,0:0:0:0:
256,192,39595,1,8,0:0:0:0:
256,192,39783,1,0,0:0:0:0:
256,192,39876,1,0,0:0:0:0:
256,192,40064,1,0,0:0:0:0:
256,192,40158,1,8,0:0:0:0:
256,192,40439,1,8,0:0:0:0:
256,192,40626,1,0,0:0:0:0:
256,192,40814,1,12,0:0:0:0:
256,192,41095,1,0,0:0:0:0:
256,192,41283,1,8,0:0:0:0:
256,192,41564,1,0,0:0:0:0:
256,192,41751,1,8,0:0:0:0:
256,192,41939,1,8,0:0:0:0:
256,192,42033,1,8,0:0:0:0:
256,192,42314,1,12,0:0:0:0:
256,192,42595,1,0,0:0:0:0:
256,192,42783,1,8,0:0:0:0:
256,192,42876,1,8,0:0:0:0:
256,192,43064,1,8,0:0:0:0:
256,192,43158,1,0,0:0:0:0:
256,192,43814,1,12,0:0:0:0:
256,192,44095,1,0,0:0:0:0:
256,192,44283,1,8,0:0:0:0:
256,192,44564,1,0,0:0:0:0:
256,192,44751,1,8,0:0:0:0:
256,192,44939,1,0,0:0:0:0:
256,192,45033,1,0,0:0:0:0:
256,192,45314,1,4,0:0:0:0:
256,192,45595,1,8,0:0:0:0:
256,192,45783,1,0,0:0:0:0:
256,192,45876,1,0,0:0:0:0:
256,192,46064,1,8,0:0:0:0:
256,192,46158,1,8,0:0:0:0:
256,192,46345,1,8,0:0:0:0:
256,192,46439,1,8,0:0:0:0:
256,192,46533,1,8,0:0:0:0:
256,192,46814,1,4,0:0:0:0:
256,192,47095,1,0,0:0:0:0:
256,192,47283,1,8,0:0:0:0:
256,192,47376,1,8,0:0:0:0:
256,192,47470,1,8,0:0:0:0:
256,192,47658,1,0,0:0:0:0:
256,192,47845,1,0,0:0:0:0:
256,192,48033,1,8,0:0:0:0:
256,192,48314,1,4,0:0:0:0:
256,192,48595,1,0,0:0:0:0:
256,192,48689,1,0,0:0:0:0:
256,192,48783,1,0,0:0:0:0:
256,192,48970,1,0,0:0:0:0:
256,192,49158,1,0,0:0:0:0:
256,192,49814,1,8,0:0:0:0:
256,192,50095,1,8,0:0:0:0:
256,192,50189,1,8,0:0:0:0:
256,192,50376,1,0,0:0:0:0:
256,192,50564,1,8,0:0:0:0:
256,192,50751,1,8,0:0:0:0:
256,192,50845,1,8,0:0:0:0:
256,192,50939,1,8,0:0:0:0:
256,192,51126,1,0,0:0:0:0:
256,192,51314,1,12,0:0:0:0:
256,192,51595,1,0,0:0:0:0:
256,192,51783,1,8,0:0:0:0:
256,192,52064,1,0,0:0:0:0:
256,192,52251,1,8,0:0:0:0:
256,192,52439,1,0,0:0:0:0:
256,192,52533,1,0,0:0:0:0:
256,192,52814,1,4,0:0:0:0:
256,192,53095,1,8,0:0:0:0:
256,192,53283,1,0,0:0:0:0:
256,192,53376,1,0,0:0:0:0:
256,192,53564,1,0,0:0:0:0:
256,192,53658,1,0,0:0:0:0:
256,192,53939,1,0,0:0:0:0:
256,192,54126,1,8,0:0:0:0:
256,192,54314,1,4,0:0:0:0:
256,192,54595,1,0,0:0:0:0:
256,192,54783,1,8,0:0:0:0:
256,192,55064,1,8,0:0:0:0:
256,192,55251,1,8,0:0:0:0:
256,192,55345,1,8,0:0:0:0:
256,192,55533,1,0,0:0:0:0:
256,192,55814,1,12,0:0:0:0:
256,192,56095,1,0,0:0:0:0:
256,192,56283,1,8,0:0:0:0:
256,192,56376,1,8,0:0:0:0:
256,192,56564,1,8,0:0:0:0:
256,192,56658,1,0,0:0:0:0:
256,192,57314,1,12,0:0:0:0:
256,192,57595,1,8,0:0:0:0:
256,192,57689,1,8,0:0:0:0:
256,192,57783,1,8,0:0:0:0:
256,192,58064,1,8,0:0:0:0:
256,192,58345,1,0,0:0:0:0:
256,192,58533,1,8,0:0:0:0:
256,192,58626,1,8,0:0:0:0:
256,192,58814,1,4,0:0:0:0:
256,192,59095,1,8,0:0:0:0:
256,192,59283,1,0,0:0:0:0:
256,192,59376,1,0,0:0:0:0:
256,192,59564,1,8,0:0:0:0:
256,192,59658,1,8,0:0:0:0:
256,192,59845,1,8,0:0:0:0:
256,192,59939,1,8,0:0:0:0:
256,192,60033,1,8,0:0:0:0:
256,192,60314,1,4,0:0:0:0:
256,192,60595,1,0,0:0:0:0:
256,192,60783,1,8,0:0:0:0:
256,192,60876,1,8,0:0:0:0:
256,192,60970,1,8,0:0:0:0:
256,192,61158,1,0,0:0:0:0:
256,192,61345,1,0,0:0:0:0:
256,192,61533,1,8,0:0:0:0:
256,192,61814,1,4,0:0:0:0:
256,192,62283,1,8,0:0:0:0:
256,192,62376,1,8,0:0:0:0:
256,192,62470,1,8,0:0:0:0:
256,192,62658,1,8,0:0:0:0:
256,192,62845,1,8,0:0:0:0:
256,192,63033,1,0,0:0:0:0:
256,192,63314,1,12,0:0:0:0:
256,192,63595,1,0,0:0:0:0:
256,192,63783,1,8,0:0:0:0:
256,192,64064,1,4,0:0:0:0:
256,192,64345,1,8,0:0:0:0:
256,192,64533,1,0,0:0:0:0:
256,192,64814,1,12,0:0:0:0:
256,192,65657,1,8,0:0:0:0:
256,192,65845,1,0,0:0:0:0:
256,192,65939,1,0,0:0:0:0:
256,192,66782,1,0,0:0:0:0:
256,192,66970,1,8,0:0:0:0:
256,192,67064,1,8,0:0:0:0:
256,192,67907,1,8,0:0:0:0:
256,192,68095,1,0,0:0:0:0:
256,192,68189,1,0,0:0:0:0:
256,192,69032,1,0,0:0:0:0:
256,192,69220,1,8,0:0:0:0:
256,192,69314,1,8,0:0:0:0:
256,192,70157,1,8,0:0:0:0:
256,192,70345,1,0,0:0:0:0:
256,192,70439,1,0,0:0:0:0:
256,192,71282,1,0,0:0:0:0:
256,192,71470,1,8,0:0:0:0:
256,192,71564,1,8,0:0:0:0:
256,192,72407,1,8,0:0:0:0:
256,192,72595,1,0,0:0:0:0:
256,192,72689,1,0,0:0:0:0:
256,192,73814,1,8,0:0:0:0:
256,192,74282,1,0,0:0:0:0:
256,192,74657,1,0,0:0:0:0:
256,192,74939,1,8,0:0:0:0:
256,192,75219,12,0,80844,0:0:0:0:
256,192,81032,5,12,0:0:0:0:
256,192,81969,1,0,0:0:0:0:
256,192,82157,1,8,0:0:0:0:
256,192,82250,1,8,0:0:0:0:
256,192,82344,1,8,0:0:0:0:
256,192,82532,1,0,0:0:0:0:
256,192,83469,1,8,0:0:0:0:
256,192,83657,1,0,0:0:0:0:
256,192,83750,1,0,0:0:0:0:
256,192,83844,1,0,0:0:0:0:
256,192,84032,1,8,0:0:0:0:
256,192,84407,1,0,0:0:0:0:
256,192,84594,1,8,0:0:0:0:
256,192,84688,1,8,0:0:0:0:
256,192,84782,1,8,0:0:0:0:
256,192,84969,1,0,0:0:0:0:
256,192,85157,1,8,0:0:0:0:
256,192,85344,1,0,0:0:0:0:
256,192,85532,1,8,0:0:0:0:
256,192,85625,1,8,0:0:0:0:
256,192,85719,1,8,0:0:0:0:
256,192,85907,1,0,0:0:0:0:
256,192,86282,1,0,0:0:0:0:
256,192,86469,1,8,0:0:0:0:
256,192,86657,1,8,0:0:0:0:
256,192,86750,1,8,0:0:0:0:
256,192,86844,1,8,0:0:0:0:
256,192,87032,1,4,0:0:0:0:
256,192,87219,1,8,0:0:0:0:
256,192,87313,1,8,0:0:0:0:
256,192,87407,1,8,0:0:0:0:
256,192,87594,1,0,0:0:0:0:
256,192,87782,1,8,0:0:0:0:
256,192,88157,1,0,0:0:0:0:
256,192,88344,1,0,0:0:0:0:
256,192,88532,1,8,0:0:0:0:
256,192,88719,1,0,0:0:0:0:
256,192,88813,1,0,0:0:0:0:
256,192,88907,1,0,0:0:0:0:
256,192,89094,1,0,0:0:0:0:
256,192,89282,1,8,0:0:0:0:
256,192,89657,1,8,0:0:0:0:
256,192,89844,1,8,0:0:0:0:
256,192,90032,1,0,0:0:0:0:
256,192,90219,1,0,0:0:0:0:
256,192,90313,1,0,0:0:0:0:
256,192,90407,1,0,0:0:0:0:
256,192,90594,1,8,0:0:0:0:
256,192,90782,1,0,0:0:0:0:
256,192,91532,1,12,0:0:0:0:
256,192,91907,1,0,0:0:0:0:
256,192,92094,1,0,0:0:0:0:
256,192,92188,1,0,0:0:0:0:
256,192,92282,1,8,0:0:0:0:
256,192,92657,1,0,0:0:0:0:
256,192,92844,1,8,0:0:0:0:
256,192,92938,1,8,0:0:0:0:
256,192,93032,1,0,0:0:0:0:
256,192,93407,1,8,0:0:0:0:
256,192,93594,1,8,0:0:0:0:
256,192,93688,1,8,0:0:0:0:
256,192,93782,1,8,0:0:0:0:
256,192,94157,1,8,0:0:0:0:
256,192,94344,1,8,0:0:0:0:
256,192,94438,1,8,0:0:0:0:
256,192,94532,1,0,0:0:0:0:
256,192,94907,1,8,0:0:0:0:
256,192,95094,1,0,0:0:0:0:
256,192,95188,1,0,0:0:0:0:
256,192,95282,1,8,0:0:0:0:
256,192,95657,1,0,0:0:0:0:
256,192,95844,1,8,0:0:0:0:
256,192,95938,1,8,0:0:0:0:
256,192,96032,1,0,0:0:0:0:
256,192,96313,1,8,0:0:0:0:
256,192,96407,1,0,0:0:0:0:
256,192,96688,1,0,0:0:0:0:
256,192,96782,1,0,0:0:0:0:
256,192,96969,1,0,0:0:0:0:
256,192,97157,1,0,0:0:0:0:
256,192,97344,1,8,0:0:0:0:
256,192,97438,1,8,0:0:0:0:
256,192,97532,1,8,0:0:0:0:
256,192,98282,1,0,0:0:0:0:
256,192,98469,1,8,0:0:0:0:
256,192,98563,1,8,0:0:0:0:
256,192,98657,1,8,0:0:0:0:
256,192,98844,1,8,0:0:0:0:
256,192,99032,1,0,0:0:0:0:
256,192,99219,1,0,0:0:0:0:
256,192,99313,1,8,0:0:0:0:
256,192,99594,1,8,0:0:0:0:
256,192,99782,1,8,0:0:0:0:
256,192,99875,1,0,0:0:0:0:
256,192,100157,1,0,0:0:0:0:
256,192,100532,1,0,0:0:0:0:
256,192,100719,1,8,0:0:0:0:
256,192,100813,1,8,0:0:0:0:
256,192,100907,1,8,0:0:0:0:
256,192,101094,1,8,0:0:0:0:
256,192,101282,1,0,0:0:0:0:
256,192,101657,1,0,0:0:0:0:
256,192,101750,1,0,0:0:0:0:
256,192,101844,1,0,0:0:0:0:
256,192,102032,1,12,0:0:0:0:
256,192,102219,1,0,0:0:0:0:
256,192,102313,1,8,0:0:0:0:
256,192,102594,1,0,0:0:0:0:
256,192,102782,1,8,0:0:0:0:
256,192,102969,1,8,0:0:0:0:
256,192,103157,1,0,0:0:0:0:
256,192,103250,1,0,0:0:0:0:
256,192,103344,1,0,0:0:0:0:
256,192,103532,1,8,0:0:0:0:
256,192,103719,1,0,0:0:0:0:
256,192,103813,1,8,0:0:0:0:
256,192,104469,1,8,0:0:0:0:
256,192,104657,1,0,0:0:0:0:
256,192,104750,1,0,0:0:0:0:
256,192,104844,1,0,0:0:0:0:
256,192,105032,1,12,0:0:0:0:
256,192,105219,1,0,0:0:0:0:
256,192,105313,1,8,0:0:0:0:
256,192,105594,1,0,0:0:0:0:
256,192,105782,1,8,0:0:0:0:
256,192,105969,1,8,0:0:0:0:
256,192,106157,1,0,0:0:0:0:
256,192,106250,1,0,0:0:0:0:
256,192,106344,1,0,0:0:0:0:
256,192,106532,1,8,0:0:0:0:
256,192,106719,1,0,0:0:0:0:
256,192,106813,1,8,0:0:0:0:
256,192,107469,1,0,0:0:0:0:
256,192,107657,1,0,0:0:0:0:
256,192,107750,1,0,0:0:0:0:
256,192,107844,1,0,0:0:0:0:
256,192,108032,1,12,0:0:0:0:
256,192,108219,1,0,0:0:0:0:
256,192,108313,1,8,0:0:0:0:
256,192,108594,1,0,0:0:0:0:
256,192,108782,1,8,0:0:0:0:
256,192,108969,1,8,0:0:0:0:
256,192,109157,1,0,0:0:0:0:
256,192,109250,1,0,0:0:0:0:
256,192,109344,1,0,0:0:0:0:
256,192,109532,1,4,0:0:0:0:
256,192,109719,1,8,0:0:0:0:
256,192,109813,1,0,0:0:0:0:
256,192,110282,1,8,0:0:0:0:
256,192,110469,1,8,0:0:0:0:
256,192,110657,1,0,0:0:0:0:
256,192,110750,1,0,0:0:0:0:
256,192,110844,1,0,0:0:0:0:
256,192,111032,1,12,0:0:0:0:
256,192,111219,1,0,0:0:0:0:
256,192,111313,1,8,0:0:0:0:
256,192,111594,1,4,0:0:0:0:
256,192,111782,1,8,0:0:0:0:
256,192,111875,1,0,0:0:0:0:
256,192,112063,1,8,0:0:0:0:
256,192,112344,1,4,0:0:0:0:
256,192,112532,1,8,0:0:0:0:
256,192,112625,1,0,0:0:0:0:
256,192,112907,1,12,0:0:0:0:
256,192,113094,1,0,0:0:0:0:
256,192,113188,1,8,0:0:0:0:
256,192,113375,1,8,0:0:0:0:
256,192,113657,1,0,0:0:0:0:
256,192,114969,1,0,0:0:0:0:
256,192,115157,1,12,0:0:0:0:
256,192,115438,1,0,0:0:0:0:
256,192,115532,1,0,0:0:0:0:
256,192,115719,1,0,0:0:0:0:
256,192,115907,1,8,0:0:0:0:
256,192,116094,1,0,0:0:0:0:
256,192,116282,1,8,0:0:0:0:
256,192,116375,1,8,0:0:0:0:
256,192,116469,1,8,0:0:0:0:
256,192,116750,1,8,0:0:0:0:
256,192,116844,1,8,0:0:0:0:
256,192,117032,1,0,0:0:0:0:
256,192,117219,1,8,0:0:0:0:
256,192,117313,1,8,0:0:0:0:
256,192,117407,1,8,0:0:0:0:
256,192,117594,1,0,0:0:0:0:
256,192,117782,1,8,0:0:0:0:
256,192,117969,1,0,0:0:0:0:
256,192,118063,1,0,0:0:0:0:
256,192,118157,1,0,0:0:0:0:
256,192,118438,1,0,0:0:0:0:
256,192,118532,1,0,0:0:0:0:
256,192,118719,1,0,0:0:0:0:
256,192,118907,1,8,0:0:0:0:
256,192,119094,1,0,0:0:0:0:
256,192,119282,1,8,0:0:0:0:
256,192,119375,1,8,0:0:0:0:
256,192,119469,1,8,0:0:0:0:
256,192,119750,1,8,0:0:0:0:
256,192,119844,1,8,0:0:0:0:
256,192,120032,1,0,0:0:0:0:
256,192,120219,1,8,0:0:0:0:
256,192,120313,1,8,0:0:0:0:
256,192,120407,1,8,0:0:0:0:
256,192,120594,1,0,0:0:0:0:
256,192,120782,1,8,0:0:0:0:
256,192,120969,1,0,0:0:0:0:
256,192,121063,1,0,0:0:0:0:
256,192,121157,1,0,0:0:0:0:
