osu file format v14

[General]
AudioFilename: audio.mp3
AudioLeadIn: 0
PreviewTime: 61046
Countdown: 0
SampleSet: Normal
StackLeniency: 0.7
Mode: 1
LetterboxInBreaks: 0
WidescreenStoryboard: 1

[Editor]
DistanceSpacing: 1.1
BeatDivisor: 4
GridSize: 32
TimelineZoom: 1.9

[Metadata]
Title:voltississimo
TitleUnicode:voltississimo
Artist:BEMANI Sound Team "PHQUASE"
ArtistUnicode:BEMANI Sound Team "PHQUASE"
Creator:Cynplytholowazy
Version:NOVICE
Source:SOUND VOLTEX VIVID WAVE
Tags:voltissimo fortississimo sdvx VVV ƒƒƒ konami いちかのBEMANI投票選抜戦2019 Ichika no BEMANI touhyou senbatsusen 2019 RASIS
BeatmapID:2183756
BeatmapSetID:1044151

[Difficulty]
HPDrainRate:7
CircleSize:10
OverallDifficulty:4
ApproachRate:10
SliderMultiplier:1.4
SliderTickRate:1

[Events]
//Background and Video events
0,0,"full.png",0,200
//Break Periods
//Storyboard Layer 0 (Background)
//Storyboard Layer 1 (Fail)
//Storyboard Layer 2 (Pass)
//Storyboard Layer 3 (Foreground)
//Storyboard Layer 4 (Overlay)
//Storyboard Sound Samples

[TimingPoints]
2113,266.666666666667,4,1,0,25,1,0
9446,-100,4,1,0,35,0,0
10646,-100,4,1,0,45,0,1
12246,-100,4,1,0,45,0,0
12779,-100,4,1,0,45,0,1
14379,-100,4,1,0,45,0,0
14913,-100,4,1,0,45,0,1
16513,-100,4,1,0,45,0,0
17046,-100,4,1,0,45,0,1
18113,-100,4,1,0,45,0,0
18646,-100,4,1,0,35,0,0
36513,-100,4,1,0,45,0,1
37846,-100,4,1,0,45,0,0
38513,-100,4,1,0,45,0,1
39979,-100,4,1,0,45,0,0
40779,-100,4,1,0,45,0,1
42113,-100,4,1,0,45,0,0
42779,-100,4,1,0,45,0,1
44246,-100,4,1,0,45,0,0
45046,-100,4,1,0,25,0,0
51979,-100,4,1,0,35,0,0
52246,266.666666666667,4,1,0,35,1,0
62913,266.666666666667,4,1,0,45,1,9
62913,-100,4,1,0,45,0,1
71446,-100,4,1,0,45,0,0
71979,-100,4,1,0,45,0,1
72513,-100,4,1,0,45,0,0
73046,-100,4,1,0,45,0,1
73579,-100,4,1,0,45,0,0
74646,-100,4,1,0,45,0,1
75446,-100,4,1,0,45,0,0
75979,-100,4,1,0,45,0,1
79979,-100,4,1,0,50,0,0
81979,-100,4,1,0,50,0,1
84246,-100,4,1,0,50,0,0
86246,-100,4,1,0,50,0,1
88513,-100,4,1,0,50,0,0
90513,-100,4,1,0,50,0,1
92779,-100,4,1,0,50,0,0
97046,-100,4,1,0,45,0,1
98646,-100,4,1,0,45,0,0
99179,-100,4,1,0,45,0,1
100779,-100,4,1,0,45,0,0
101313,-100,4,1,0,45,0,1
102913,-100,4,1,0,45,0,0
103446,-100,4,1,0,45,0,1
104513,-100,4,1,0,45,0,0
105579,-100,4,1,0,45,0,1
107179,-100,4,1,0,45,0,0
107713,-100,4,1,0,45,0,1
109313,-100,4,1,0,45,0,0
110113,-100,4,1,0,55,0,1
113313,-100,4,1,0,55,0,0
113579,-100,4,1,0,45,0,0
113979,-100,4,1,0,45,0,1
114646,-100,4,1,0,45,0,0

[HitObjects]
256,192,2113,5,2,0:0:0:0:
256,192,2379,1,0,0:0:0:0:
256,192,2646,1,2,0:0:0:0:
256,192,3046,1,2,0:0:0:0:
256,192,3313,1,0,0:0:0:0:
256,192,3446,1,2,0:0:0:0:
256,192,3713,1,0,0:0:0:0:
256,192,4379,1,0,0:0:0:0:
256,192,4513,1,6,0:0:0:0:
256,192,4779,1,0,0:0:0:0:
256,192,5179,1,2,0:0:0:0:
256,192,5446,1,2,0:0:0:0:
256,192,5713,1,2,0:0:0:0:
256,192,5846,1,0,0:0:0:0:
256,192,6379,1,2,0:0:0:0:
256,192,6646,1,0,0:0:0:0:
256,192,6913,1,2,0:0:0:0:
256,192,7313,1,2,0:0:0:0:
256,192,7579,1,0,0:0:0:0:
256,192,7713,1,2,0:0:0:0:
256,192,7979,1,0,0:0:0:0:
256,192,8246,1,2,0:0:0:0:
256,192,8513,1,0,0:0:0:0:
256,192,8779,1,2,0:0:0:0:
256,192,9046,1,0,0:0:0:0:
256,192,9179,1,2,0:0:0:0:
256,192,9446,1,6,0:0:0:0:
256,192,9713,1,6,0:0:0:0:
256,192,10113,1,6,0:0:0:0:
256,192,10646,1,0,0:0:0:0:
256,192,10913,1,0,0:0:0:0:
256,192,11046,1,0,0:0:0:0:
256,192,11179,1,0,0:0:0:0:
256,192,11446,1,0,0:0:0:0:
256,192,11713,1,0,0:0:0:0:
256,192,11846,1,0,0:0:0:0:
256,192,11979,1,0,0:0:0:0:
256,192,12246,1,6,0:0:0:0:
256,192,12779,1,0,0:0:0:0:
256,192,13046,1,0,0:0:0:0:
256,192,13179,1,0,0:0:0:0:
256,192,13313,1,0,0:0:0:0:
256,192,13579,1,0,0:0:0:0:
256,192,13713,1,0,0:0:0:0:
256,192,13846,1,0,0:0:0:0:
256,192,14113,1,0,0:0:0:0:
256,192,14379,1,6,0:0:0:0:
256,192,14913,1,0,0:0:0:0:
256,192,15179,1,2,0:0:0:0:
256,192,15313,1,0,0:0:0:0:
256,192,15446,1,0,0:0:0:0:
256,192,15713,1,0,0:0:0:0:
256,192,15979,1,2,0:0:0:0:
256,192,16113,1,0,0:0:0:0:
256,192,16246,1,0,0:0:0:0:
256,192,16513,1,6,0:0:0:0:
256,192,17046,1,0,0:0:0:0:
256,192,17313,1,2,0:0:0:0:
256,192,17446,1,0,0:0:0:0:
256,192,17579,1,0,0:0:0:0:
256,192,17846,1,0,0:0:0:0:
256,192,17979,1,0,0:0:0:0:
256,192,18113,1,2,0:0:0:0:
256,192,18379,1,6,0:0:0:0:
256,192,19179,1,4,0:0:0:0:
256,192,19446,1,2,0:0:0:0:
256,192,19713,1,2,0:0:0:0:
256,192,19846,1,0,0:0:0:0:
256,192,20113,1,0,0:0:0:0:
256,192,20379,1,2,0:0:0:0:
256,192,20513,1,0,0:0:0:0:
256,192,20779,1,0,0:0:0:0:
256,192,21313,1,0,0:0:0:0:
256,192,21579,1,2,0:0:0:0:
256,192,21846,1,0,0:0:0:0:
256,192,22113,1,2,0:0:0:0:
256,192,22246,1,2,0:0:0:0:
256,192,22513,1,2,0:0:0:0:
256,192,22646,1,0,0:0:0:0:
256,192,23179,1,6,0:0:0:0:
256,192,23446,1,4,0:0:0:0:
256,192,23713,1,2,0:0:0:0:
256,192,23979,1,2,0:0:0:0:
256,192,24113,1,0,0:0:0:0:
256,192,24379,1,2,0:0:0:0:
256,192,24646,1,2,0:0:0:0:
256,192,24779,1,0,0:0:0:0:
256,192,25046,1,6,0:0:0:0:
256,192,25313,1,2,0:0:0:0:
256,192,25446,1,0,0:0:0:0:
256,192,25579,1,6,0:0:0:0:
256,192,25846,1,0,0:0:0:0:
256,192,25979,1,6,0:0:0:0:
256,192,26513,1,6,0:0:0:0:
256,192,26913,1,0,0:0:0:0:
256,192,27046,1,6,0:0:0:0:
256,192,27313,1,0,0:0:0:0:
256,192,27446,1,2,0:0:0:0:
256,192,27713,1,0,0:0:0:0:
256,192,27846,1,0,0:0:0:0:
256,192,27979,1,6,0:0:0:0:
256,192,28246,1,2,0:0:0:0:
256,192,28379,1,0,0:0:0:0:
256,192,28646,1,0,0:0:0:0:
256,192,28913,1,2,0:0:0:0:
256,192,29046,1,0,0:0:0:0:
256,192,29313,1,2,0:0:0:0:
256,192,29579,1,2,0:0:0:0:
256,192,29713,1,0,0:0:0:0:
256,192,29846,1,2,0:0:0:0:
256,192,30379,1,0,0:0:0:0:
256,192,30513,1,0,0:0:0:0:
256,192,30646,1,2,0:0:0:0:
256,192,30913,1,4,0:0:0:0:
256,192,31313,1,6,0:0:0:0:
256,192,31713,1,0,0:0:0:0:
256,192,31979,1,4,0:0:0:0:
256,192,32246,1,6,0:0:0:0:
256,192,32513,1,2,0:0:0:0:
256,192,32646,1,0,0:0:0:0:
256,192,32913,1,4,0:0:0:0:
256,192,33313,1,4,0:0:0:0:
256,192,33579,1,6,0:0:0:0:
256,192,34113,1,6,0:0:0:0:
256,192,34246,1,0,0:0:0:0:
256,192,34379,1,0,0:0:0:0:
256,192,34513,1,6,0:0:0:0:
256,192,34913,1,6,0:0:0:0:
256,192,35046,1,0,0:0:0:0:
256,192,35179,1,0,0:0:0:0:
256,192,35313,1,6,0:0:0:0:
256,192,35713,1,6,0:0:0:0:
256,192,36246,5,4,0:0:0:0:
256,192,36513,1,2,0:0:0:0:
256,192,36846,1,0,0:0:0:0:
256,192,37179,1,2,0:0:0:0:
256,192,37513,1,0,0:0:0:0:
256,192,37846,1,6,0:0:0:0:
256,192,38379,1,4,0:0:0:0:
256,192,38513,1,2,0:0:0:0:
256,192,38846,1,0,0:0:0:0:
256,192,39179,1,2,0:0:0:0:
256,192,39513,1,0,0:0:0:0:
256,192,39846,1,0,0:0:0:0:
256,192,39979,1,6,0:0:0:0:
256,192,40513,1,4,0:0:0:0:
256,192,40779,1,2,0:0:0:0:
256,192,41113,1,0,0:0:0:0:
256,192,41446,1,2,0:0:0:0:
256,192,41779,1,0,0:0:0:0:
256,192,42113,1,6,0:0:0:0:
256,192,42646,1,4,0:0:0:0:
256,192,42779,1,2,0:0:0:0:
256,192,43113,1,0,0:0:0:0:
256,192,43446,1,2,0:0:0:0:
256,192,43779,1,0,0:0:0:0:
256,192,44113,1,0,0:0:0:0:
256,192,44246,1,6,0:0:0:0:
256,192,44779,1,4,0:0:0:0:
256,192,45313,1,2,0:0:0:0:
256,192,45713,1,2,0:0:0:0:
256,192,45979,1,0,0:0:0:0:
256,192,46113,1,2,0:0:0:0:
256,192,46379,1,0,0:0:0:0:
256,192,46913,1,2,0:0:0:0:
256,192,47179,1,0,0:0:0:0:
256,192,47446,1,2,0:0:0:0:
256,192,47846,1,2,0:0:0:0:
256,192,48113,1,2,0:0:0:0:
256,192,48379,1,2,0:0:0:0:
256,192,48513,1,0,0:0:0:0:
256,192,49046,1,2,0:0:0:0:
256,192,49313,1,0,0:0:0:0:
256,192,49579,1,2,0:0:0:0:
256,192,50113,1,0,0:0:0:0:
256,192,50513,1,0,0:0:0:0:
256,192,50779,8,0,51446,0:0:0:0:
256,192,51979,5,4,0:0:0:0:
256,192,52246,1,6,0:0:0:0:
256,192,52513,1,0,0:0:0:0:
256,192,52646,1,0,0:0:0:0:
256,192,52779,1,0,0:0:0:0:
256,192,52913,1,2,0:0:0:0:
256,192,53179,1,2,0:0:0:0:
256,192,53446,1,0,0:0:0:0:
256,192,53579,1,2,0:0:0:0:
256,192,53712,1,0,0:0:0:0:
256,192,53846,1,0,0:0:0:0:
256,192,54379,1,6,0:0:0:0:
256,192,54646,1,0,0:0:0:0:
256,192,54779,1,0,0:0:0:0:
256,192,54913,1,0,0:0:0:0:
256,192,55046,1,2,0:0:0:0:
256,192,55313,1,2,0:0:0:0:
256,192,55579,1,2,0:0:0:0:
256,192,55713,1,0,0:0:0:0:
256,192,55846,1,2,0:0:0:0:
256,192,55979,1,2,0:0:0:0:
256,192,56246,1,0,0:0:0:0:
256,192,56513,1,6,0:0:0:0:
256,192,56913,1,4,0:0:0:0:
256,192,57179,1,4,0:0:0:0:
256,192,57713,1,2,0:0:0:0:
256,192,57846,1,0,0:0:0:0:
256,192,58113,1,0,0:0:0:0:
256,192,58246,1,0,0:0:0:0:
256,192,58379,1,2,0:0:0:0:
256,192,58646,1,6,0:0:0:0:
256,192,58913,1,0,0:0:0:0:
256,192,59046,1,0,0:0:0:0:
256,192,59179,1,0,0:0:0:0:
256,192,59313,1,2,0:0:0:0:
256,192,59579,1,6,0:0:0:0:
256,192,59846,1,4,0:0:0:0:
256,192,60113,1,6,0:0:0:0:
256,192,60379,1,4,0:0:0:0:
256,192,60646,1,6,0:0:0:0:
256,192,61313,1,0,0:0:0:0:
256,192,61846,1,2,0:0:0:0:
256,192,62379,1,0,0:0:0:0:
256,192,62913,1,6,0:0:0:0:
256,192,63179,1,0,0:0:0:0:
256,192,63446,1,2,0:0:0:0:
256,192,63579,1,2,0:0:0:0:
256,192,63713,1,2,0:0:0:0:
256,192,63979,1,0,0:0:0:0:
256,192,64246,1,2,0:0:0:0:
256,192,64513,1,2,0:0:0:0:
256,192,64646,1,2,0:0:0:0:
256,192,64779,1,2,0:0:0:0:
256,192,65046,1,0,0:0:0:0:
256,192,65313,1,2,0:0:0:0:
256,192,65579,1,0,0:0:0:0:
256,192,65713,1,2,0:0:0:0:
256,192,65846,1,2,0:0:0:0:
256,192,66113,1,2,0:0:0:0:
256,192,66246,1,2,0:0:0:0:
256,192,66379,1,0,0:0:0:0:
256,192,66513,1,2,0:0:0:0:
256,192,67179,1,6,0:0:0:0:
256,192,67446,1,0,0:0:0:0:
256,192,67713,1,2,0:0:0:0:
256,192,67846,1,2,0:0:0:0:
256,192,67979,1,2,0:0:0:0:
256,192,68246,1,0,0:0:0:0:
256,192,68513,1,2,0:0:0:0:
256,192,68779,1,2,0:0:0:0:
256,192,68913,1,2,0:0:0:0:
256,192,69046,1,2,0:0:0:0:
256,192,69313,1,0,0:0:0:0:
256,192,69579,1,2,0:0:0:0:
256,192,69846,1,0,0:0:0:0:
256,192,69979,1,2,0:0:0:0:
256,192,70113,1,2,0:0:0:0:
256,192,70379,1,6,0:0:0:0:
256,192,70646,1,6,0:0:0:0:
256,192,70913,1,6,0:0:0:0:
256,192,71179,1,6,0:0:0:0:
256,192,71446,1,4,0:0:0:0:
256,192,71979,1,6,0:0:0:0:
256,192,72379,1,4,0:0:0:0:
256,192,73046,1,6,0:0:0:0:
256,192,73446,1,4,0:0:0:0:
256,192,74646,1,4,0:0:0:0:
256,192,75046,1,6,0:0:0:0:
256,192,75446,1,4,0:0:0:0:
256,192,75979,1,6,0:0:0:0:
256,192,76246,1,2,0:0:0:0:
256,192,76379,1,2,0:0:0:0:
256,192,76513,1,2,0:0:0:0:
256,192,76779,1,0,0:0:0:0:
256,192,77046,1,2,0:0:0:0:
256,192,77313,1,2,0:0:0:0:
256,192,77446,1,2,0:0:0:0:
256,192,77579,1,2,0:0:0:0:
256,192,77846,1,4,0:0:0:0:
256,192,78113,1,6,0:0:0:0:
256,192,78379,1,4,0:0:0:0:
256,192,78646,1,6,0:0:0:0:
256,192,78913,1,6,0:0:0:0:
256,192,79179,1,4,0:0:0:0:
256,192,79446,1,6,0:0:0:0:
256,192,79979,1,0,0:0:0:0:
256,192,80113,1,0,0:0:0:0:
256,192,80246,1,6,0:0:0:0:
256,192,80913,1,4,0:0:0:0:
256,192,81179,1,4,0:0:0:0:
256,192,81446,1,6,0:0:0:0:
256,192,81713,1,4,0:0:0:0:
256,192,81979,1,6,0:0:0:0:
256,192,82246,1,0,0:0:0:0:
256,192,82379,1,2,0:0:0:0:
256,192,82646,1,0,0:0:0:0:
256,192,82779,1,0,0:0:0:0:
256,192,82913,1,2,0:0:0:0:
256,192,83179,1,2,0:0:0:0:
256,192,83313,1,2,0:0:0:0:
256,192,83446,1,0,0:0:0:0:
256,192,83579,1,2,0:0:0:0:
256,192,83713,1,2,0:0:0:0:
256,192,83979,1,6,0:0:0:0:
256,192,84246,1,0,0:0:0:0:
256,192,84379,1,0,0:0:0:0:
256,192,84513,1,6,0:0:0:0:
256,192,85179,1,4,0:0:0:0:
256,192,85446,1,6,0:0:0:0:
256,192,85713,1,6,0:0:0:0:
256,192,85979,1,4,0:0:0:0:
256,192,86246,1,6,0:0:0:0:
256,192,86513,1,0,0:0:0:0:
256,192,86646,1,0,0:0:0:0:
256,192,86779,1,6,0:0:0:0:
256,192,87046,1,0,0:0:0:0:
256,192,87313,1,4,0:0:0:0:
256,192,87579,1,0,0:0:0:0:
256,192,87713,1,0,0:0:0:0:
256,192,87846,1,6,0:0:0:0:
256,192,88513,1,0,0:0:0:0:
256,192,88646,1,0,0:0:0:0:
256,192,88779,1,6,0:0:0:0:
256,192,89179,1,0,0:0:0:0:
256,192,89446,1,4,0:0:0:0:
256,192,89713,1,6,0:0:0:0:
256,192,89979,1,4,0:0:0:0:
256,192,90246,1,4,0:0:0:0:
256,192,90513,1,6,0:0:0:0:
256,192,90779,1,0,0:0:0:0:
256,192,90913,1,2,0:0:0:0:
256,192,91179,1,0,0:0:0:0:
256,192,91313,1,2,0:0:0:0:
256,192,91446,1,0,0:0:0:0:
256,192,91713,1,2,0:0:0:0:
256,192,92113,1,2,0:0:0:0:
256,192,92513,1,0,0:0:0:0:
256,192,92779,1,4,0:0:0:0:
256,192,93313,1,2,0:0:0:0:
256,192,93713,1,4,0:0:0:0:
256,192,94379,1,2,0:0:0:0:
256,192,94779,1,4,0:0:0:0:
256,192,95179,1,2,0:0:0:0:
256,192,95446,1,0,0:0:0:0:
256,192,95846,1,4,0:0:0:0:
256,192,96113,1,0,0:0:0:0:
256,192,96246,1,0,0:0:0:0:
256,192,96513,1,0,0:0:0:0:
256,192,96779,1,2,0:0:0:0:
256,192,97046,5,0,0:0:0:0:
256,192,97313,1,2,0:0:0:0:
256,192,97446,1,0,0:0:0:0:
256,192,97579,1,0,0:0:0:0:
256,192,97846,1,0,0:0:0:0:
256,192,98113,1,2,0:0:0:0:
256,192,98246,1,0,0:0:0:0:
256,192,98379,1,0,0:0:0:0:
256,192,98646,1,6,0:0:0:0:
256,192,99179,1,0,0:0:0:0:
256,192,99446,1,2,0:0:0:0:
256,192,99579,1,0,0:0:0:0:
256,192,99713,1,0,0:0:0:0:
256,192,99979,1,0,0:0:0:0:
256,192,100246,1,2,0:0:0:0:
256,192,100379,1,0,0:0:0:0:
256,192,100513,1,0,0:0:0:0:
256,192,100779,1,6,0:0:0:0:
256,192,101313,1,0,0:0:0:0:
256,192,101579,1,2,0:0:0:0:
256,192,101713,1,0,0:0:0:0:
256,192,101846,1,0,0:0:0:0:
256,192,102113,1,0,0:0:0:0:
256,192,102379,1,2,0:0:0:0:
256,192,102513,1,0,0:0:0:0:
256,192,102646,1,0,0:0:0:0:
256,192,102913,1,6,0:0:0:0:
256,192,103446,1,0,0:0:0:0:
256,192,103713,1,2,0:0:0:0:
256,192,103846,1,0,0:0:0:0:
256,192,103979,1,0,0:0:0:0:
256,192,104246,1,0,0:0:0:0:
256,192,104379,1,0,0:0:0:0:
256,192,104513,1,6,0:0:0:0:
256,192,104779,1,6,0:0:0:0:
256,192,105046,1,6,0:0:0:0:
256,192,105313,1,6,0:0:0:0:
256,192,105579,1,0,0:0:0:0:
256,192,105846,1,0,0:0:0:0:
256,192,105979,1,0,0:0:0:0:
256,192,106113,1,0,0:0:0:0:
256,192,106379,1,2,0:0:0:0:
256,192,106646,1,0,0:0:0:0:
256,192,106779,1,0,0:0:0:0:
256,192,106913,1,0,0:0:0:0:
256,192,107046,1,0,0:0:0:0:
256,192,107179,1,6,0:0:0:0:
256,192,107713,1,0,0:0:0:0:
256,192,107979,1,0,0:0:0:0:
256,192,108113,1,0,0:0:0:0:
256,192,108246,1,0,0:0:0:0:
256,192,108513,1,2,0:0:0:0:
256,192,108779,1,0,0:0:0:0:
256,192,108913,1,0,0:0:0:0:
256,192,109046,1,0,0:0:0:0:
256,192,109179,1,0,0:0:0:0:
256,192,109313,1,6,0:0:0:0:
256,192,110113,1,2,0:0:0:0:
256,192,110246,1,2,0:0:0:0:
256,192,110379,1,0,0:0:0:0:
256,192,110513,1,2,0:0:0:0:
256,192,110646,1,0,0:0:0:0:
256,192,110913,1,2,0:0:0:0:
256,192,111179,1,0,0:0:0:0:
256,192,111313,1,2,0:0:0:0:
256,192,111446,1,0,0:0:0:0:
256,192,111713,1,2,0:0:0:0:
256,192,111979,1,0,0:0:0:0:
256,192,112246,1,2,0:0:0:0:
256,192,112379,1,2,0:0:0:0:
256,192,112513,1,0,0:0:0:0:
256,192,112779,1,0,0:0:0:0:
256,192,112913,1,0,0:0:0:0:
256,192,113046,1,2,0:0:0:0:
256,192,113179,1,0,0:0:0:0:
256,192,113313,1,2,0:0:0:0:
256,192,113579,1,0,0:0:0:0:
256,192,113979,1,6,0:0:0:0:
256,192,114246,2,2,L|480:192,1,210
