osu file format v14

[General]
AudioFilename: audio.mp3
AudioLeadIn: 0
PreviewTime: 86695
Countdown: 1
SampleSet: None
StackLeniency: 0.7
Mode: 2
LetterboxInBreaks: 0
WidescreenStoryboard: 0

[Editor]
Bookmarks: 17754,34695,53048,64342,75636,86930,109518
DistanceSpacing: 1.1
BeatDivisor: 4
GridSize: 4
TimelineZoom: 2.200003

[Metadata]
Title:The last of world music
TitleUnicode:The last of world music
Artist:BEMANI Sound Team "Nekomata Master"
ArtistUnicode:BEMANI Sound Team "猫叉Master"
Creator:Yumeno Himiko
Version:Reconstruction of the world
Source:pop'n music うさぎと猫と少年の夢
Tags:Usagi to Neko to Shounen no Yume
BeatmapID:2157114
BeatmapSetID:1031577

[Difficulty]
HPDrainRate:6
CircleSize:5.5
OverallDifficulty:8.6
ApproachRate:8.6
SliderMultiplier:1.4
SliderTickRate:2

[Events]
//Background and Video events
0,0,"bg.jpg",0,0
//Break Periods
//Storyboard Layer 0 (Background)
//Storyboard Layer 1 (Fail)
//Storyboard Layer 2 (Pass)
//Storyboard Layer 3 (Foreground)
//Storyboard Layer 4 (Overlay)
//Storyboard Sound Samples

[TimingPoints]
813,235.294117647059,6,2,0,100,1,0
86930,-71.4285714285714,6,2,0,100,0,1
109518,-100,6,2,0,100,0,0

[HitObjects]
174,147,813,6,0,L|102:142,2,70
272,199,1165,2,0,L|366:191,2,70
160,215,1518,6,0,L|150:134,1,70
251,116,1754,1,0,0:0:0:0:
150,95,1871,2,0,L|143:17,1,70
256,11,2107,1,0,0:0:0:0:
366,0,2224,6,0,L|445:-3,2,70
273,63,2577,2,0,L|182:57,2,70
384,72,2930,6,0,L|377:153,1,70
273,181,3165,1,0,0:0:0:0:
378,220,3283,2,0,L|369:298,1,70
258,300,3518,1,0,0:0:0:0:
85,307,3636,6,0,L|0:309,1,70
121,273,3871,1,0,0:0:0:0:
303,227,3989,1,0,0:0:0:0:
192,205,4107,1,0,0:0:0:0:
84,176,4224,1,0,0:0:0:0:
259,147,4342,6,0,L|358:136,1,70
243,100,4577,1,0,0:0:0:0:
434,34,4695,1,0,0:0:0:0:
332,81,4813,1,0,0:0:0:0:
236,138,4930,1,0,0:0:0:0:
445,238,5048,5,0,0:0:0:0:
344,190,5165,1,0,0:0:0:0:
445,238,5283,1,0,0:0:0:0:
243,302,5401,1,0,0:0:0:0:
340,248,5518,1,0,0:0:0:0:
243,302,5636,1,0,0:0:0:0:
408,334,5754,5,0,0:0:0:0:
368,320,5812,1,0,0:0:0:0:
328,306,5871,1,0,0:0:0:0:
368,320,5930,1,0,0:0:0:0:
408,334,5989,1,0,0:0:0:0:
219,277,6107,6,0,L|176:272,1,35
309,211,6224,2,0,L|345:197,1,35
210,130,6342,2,0,L|165:122,1,35
344,63,6460,6,0,P|413:85|329:153,1,210
146,211,7048,2,0,L|79:214,1,35
236,212,7165,6,0,P|304:234|202:352,1,280
429,318,7871,5,0,0:0:0:0:
344,311,7989,2,0,P|294:282|316:194,1,140
402,185,8342,1,0,0:0:0:0:
505,167,8460,1,0,0:0:0:0:
266,129,8577,6,0,L|38:104,1,210
302,88,9165,1,0,0:0:0:0:
196,87,9283,6,0,L|430:81,1,210
165,182,9871,1,0,0:0:0:0:
350,180,9989,2,0,P|392:200|313:312,1,210
14,193,10695,5,0,0:0:0:0:
136,186,10813,2,0,P|190:200|163:287,1,140
71,311,11165,2,0,L|162:302,1,70
351,292,11401,6,0,L|514:295,2,140
449,304,11989,1,0,0:0:0:0:
253,308,12107,6,0,P|180:252|250:181,1,210
482,147,12695,2,0,L|442:142,1,35
294,128,12813,2,0,P|187:135|39:239,1,280
303,228,13518,5,0,0:0:0:0:
197,226,13636,2,0,P|172:180|242:131,1,140
333,129,13989,1,0,0:0:0:0:
227,127,14107,1,0,0:0:0:0:
418,128,14224,6,0,P|448:176|380:232,1,140
204,260,14577,2,0,L|371:244,1,140
162,178,14930,6,0,L|23:161,2,140
64,218,15518,1,0,0:0:0:0:
275,228,15636,6,0,P|328:211|243:79,1,280
489,61,16342,5,0,0:0:0:0:
244,284,16460,2,0,L|156:272,1,70
396,176,16695,2,0,L|226:160,1,140
465,112,17048,6,0,L|307:111,2,140
359,112,17636,1,0,0:0:0:0:
148,112,17754,6,0,P|87:154|171:226,1,210
278,209,18224,1,0,0:0:0:0:
199,170,18342,1,0,0:0:0:0:
232,161,18381,1,0,0:0:0:0:
265,152,18420,1,0,0:0:0:0:
299,144,18460,2,0,L|436:62,2,140
192,160,19048,1,0,0:0:0:0:
27,171,19165,6,0,L|34:263,1,70
138,248,19401,2,0,L|143:335,1,70
27,171,19636,2,0,L|33:249,1,70
138,248,19871,2,0,L|143:324,1,70
242,162,20107,2,0,L|249:258,1,70
371,244,20342,2,0,L|377:317,1,70
211,315,20577,6,0,P|203:262|326:172,1,210
204,164,21048,1,0,0:0:0:0:
281,94,21165,1,0,0:0:0:0:
245,100,21205,1,0,0:0:0:0:
210,107,21244,1,0,0:0:0:0:
176,115,21283,2,0,L|36:187,2,140
75,83,21871,1,0,0:0:0:0:
288,88,21989,6,0,L|376:88,1,70
252,152,22224,2,0,L|168:152,1,70
72,232,22460,2,0,L|164:232,1,70
248,308,22695,6,0,L|160:304,1,70
288,240,22930,2,0,L|376:244,1,70
256,152,23165,1,0,0:0:0:0:
360,156,23283,1,0,0:0:0:0:
328,172,23322,1,0,0:0:0:0:
296,188,23362,1,0,0:0:0:0:
188,200,23401,6,0,L|40:208,1,140
284,316,23871,2,0,L|292:232,1,70
184,220,24107,6,0,L|176:140,1,70
280,140,24342,2,0,L|284:64,1,70
388,64,24577,2,0,L|400:-12,1,70
224,328,24813,6,0,L|208:256,1,70
312,236,25048,2,0,L|296:152,1,70
397,133,25283,2,0,L|385:49,1,70
216,116,25518,6,0,L|292:128,1,70
388,148,25754,2,0,L|400:244,1,70
272,240,25989,2,0,L|184:248,1,70
408,308,26224,6,0,P|468:280|384:192,1,210
304,188,26695,1,0,0:0:0:0:
384,120,26813,1,0,0:0:0:0:
348,112,26852,1,0,0:0:0:0:
312,108,26891,1,0,0:0:0:0:
276,104,26930,2,0,L|436:96,2,140
376,132,27518,1,0,0:0:0:0:
172,272,27636,6,0,L|168:192,1,70
268,172,27871,2,0,L|264:88,1,70
136,140,28107,2,0,L|128:56,1,70
256,272,28342,2,0,L|248:188,1,70
144,192,28577,1,0,0:0:0:0:
264,164,28695,1,0,0:0:0:0:
384,136,28813,1,0,0:0:0:0:
264,164,28930,1,0,0:0:0:0:
80,164,29048,6,0,P|60:192|160:288,1,210
401,232,29636,1,0,0:0:0:0:
366,224,29675,1,0,0:0:0:0:
332,216,29714,1,0,0:0:0:0:
297,207,29754,2,0,P|242:189|223:107,1,140
463,42,30224,2,0,L|381:49,1,70
180,72,30460,6,0,L|168:160,1,70
268,184,30695,2,0,L|264:268,1,70
368,284,30930,2,0,L|380:372,1,70
196,324,31165,2,0,L|112:312,1,70
248,264,31401,2,0,L|336:256,1,70
196,192,31636,2,0,L|116:176,1,70
372,96,31871,6,0,L|448:88,2,70
252,196,32224,2,0,L|332:184,2,70
376,280,32577,2,0,L|300:268,2,70
280,324,32930,1,0,0:0:0:0:
376,280,33048,1,0,0:0:0:0:
471,238,33165,1,0,0:0:0:0:
172,228,33283,6,0,L|160:152,1,70
264,136,33518,2,0,L|264:64,1,70
372,68,33754,2,0,L|384:-4,1,70
116,336,33989,2,0,L|96:260,1,70
272,228,34224,2,0,L|272:140,1,70
456,140,34460,2,0,L|488:56,1,70
248,316,34695,6,0,L|96:304,1,140
200,248,35048,1,0,0:0:0:0:
108,200,35165,1,0,0:0:0:0:
336,136,35401,2,0,P|376:172|316:240,1,140
240,264,35754,1,0,0:0:0:0:
344,260,35871,1,0,0:0:0:0:
448,256,35989,1,0,0:0:0:0:
260,164,36107,6,0,L|168:156,1,70
312,100,36342,1,0,0:0:0:0:
335,96,36381,1,0,0:0:0:0:
358,93,36420,1,0,0:0:0:0:
381,90,36459,1,0,0:0:0:0:
263,94,36577,2,0,L|259:170,1,70
136,192,36813,6,0,L|128:280,1,70
244,268,37048,2,0,L|236:364,1,70
360,192,37283,2,0,L|352:280,1,70
124,164,37518,6,0,L|296:152,1,140
164,120,37871,1,0,0:0:0:0:
64,92,37989,1,0,0:0:0:0:
288,92,38224,2,0,P|324:112|284:192,1,140
192,192,38577,1,0,0:0:0:0:
88,196,38695,1,0,0:0:0:0:
192,192,38813,1,0,0:0:0:0:
404,192,38930,6,0,L|496:188,1,70
352,304,39165,1,0,0:0:0:0:
349,280,39204,1,0,0:0:0:0:
347,257,39243,1,0,0:0:0:0:
345,234,39282,1,0,0:0:0:0:
472,140,39401,1,0,0:0:0:0:
344,128,39518,1,0,0:0:0:0:
212,112,39636,2,0,L|200:32,1,70
332,256,39871,2,0,L|348:168,1,70
216,316,40107,2,0,L|288:324,1,70
484,256,40342,6,0,L|316:268,1,140
448,272,40695,1,0,0:0:0:0:
344,265,40813,1,0,0:0:0:0:
104,216,41048,2,0,P|52:172|108:120,1,140
188,108,41401,1,0,0:0:0:0:
84,96,41518,1,0,0:0:0:0:
208,112,41636,1,0,0:0:0:0:
408,132,41754,6,0,L|488:144,1,70
352,124,41989,1,0,0:0:0:0:
347,146,42028,1,0,0:0:0:0:
342,169,42067,1,0,0:0:0:0:
337,192,42106,1,0,0:0:0:0:
460,208,42224,2,0,L|468:288,1,70
336,304,42460,6,0,L|424:296,1,70
296,224,42695,1,0,0:0:0:0:
388,212,42813,1,0,0:0:0:0:
264,144,42930,1,0,0:0:0:0:
368,132,43048,1,0,0:0:0:0:
168,124,43165,6,0,P|128:152|176:228,1,140
260,248,43518,1,0,0:0:0:0:
156,272,43636,1,0,0:0:0:0:
364,272,43871,2,0,P|372:320|296:360,1,140
408,360,44224,1,0,0:0:0:0:
302,361,44342,2,0,L|292:280,1,70
496,152,44577,6,0,L|420:164,1,70
300,180,44813,1,0,0:0:0:0:
276,183,44852,1,0,0:0:0:0:
253,186,44891,1,0,0:0:0:0:
230,189,44930,1,0,0:0:0:0:
356,200,45048,2,0,L|368:120,1,70
232,324,45283,6,0,L|160:312,1,70
288,268,45518,2,0,L|364:280,1,70
484,232,45754,2,0,L|396:216,1,70
232,188,45989,6,0,P|216:136|304:84,1,140
376,76,46342,1,0,0:0:0:0:
270,80,46460,1,0,0:0:0:0:
32,176,46695,6,0,P|31:233|116:276,1,140
200,268,47048,1,0,0:0:0:0:
304,256,47165,1,0,0:0:0:0:
200,268,47283,1,0,0:0:0:0:
412,300,47401,6,0,L|424:212,1,70
200,148,47636,1,0,0:0:0:0:
176,144,47675,1,0,0:0:0:0:
153,140,47714,1,0,0:0:0:0:
130,136,47753,1,0,0:0:0:0:
256,116,47871,2,0,L|328:108,1,70
192,292,48107,6,0,L|180:216,1,70
291,194,48342,2,0,L|291:118,1,70
401,99,48577,2,0,L|417:23,1,70
200,32,48813,6,0,P|184:100|264:140,1,140
128,164,49165,1,0,0:0:0:0:
232,140,49283,1,0,0:0:0:0:
472,220,49518,2,0,L|324:208,1,140
240,196,49871,1,0,0:0:0:0:
332,172,49989,1,0,0:0:0:0:
428,152,50107,1,0,0:0:0:0:
232,304,50224,6,0,L|224:224,1,70
352,112,50460,1,0,0:0:0:0:
328,114,50499,1,0,0:0:0:0:
305,117,50538,1,0,0:0:0:0:
282,120,50577,1,0,0:0:0:0:
160,136,50695,2,0,L|80:144,1,70
216,204,50930,6,0,L|312:196,1,70
72,320,51165,2,0,L|156:312,1,70
264,248,51401,2,0,L|176:260,1,70
396,120,51636,6,0,L|308:132,2,70
184,184,51989,2,0,L|272:192,2,70
480,304,52342,5,0,0:0:0:0:
396,244,52460,1,0,0:0:0:0:
312,184,52577,1,0,0:0:0:0:
96,100,52695,1,0,0:0:0:0:
200,84,52813,1,0,0:0:0:0:
304,68,52930,1,0,0:0:0:0:
32,304,53048,5,0,0:0:0:0:
236,256,53283,1,0,0:0:0:0:
80,208,53518,2,0,L|76:132,1,70
296,108,53754,6,0,L|460:92,1,140
200,232,54224,2,0,L|116:228,1,70
372,308,54460,6,0,L|520:296,2,140
268,312,55048,1,0,0:0:0:0:
80,308,55165,6,0,L|244:300,1,140
40,192,55636,1,0,0:0:0:0:
288,112,55871,6,0,P|328:132|292:212,1,140
96,276,56342,2,0,L|184:264,1,70
380,236,56577,6,0,L|216:224,2,140
160,268,57283,5,0,0:0:0:0:
400,268,57518,2,0,P|424:216|324:124,1,210
152,124,57989,2,0,L|8:124,1,140
236,124,58460,2,0,L|332:124,1,70
64,304,58695,6,0,L|224:288,2,140
168,308,59283,1,0,0:0:0:0:
376,320,59401,5,0,0:0:0:0:
184,232,59636,1,0,0:0:0:0:
424,160,59871,1,0,0:0:0:0:
80,104,60107,6,0,P|64:140|140:212,1,140
352,208,60577,2,0,L|260:200,1,70
88,132,60813,6,0,L|240:128,2,140
432,132,61518,6,0,P|464:164|416:244,1,140
188,300,61989,1,0,0:0:0:0:
292,296,62107,1,0,0:0:0:0:
396,292,62224,2,0,L|252:272,2,140
72,128,62930,6,0,L|-8:136,2,70
192,192,63283,2,0,L|96:204,2,70
384,272,63636,6,0,L|288:284,2,70
156,112,63989,2,0,L|248:120,2,70
424,76,64342,5,0,0:0:0:0:
432,144,64577,1,0,0:0:0:0:
252,268,64813,1,0,0:0:0:0:
247,198,64930,1,0,0:0:0:0:
241,128,65048,1,0,0:0:0:0:
440,196,65283,1,0,0:0:0:0:
232,200,65518,1,0,0:0:0:0:
336,192,65636,1,0,0:0:0:0:
440,180,65754,5,0,0:0:0:0:
456,100,65989,1,0,0:0:0:0:
248,84,66224,1,0,0:0:0:0:
144,72,66342,1,0,0:0:0:0:
40,56,66460,1,0,0:0:0:0:
240,120,66695,1,0,0:0:0:0:
228,192,66930,1,0,0:0:0:0:
128,224,67048,1,0,0:0:0:0:
28,256,67165,5,0,0:0:0:0:
12,340,67401,1,0,0:0:0:0:
220,328,67636,1,0,0:0:0:0:
304,320,67754,1,0,0:0:0:0:
220,328,67871,1,0,0:0:0:0:
432,312,68107,1,0,0:0:0:0:
212,236,68342,1,0,0:0:0:0:
440,200,68577,5,0,0:0:0:0:
200,176,68813,2,0,P|164:132|264:24,1,210
360,16,69283,1,0,0:0:0:0:
384,92,69518,1,0,0:0:0:0:
176,116,69754,1,0,0:0:0:0:
152,196,69871,1,0,0:0:0:0:
280,216,69989,5,0,0:0:0:0:
296,292,70224,1,0,0:0:0:0:
88,324,70460,1,0,0:0:0:0:
96,248,70577,1,0,0:0:0:0:
200,224,70695,1,0,0:0:0:0:
4,156,70930,1,0,0:0:0:0:
252,128,71165,1,0,0:0:0:0:
356,116,71283,1,0,0:0:0:0:
460,104,71401,5,0,0:0:0:0:
480,184,71636,1,0,0:0:0:0:
296,280,71871,1,0,0:0:0:0:
192,264,71989,1,0,0:0:0:0:
88,248,72107,2,0,L|80:104,1,140
216,92,72460,2,0,L|380:76,1,140
216,56,72813,5,0,0:0:0:0:
196,140,73048,1,0,0:0:0:0:
384,236,73283,1,0,0:0:0:0:
280,220,73401,1,0,0:0:0:0:
176,200,73518,1,0,0:0:0:0:
156,120,73754,1,0,0:0:0:0:
136,40,73989,1,0,0:0:0:0:
344,28,74224,6,0,L|436:20,2,70
216,140,74577,2,0,L|124:128,2,70
416,224,74930,5,0,0:0:0:0:
368,316,75048,1,0,0:0:0:0:
264,320,75165,1,0,0:0:0:0:
32,168,75283,1,0,0:0:0:0:
76,72,75401,1,0,0:0:0:0:
180,68,75518,1,0,0:0:0:0:
404,68,75636,6,0,P|460:88|396:192,1,210
200,216,76107,2,0,L|112:224,1,70
452,304,76342,6,0,L|288:284,2,140
128,328,77048,6,0,P|136:268|268:184,1,210
284,184,77440,1,0,0:0:0:0:
320,184,77479,1,0,0:0:0:0:
356,184,77518,1,0,0:0:0:0:
236,132,77636,1,0,0:0:0:0:
52,104,77754,6,0,P|56:164|140:204,1,140
360,224,78224,2,0,L|444:224,1,70
120,320,78460,6,0,L|352:312,1,210
104,224,78930,2,0,L|96:136,1,70
296,120,79165,6,0,L|460:108,2,140
8,144,79871,6,0,P|12:192|152:288,1,210
164,288,80263,1,0,0:0:0:0:
200,284,80303,1,0,0:0:0:0:
236,280,80342,1,0,0:0:0:0:
364,268,80460,1,0,0:0:0:0:
148,144,80577,6,0,L|4:136,2,140
448,156,81283,6,0,P|464:212|344:296,1,210
140,252,81754,2,0,L|224:248,1,70
404,140,81989,6,0,L|240:152,2,140
80,132,82695,6,0,P|72:184|188:272,1,210
288,256,83165,2,0,L|188:268,1,70
40,288,83401,6,0,P|40:248|136:192,1,140
328,160,83754,2,0,L|160:144,1,140
432,72,84107,5,0,0:0:0:0:
264,132,84342,1,0,0:0:0:0:
428,208,84577,1,0,0:0:0:0:
404,206,84616,1,0,0:0:0:0:
381,204,84655,1,0,0:0:0:0:
358,202,84694,1,0,0:0:0:0:
192,188,84813,6,0,L|100:176,2,70
76,228,85165,2,0,L|-4:216,2,70
320,256,85518,5,0,0:0:0:0:
216,276,85636,1,0,0:0:0:0:
112,292,85754,1,0,0:0:0:0:
416,92,85871,1,0,0:0:0:0:
312,108,85989,1,0,0:0:0:0:
208,124,86107,1,0,0:0:0:0:
396,284,86224,6,0,L|452:284,1,35
300,216,86342,2,0,L|252:216,1,35
400,160,86460,2,0,L|448:160,1,35
252,208,86577,6,0,L|196:208,1,35
348,140,86695,2,0,L|396:140,1,35
248,84,86813,2,0,L|200:84,1,35
364,60,86930,5,0,0:0:0:0:
480,40,87048,1,0,0:0:0:0:
364,60,87165,1,0,0:0:0:0:
248,80,87283,1,0,0:0:0:0:
132,92,87401,2,0,L|344:120,1,195.999994018555
444,128,87754,5,0,0:0:0:0:
328,148,87871,1,0,0:0:0:0:
212,164,87989,1,0,0:0:0:0:
96,180,88107,1,0,0:0:0:0:
388,268,88342,5,0,0:0:0:0:
272,248,88460,1,0,0:0:0:0:
388,228,88577,1,0,0:0:0:0:
504,208,88695,1,0,0:0:0:0:
388,188,88813,1,0,0:0:0:0:
136,244,89048,5,0,0:0:0:0:
252,224,89166,1,0,0:0:0:0:
136,204,89283,1,0,0:0:0:0:
20,184,89401,1,0,0:0:0:0:
136,164,89519,1,0,0:0:0:0:
212,144,89597,1,0,0:0:0:0:
288,124,89675,1,0,0:0:0:0:
364,108,89754,5,0,0:0:0:0:
248,92,89871,1,0,0:0:0:0:
132,72,89989,1,0,0:0:0:0:
16,52,90107,1,0,0:0:0:0:
132,72,90224,2,0,L|336:56,1,195.999994018555
444,48,90577,5,0,0:0:0:0:
328,64,90695,1,0,0:0:0:0:
212,84,90813,1,0,0:0:0:0:
96,100,90930,1,0,0:0:0:0:
212,124,91048,1,0,0:0:0:0:
20,128,91165,6,0,L|24:232,1,97.9999970092774
232,204,91401,2,0,L|236:312,1,97.9999970092774
440,92,91636,2,0,L|444:208,1,97.9999970092774
128,84,91871,6,0,L|132:196,1,97.9999970092774
332,240,92107,2,0,L|212:244,1,97.9999970092774
436,80,92342,2,0,P|464:132|448:192,1,97.9999970092774
264,280,92577,6,0,L|80:196,1,195.999994018555
328,112,93048,1,0,0:0:0:0:
88,280,93283,5,0,0:0:0:0:
320,248,93518,2,0,L|336:40,1,195.999994018555
116,140,93989,5,0,0:0:0:0:
344,204,94224,1,0,0:0:0:0:
112,256,94460,1,0,0:0:0:0:
412,320,94695,1,0,0:0:0:0:
76,152,94930,1,0,0:0:0:0:
464,84,95165,1,0,0:0:0:0:
40,320,95401,6,0,L|272:296,1,195.999994018555
352,292,95754,2,0,L|128:260,1,195.999994018555
376,228,96107,2,0,P|404:188|320:96,1,195.999994018555
120,140,96577,1,0,0:0:0:0:
149,126,96616,1,0,0:0:0:0:
178,113,96655,1,0,0:0:0:0:
208,99,96694,1,0,0:0:0:0:
392,88,96813,6,0,L|480:24,2,97.9999970092774
200,208,97165,2,0,L|108:156,2,97.9999970092774
340,208,97518,2,0,L|428:144,1,97.9999970092774
160,328,97754,6,0,L|152:220,1,97.9999970092774
404,244,97989,2,0,L|264:252,1,97.9999970092774
56,260,98224,5,0,0:0:0:0:
172,252,98342,1,0,0:0:0:0:
288,244,98460,1,0,0:0:0:0:
404,236,98577,1,0,0:0:0:0:
288,212,98695,2,0,L|64:184,1,195.999994018555
208,156,99048,5,0,0:0:0:0:
324,132,99165,1,0,0:0:0:0:
440,108,99283,1,0,0:0:0:0:
324,96,99401,1,0,0:0:0:0:
36,64,99636,5,0,0:0:0:0:
152,84,99754,1,0,0:0:0:0:
268,104,99871,1,0,0:0:0:0:
152,112,99989,1,0,0:0:0:0:
36,128,100107,1,0,0:0:0:0:
336,228,100342,5,0,0:0:0:0:
220,248,100460,1,0,0:0:0:0:
104,268,100577,1,0,0:0:0:0:
220,276,100695,1,0,0:0:0:0:
336,292,100813,1,0,0:0:0:0:
412,300,100891,1,0,0:0:0:0:
488,312,100969,1,0,0:0:0:0:
412,328,101048,5,0,0:0:0:0:
296,316,101165,1,0,0:0:0:0:
180,300,101283,1,0,0:0:0:0:
64,288,101401,1,0,0:0:0:0:
180,268,101518,2,0,L|392:248,1,195.999994018555
492,240,101871,5,0,0:0:0:0:
376,228,101989,1,0,0:0:0:0:
260,220,102107,1,0,0:0:0:0:
144,208,102224,1,0,0:0:0:0:
260,196,102342,1,0,0:0:0:0:
472,156,102460,6,0,L|484:56,1,97.9999970092774
280,296,102695,2,0,L|292:192,1,97.9999970092774
84,336,102930,2,0,L|100:232,1,97.9999970092774
376,180,103165,2,0,L|392:56,1,97.9999970092774
176,192,103401,2,0,L|68:180,1,97.9999970092774
348,296,103636,1,0,0:0:0:0:
396,291,103694,1,0,0:0:0:0:
445,286,103753,1,0,0:0:0:0:
168,296,103871,5,0,0:0:0:0:
400,256,104107,2,0,L|416:48,1,195.999994018555
104,160,104577,1,0,0:0:0:0:
324,248,104813,1,0,0:0:0:0:
100,312,105048,1,0,0:0:0:0:
420,72,105283,5,0,0:0:0:0:
196,120,105518,1,0,0:0:0:0:
420,72,105754,1,0,0:0:0:0:
124,220,105989,1,0,0:0:0:0:
452,280,106224,1,0,0:0:0:0:
80,340,106460,1,0,0:0:0:0:
480,172,106695,5,0,0:0:0:0:
364,172,106813,2,0,P|296:188|260:308,1,195.999994018555
376,304,107165,1,0,0:0:0:0:
260,296,107283,1,0,0:0:0:0:
60,272,107401,5,0,0:0:0:0:
284,236,107636,2,0,L|456:120,1,195.999994018555
144,96,108107,5,0,0:0:0:0:
324,96,108224,2,0,P|360:132|272:224,1,195.999994018555
88,248,108577,2,0,L|204:236,1,97.9999970092774
444,232,108813,6,0,L|464:112,1,97.9999970092774
160,128,109048,2,0,L|56:112,1,97.9999970092774
388,320,109283,2,0,L|496:312,1,97.9999970092774
108,224,109518,6,0,L|8:212,2,70
376,100,109871,2,0,L|464:92,2,70
292,108,110224,5,0,0:0:0:0:
396,156,110342,1,0,0:0:0:0:
184,260,110460,1,0,0:0:0:0:
296,244,110577,1,0,0:0:0:0:
408,228,110695,1,0,0:0:0:0:
296,212,110813,1,0,0:0:0:0:
104,152,110930,6,0,L|204:144,2,70
344,296,111283,2,0,L|420:288,2,70
232,304,111636,1,0,0:0:0:0:
288,312,111695,1,0,0:0:0:0:
344,320,111754,1,0,0:0:0:0:
456,336,111871,1,0,0:0:0:0:
344,320,111989,1,0,0:0:0:0:
236,292,112107,1,0,0:0:0:0:
128,268,112224,1,0,0:0:0:0:
412,52,112342,6,0,P|452:100|396:144,1,140
368,140,112616,1,0,0:0:0:0:
332,132,112656,1,0,0:0:0:0:
296,124,112695,1,0,0:0:0:0:
432,112,112813,1,0,0:0:0:0:
144,112,113048,6,0,P|120:168|176:220,1,140
280,228,113401,1,0,0:0:0:0:
104,260,113518,1,0,0:0:0:0:
4,272,113636,1,0,0:0:0:0:
276,308,113754,6,0,L|444:308,1,140
216,316,114107,2,0,L|60:296,1,140
312,188,114460,6,0,L|464:164,2,140
416,236,115048,1,0,0:0:0:0:
180,160,115165,6,0,L|84:152,2,70
356,168,115518,1,0,0:0:0:0:
244,176,115636,1,0,0:0:0:0:
132,192,115754,1,0,0:0:0:0:
244,204,115871,5,0,0:0:0:0:
356,220,115989,1,0,0:0:0:0:
172,312,116107,2,0,L|164:236,1,70
404,176,116342,2,0,L|412:80,1,70
156,84,116577,6,0,L|248:76,2,70
332,164,116930,2,0,L|256:156,2,70
128,264,117283,1,0,0:0:0:0:
240,252,117401,1,0,0:0:0:0:
432,240,117518,6,0,L|444:156,1,70
248,84,117754,2,0,L|156:72,1,70
476,104,117989,6,0,L|316:120,1,140
312,144,118263,1,0,0:0:0:0:
304,180,118303,1,0,0:0:0:0:
328,208,118342,1,0,0:0:0:0:
456,240,118460,1,0,0:0:0:0:
344,248,118577,1,0,0:0:0:0:
132,256,118695,6,0,L|40:248,2,70
372,320,119048,2,0,L|288:312,2,70
184,320,119401,6,0,P|140:280|200:248,1,140
424,204,119754,2,0,P|472:176|416:128,1,140
204,104,120107,6,0,L|288:104,2,70
428,228,120460,2,0,L|348:224,2,70
132,304,120813,5,0,0:0:0:0:
44,288,120930,1,0,0:0:0:0:
132,304,121048,1,0,0:0:0:0:
220,292,121165,1,0,0:0:0:0:
132,304,121283,1,0,0:0:0:0:
44,328,121401,1,0,0:0:0:0:
132,328,121518,5,0,0:0:0:0:
224,340,121636,1,0,0:0:0:0:
132,328,121754,1,0,0:0:0:0:
220,300,121871,1,0,0:0:0:0:
308,276,121989,1,0,0:0:0:0:
220,252,122107,1,0,0:0:0:0:
308,240,122224,5,0,0:0:0:0:
384,232,122342,1,0,0:0:0:0:
308,240,122460,1,0,0:0:0:0:
384,232,122577,1,0,0:0:0:0:
308,240,122695,1,0,0:0:0:0:
384,232,122813,1,0,0:0:0:0:
460,224,122930,5,0,0:0:0:0:
384,232,123048,1,0,0:0:0:0:
308,240,123165,1,0,0:0:0:0:
384,232,123283,2,0,L|456:244,2,70
240,232,123636,5,0,0:0:0:0:
256,192,123754,12,0,127871,0:0:0:0:
