osu file format v14

[General]
AudioFilename: audio.mp3
AudioLeadIn: 0
PreviewTime: 79445
Countdown: 0
SampleSet: Soft
StackLeniency: 0.3
Mode: 0
LetterboxInBreaks: 0
WidescreenStoryboard: 0

[Editor]
Bookmarks: 21028,41028,61028,79778
DistanceSpacing: 1.3
BeatDivisor: 4
GridSize: 32
TimelineZoom: 1.9

[Metadata]
Title:Painful Fate
TitleUnicode:Painful Fate
Artist:BEMANI Sound Team "Nekomata Master"
ArtistUnicode:BEMANI Sound Team "猫叉Master"
Creator:Down
Version:Expert
Source:beatmania IIDX 26 Rootage
Tags:shota on osu cubbby cubby beomsan chinochan gimbab kloyd acylica acyl yusomi dailycare morinaga electronic instrumental drum and bass dnb rhythm video game konami
BeatmapID:2486175
BeatmapSetID:1193072

[Difficulty]
HPDrainRate:5
CircleSize:4
OverallDifficulty:9
ApproachRate:9.6
SliderMultiplier:2
SliderTickRate:1

[Events]
//Background and Video events
0,0,"bg2.jpg",0,0
//Break Periods
//Storyboard Layer 0 (Background)
//Storyboard Layer 1 (Fail)
//Storyboard Layer 2 (Pass)
//Storyboard Layer 3 (Foreground)
//Storyboard Layer 4 (Overlay)
//Storyboard Sound Samples

[TimingPoints]
1028,312.5,4,2,1,40,1,0
1028,-200,4,2,1,40,0,0
11028,-100,4,3,1,50,0,0
11496,-83.3333333333333,4,3,1,50,0,0
11965,-100,4,3,1,50,0,0
14153,-83.3333333333333,4,3,1,50,0,0
14778,-100,4,3,1,50,0,0
16496,-83.3333333333333,4,3,1,50,0,0
16809,-100,4,3,1,50,0,0
20090,-166.666666666667,4,3,1,50,0,0
21028,-90.9090909090909,4,2,1,60,0,0
41028,-66.6666666666667,4,2,2,65,0,0
41653,-100,4,2,2,65,0,0
41809,-66.6666666666667,4,2,2,65,0,0
42121,-100,4,2,2,65,0,0
43215,-66.6666666666667,4,2,2,65,0,0
44153,-100,4,2,2,65,0,0
44309,-66.6666666666667,4,2,2,65,0,0
46653,-100,4,2,2,65,0,0
46809,-66.6666666666667,4,2,2,65,0,0
47121,-100,4,2,2,65,0,0
48215,-66.6666666666667,4,2,2,65,0,0
49153,-100,4,2,2,65,0,0
49309,-66.6666666666667,4,2,2,65,0,0
54153,-100,4,2,2,65,0,0
54309,-66.6666666666667,4,2,2,65,0,0
54621,-100,4,2,2,65,0,0
56028,-66.6666666666667,4,2,2,65,0,0
56653,-100,4,2,2,65,0,0
56809,-66.6666666666667,4,2,2,65,0,0
57121,-100,4,2,2,65,0,0
58215,-66.6666666666667,4,2,2,65,0,0
60246,-100,4,2,2,65,0,0
60559,-133.333333333333,4,2,2,60,0,0
61965,-200,4,2,1,40,0,0
72278,-133.333333333333,4,3,1,50,0,0
79465,-133.333333333333,4,2,1,50,0,0
79778,-83.3333333333333,4,2,1,70,0,0
118215,-333.333333333333,4,2,1,60,0,0
119778,-333.333333333333,4,2,1,30,0,0
124778,-333.333333333333,4,2,1,5,0,0

[Colours]
Combo1 : 203,210,53
Combo2 : 180,102,31
Combo3 : 139,235,137
Combo4 : 236,236,236
Combo5 : 137,137,137
Combo6 : 243,50,50
Combo7 : 255,106,106
Combo8 : 180,120,211

[HitObjects]
137,60,1028,38,0,L|153:118,1,50,2|0,0:0|0:0,0:0:0:0:
150,108,1340,1,0,0:0:0:0:
217,164,1496,2,0,L|209:230,1,50,2|0,0:0|0:0,0:0:0:0:
210,213,1809,1,0,0:0:0:0:
145,273,1965,6,0,L|309:239,1,150,2|0,0:0|0:0,0:0:0:0:
291,242,2590,2,0,L|273:349,1,100,2|0,0:0|0:0,0:0:0:0:
375,248,3059,2,0,B|365:194|365:194|326:170,1,100,2|0,0:0|0:0,0:0:0:0:
326,170,3684,102,0,L|263:188,1,50,2|0,0:0|0:0,0:0:0:0:
345,95,3996,2,0,L|451:114,1,100,2|0,0:0|0:0,0:0:0:0:
277,183,4465,2,0,L|178:165,1,100,2|0,0:0|0:0,0:0:0:0:
333,242,4934,5,2,0:0:0:0:
405,206,5090,1,2,0:0:0:0:
472,250,5246,1,2,0:0:0:0:
472,250,5559,2,0,P|480:273|482:293,3,25,0|0|0|0,0:0|0:0|0:0|0:0,0:0:0:0:
404,207,5871,2,0,L|411:166,1,25,0|0,0:0|0:0,0:0:0:0:
426,93,6028,102,0,B|397:128|397:128|410:191,1,100,2|0,0:0|0:0,0:0:0:0:
329,186,6496,2,0,L|315:240,1,50,2|0,0:0|0:0,0:0:0:0:
316,234,6809,1,0,0:0:0:0:
255,349,6965,2,0,B|265:317|265:317|232:248|232:248|245:199,1,150,2|0,0:0|0:0,0:0:0:0:
242,209,7590,6,0,B|217:179|217:179|241:118,1,100,2|0,0:0|0:0,0:0:0:0:
347,25,8059,2,0,L|369:129,1,100,2|2,0:0|0:0,0:0:0:0:
367,122,8684,102,0,L|304:138,1,50,2|0,0:0|0:0,0:0:0:0:
199,55,8996,2,0,L|92:39,1,100,2|0,0:0|0:0,0:0:0:0:
318,134,9465,2,0,L|290:245,1,100,2|0,0:0|0:0,0:0:0:0:
347,289,9934,1,2,0:0:0:0:
347,289,10246,1,2,0:0:0:0:
347,289,10559,1,2,0:0:0:0:
438,272,10871,1,2,0:0:0:0:
438,272,10949,1,2,0:0:0:0:
438,272,11028,86,0,B|406:260|406:260|331:296,1,100,12|0,0:0|0:0,0:0:0:0:
200,331,11340,2,0,L|146:313,1,50,2|0,0:0|0:0,0:0:0:0:
138,314,11496,2,0,P|247:280|266:285,1,119.999996337891,8|0,0:0|0:0,0:0:0:0:
258,275,11731,1,0,0:0:0:0:
266,269,11809,1,2,0:0:0:0:
42,185,11965,6,0,P|81:171|102:168,1,50,8|0,0:0|0:0,0:0:0:0:
164,108,12121,2,0,P|139:102|116:92,1,50,0|0,0:0|0:0,0:0:0:0:
105,83,12278,102,0,B|83:122|83:122|117:200,1,100,8|0,0:0|0:0,0:0:0:0:
14,317,12590,2,0,P|35:305|59:298,1,50,8|0,0:0|0:0,0:0:0:0:
77,305,12746,1,0,0:0:0:0:
211,248,12903,2,0,P|189:236|165:229,2,50,2|2|8,0:0|0:0|0:0,0:0:0:0:
430,313,13215,1,2,0:0:0:0:
420,309,13293,1,0,0:0:0:0:
420,299,13371,1,8,0:0:0:0:
430,296,13449,1,2,0:0:0:0:
435,304,13528,5,8,0:0:0:0:
426,215,13684,2,0,B|449:238|449:238|428:333,1,100,0|2,0:0|0:0,0:0:0:0:
374,73,13996,2,0,L|453:106,1,50,8|0,0:0|0:0,0:0:0:0:
432,93,14153,2,0,P|341:140|321:179,1,119.999996337891,8|2,0:0|0:0,0:0:0:0:
327,161,14387,1,0,0:0:0:0:
325,172,14465,1,8,0:0:0:0:
191,131,14621,1,8,0:0:0:0:
38,253,14778,102,0,B|75:265|75:265|145:242,1,100,8|0,0:0|0:0,0:0:0:0:
133,245,15090,2,0,L|141:191,1,50,8|0,0:0|0:0,0:0:0:0:
133,185,15246,1,2,0:0:0:0:
4,103,15403,1,2,0:0:0:0:
11,95,15481,1,2,0:0:0:0:
19,90,15559,2,0,L|138:113,1,100,8|2,0:0|0:0,0:0:0:0:
128,106,15793,1,2,0:0:0:0:
138,101,15871,1,8,0:0:0:0:
148,97,15949,1,2,0:0:0:0:
159,94,16028,6,0,B|131:71|131:71|181:205,1,150,8|0,0:0|0:0,0:0:0:0:
226,233,16340,2,0,P|208:264|159:284,1,50,2|0,0:0|0:0,0:0:0:0:
184,275,16496,2,0,P|284:300|297:337,1,119.999996337891,8|8,0:0|0:0,0:0:0:0:
437,174,16809,2,0,P|411:180|389:189,1,50,2|0,0:0|0:0,0:0:0:0:
379,194,16965,2,0,B|364:281|364:281|370:295|370:295|359:355,1,150,8|0,0:0|0:0,0:0:0:0:
258,330,17278,102,0,B|224:321|224:321|316:299,1,100,8|0,0:0|0:0,0:0:0:0:
488,287,17590,1,8,0:0:0:0:
495,282,17668,2,0,L|434:264,1,50,0|2,0:0|0:0,0:0:0:0:
294,152,17903,1,2,0:0:0:0:
305,147,17981,1,2,0:0:0:0:
316,142,18059,1,8,0:0:0:0:
367,277,18215,1,2,0:0:0:0:
442,110,18371,2,0,B|458:136|458:136|449:180,1,50,8|2,0:0|0:0,0:0:0:0:
446,166,18528,5,2,0:0:0:0:
285,81,18684,2,0,L|405:54,1,100,8|2,0:0|0:0,0:0:0:0:
98,110,18996,2,0,L|175:128,1,50,8|0,0:0|0:0,0:0:0:0:
227,136,19153,101,2,0:0:0:0:
229,147,19231,1,0,0:0:0:0:
247,185,19309,5,8,0:0:0:0:
245,196,19387,1,0,0:0:0:0:
226,221,19465,6,0,P|215:229|230:223,1,50,12|0,0:0|0:0,0:0:0:0:
230,223,20090,2,0,B|245:256|245:256|232:309|232:309|251:346,2,119.999996337891,0|0|0,0:0|0:0|0:0,0:0:0:0:
230,223,21028,54,0,B|256:100|256:100|232:64,1,165.000005035401,14|0,0:0|0:0,0:0:0:0:
115,131,21340,2,0,L|208:113,1,55.0000016784668,10|0,1:0|0:0,0:0:0:0:
234,67,21496,2,0,B|304:84|304:84|355:60,1,110.000003356934,2|0,0:0|0:0,0:0:0:0:
349,61,21731,1,0,0:0:0:0:
359,54,21809,1,10,1:0:0:0:
492,139,21965,2,0,L|475:207,1,55.0000016784668,2|0,0:0|0:0,0:0:0:0:
425,250,22121,2,0,L|442:318,1,55.0000016784668,0|0,0:0|0:0,0:0:0:0:
507,350,22278,5,8,0:0:0:0:
355,300,22434,1,0,0:0:0:0:
403,373,22590,101,8,0:0:0:0:
502,224,22746,1,8,1:0:0:0:
298,192,22903,6,0,P|271:204|215:214,1,55.0000016784668,2|0,0:0|0:0,0:0:0:0:
232,207,23059,1,8,0:0:0:0:
110,50,23215,2,0,B|80:25|80:25|116:110,1,110.000003356934,10|0,1:0|0:0,0:0:0:0:
170,152,23449,1,0,0:0:0:0:
170,152,23528,102,0,B|51:128|51:128|95:188,1,165.000005035401,10|0,0:0|0:0,0:0:0:0:
63,295,23840,2,0,L|80:227,1,55.0000016784668,10|0,1:0|0:0,0:0:0:0:
170,152,23996,2,0,B|152:212|152:212|191:266,1,110.000003356934,2|0,0:0|0:0,0:0:0:0:
189,260,24231,1,0,0:0:0:0:
198,270,24309,1,10,1:0:0:0:
365,252,24465,2,0,B|396:263|396:263|294:286,1,110.000003356934,2|0,0:0|0:0,0:0:0:0:
253,330,24699,1,0,0:0:0:0:
244,338,24778,86,0,P|279:285|328:283,1,110.000003356934,8|0,0:0|0:0,0:0:0:0:
333,289,25012,1,0,0:0:0:0:
321,280,25091,6,0,P|257:276|231:234,1,110.000003356934,8|0,0:0|0:0,0:0:0:0:
233,228,25324,1,0,0:0:0:0:
233,242,25403,102,0,P|261:298|238:342,1,110.000003356934,10|0,0:0|0:0,0:0:0:0:
108,56,25715,2,0,B|84:73|84:73|86:130|141:134,1,110.000003356934,10|0,0:0|0:0,0:0:0:0:
83,197,25949,1,0,0:0:0:0:
83,197,26028,22,0,B|115:174|133:79|133:79|97:45,1,165.000005035401,10|0,0:0|0:0,0:0:0:0:
1,141,26340,2,0,P|23:115|53:110,1,55.0000016784668,10|0,1:0|0:0,0:0:0:0:
286,153,26496,2,0,P|252:148|217:68,1,110.000003356934,2|0,0:0|0:0,0:0:0:0:
218,77,26731,1,0,0:0:0:0:
228,72,26809,2,0,P|223:102|193:126,1,55.0000016784668,10|0,1:0|0:0,0:0:0:0:
83,194,26965,2,0,B|153:209|202:211|202:211|175:225|162:266,1,165.000005035401,2|0,0:0|0:0,0:0:0:0:
240,280,27278,5,8,0:0:0:0:
122,355,27434,1,0,0:0:0:0:
202,380,27590,101,8,0:0:0:0:
83,194,27746,1,8,1:0:0:0:
293,218,27903,6,0,L|309:149,1,55.0000016784668,2|0,0:0|0:0,0:0:0:0:
297,154,28059,1,8,0:0:0:0:
441,130,28215,2,0,B|413:148|413:148|443:52,1,110.000003356934,10|0,1:0|0:0,0:0:0:0:
350,89,28449,1,0,0:0:0:0:
350,89,28528,102,0,B|458:36|458:36|425:93,1,165.000005035401,10|0,0:0|0:0,0:0:0:0:
302,23,28840,2,0,B|280:42|280:42|272:67,1,55.0000016784668,10|0,1:0|0:0,0:0:0:0:
350,89,28996,2,0,B|363:125|363:125|337:206,1,110.000003356934,2|0,0:0|0:0,0:0:0:0:
407,250,29231,1,0,0:0:0:0:
407,250,29309,2,0,L|419:328,1,55.0000016784668,10|0,1:0|0:0,0:0:0:0:
341,193,29465,2,0,L|191:154,1,110.000003356934,2|0,0:0|0:0,0:0:0:0:
83,42,29778,86,0,L|101:113,1,55.0000016784668,10|0,1:0|0:0,0:0:0:0:
146,254,29934,2,0,L|159:200,1,55.0000016784668,2|0,0:0|0:0,0:0:0:0:
171,57,30090,5,10,1:0:0:0:
75,203,30246,1,2,0:0:0:0:
234,165,30403,5,10,0:0:0:0:
247,160,30481,1,2,0:0:0:0:
260,156,30559,1,2,0:0:0:0:
273,152,30637,1,2,0:0:0:0:
286,148,30715,1,10,1:0:0:0:
299,144,30793,1,2,0:0:0:0:
312,140,30871,1,2,0:0:0:0:
326,136,30949,1,2,0:0:0:0:
339,132,31028,6,0,B|294:195|315:257|315:257|350:295,1,165.000005035401,14|0,0:0|0:0,0:0:0:0:
444,230,31340,2,0,P|421:222|360:227,1,55.0000016784668,10|0,1:0|0:0,0:0:0:0:
336,280,31496,2,0,B|316:262|316:262|261:266|246:317,1,110.000003356934,2|0,0:0|0:0,0:0:0:0:
246,316,31731,1,0,0:0:0:0:
247,327,31809,1,10,1:0:0:0:
85,223,31965,2,0,B|103:185|103:185|71:111,1,110.000003356934,2|0,0:0|0:0,0:0:0:0:
198,47,32278,101,8,0:0:0:0:
14,185,32434,1,0,0:0:0:0:
131,0,32590,6,0,P|118:38|115:85,1,55.0000016784668,8|0,0:0|0:0,0:0:0:0:
249,153,32746,1,8,1:0:0:0:
388,60,32903,102,0,P|351:74|300:64,2,55.0000016784668,2|0|8,0:0|0:0|0:0,0:0:0:0:
401,181,33215,2,0,B|359:174|318:216|318:216|274:198,1,110.000003356934,10|0,1:0|0:0,0:0:0:0:
249,153,33449,1,0,0:0:0:0:
249,153,33528,6,0,B|234:142|239:124|239:124|287:108|322:166|299:218,1,165.000005035401,10|0,0:0|0:0,0:0:0:0:
401,181,33840,2,0,P|419:190|406:175,1,55.0000016784668,10|0,1:0|0:0,0:0:0:0:
302,209,33996,2,0,P|303:306|337:322,1,110.000003356934,2|0,0:0|0:0,0:0:0:0:
310,317,34231,1,0,0:0:0:0:
320,324,34309,1,10,1:0:0:0:
136,268,34465,2,0,P|108:274|86:289,1,55.0000016784668,2|0,0:0|0:0,0:0:0:0:
43,175,34621,2,0,P|71:181|93:196,1,55.0000016784668,0|0,0:0|0:0,0:0:0:0:
77,294,34778,102,0,L|106:170,1,110.000003356934,8|0,0:0|0:0,0:0:0:0:
108,108,35012,1,0,0:0:0:0:
108,108,35090,2,0,L|192:136,1,55.0000016784668,8|0,0:0|0:0,0:0:0:0:
330,92,35246,1,8,1:0:0:0:
235,91,35403,5,2,0:0:0:0:
242,99,35481,1,0,0:0:0:0:
248,107,35559,2,0,L|234:176,1,55.0000016784668,8|0,0:0|0:0,0:0:0:0:
359,307,35715,2,0,B|384:289|382:259|382:259|406:281|451:276,1,110.000003356934,10|0,1:0|0:0,0:0:0:0:
434,199,35949,1,0,0:0:0:0:
434,199,36028,102,0,B|490:220|463:304|463:304|445:274|411:273,1,165.000005035401,14|0,0:0|0:0,0:0:0:0:
305,253,36340,2,0,P|277:241|227:234,1,55.0000016784668,10|0,1:0|0:0,0:0:0:0:
91,244,36496,6,0,B|127:187|184:195|184:195|199:164|255:156,1,165.000005035401,2|0,0:0|0:0,0:0:0:0:
157,65,36809,2,0,P|147:102|150:139,1,55.0000016784668,10|0,1:0|0:0,0:0:0:0:
239,341,36965,2,0,B|250:321|247:297|247:297|242:284|242:284|243:259|255:229,1,110.000003356934,2|0,0:0|0:0,0:0:0:0:
428,44,37278,102,0,L|464:167,1,110.000003356934,8|0,0:0|0:0,0:0:0:0:
458,149,37590,2,0,L|394:138,1,55.0000016784668,8|0,0:0|0:0,0:0:0:0:
336,25,37746,2,0,L|363:102,1,55.0000016784668,8|0,1:0|0:0,0:0:0:0:
410,222,37903,1,0,0:0:0:0:
401,229,37981,1,0,0:0:0:0:
392,236,38059,1,8,0:0:0:0:
499,345,38215,2,0,L|360:308,1,110.000003356934,10|0,1:0|0:0,0:0:0:0:
323,356,38449,1,0,0:0:0:0:
323,356,38528,86,0,L|311:295,1,55.0000016784668,10|0,1:0|0:0,0:0:0:0:
221,183,38684,1,2,0:0:0:0:
221,183,38840,6,0,L|233:122,1,55.0000016784668,8|0,1:0|0:0,0:0:0:0:
323,10,38996,1,2,0:0:0:0:
323,10,39153,5,10,0:0:0:0:
313,14,39231,1,0,0:0:0:0:
313,24,39309,1,2,0:0:0:0:
323,27,39387,1,0,0:0:0:0:
328,19,39466,69,10,0:0:0:0:
328,19,40090,1,0,0:0:0:0:
328,19,40403,1,0,0:0:0:0:
205,79,40559,1,0,0:0:0:0:
368,206,40715,5,2,0:0:0:0:
380,201,40793,1,0,0:0:0:0:
417,211,40871,5,2,0:0:0:0:
429,206,40949,1,0,0:0:0:0:
455,214,41028,70,0,P|409:250|413:279,1,75.0000028610231,14|0,0:0|0:0,0:0:0:0:
415,346,41184,2,0,P|393:359|415:353,1,75.0000028610231,2|0,0:0|0:0,0:0:0:0:
491,335,41340,102,0,B|363:380|312:305|312:305|354:271,1,225.000008583069,10|0,1:0|0:0,0:0:0:0:
214,161,41653,6,0,P|202:144|155:150,1,50,0|0,0:0|0:0,0:0:0:0:
105,206,41809,102,0,B|187:208|197:119|181:88|181:88|149:116|182:146,1,225.000008583069,10|0,1:0|0:0,0:0:0:0:
375,264,42121,6,0,P|342:275|329:300,1,50,0|0,0:0|0:0,0:0:0:0:
308,360,42278,101,8,0:0:0:0:
236,321,42434,2,0,L|221:387,1,50,0|0,0:0|0:0,0:0:0:0:
152,329,42590,1,8,0:0:0:0:
8,375,42746,5,8,1:0:0:0:
152,329,42903,1,0,0:0:0:0:
124,289,42981,1,0,0:0:0:0:
135,241,43059,1,8,0:0:0:0:
74,144,43215,22,0,P|166:146|191:99,1,150.000005722046,10|0,1:0|0:0,0:0:0:0:
12,99,43449,1,0,0:0:0:0:
74,144,43528,70,0,P|130:96|287:151,1,225.000008583069,10|0,0:0|0:0,0:0:0:0:
202,190,43840,2,0,B|218:235|164:221|147:141|210:77,1,150.000005722046,10|0,1:0|0:0,0:0:0:0:
348,93,44153,6,0,P|349:117|359:140,1,50,0|0,0:0|0:0,0:0:0:0:
458,172,44309,102,0,B|520:157|520:157|351:140,1,225.000008583069,10|0,1:0|0:0,0:0:0:0:
391,222,44621,2,0,B|395:241|395:241|378:252|378:252|377:231|377:231|390:220,1,75.0000028610231,0|0,0:0|0:0,0:0:0:0:
471,274,44778,5,8,0:0:0:0:
299,209,44934,1,0,0:0:0:0:
200,281,45090,101,8,0:0:0:0:
87,329,45246,1,0,0:0:0:0:
2,135,45403,5,8,0:0:0:0:
79,161,45559,1,0,0:0:0:0:
167,39,45715,21,8,0:0:0:0:
167,39,45793,1,0,0:0:0:0:
167,39,45871,1,0,0:0:0:0:
167,39,45949,1,0,0:0:0:0:
167,39,46028,70,0,P|201:76|275:55,1,75.0000028610231,14|0,0:0|0:0,0:0:0:0:
306,62,46184,2,0,P|309:47|307:64,1,75.0000028610231,2|0,0:0|0:0,0:0:0:0:
223,80,46340,2,0,B|202:45|168:40|168:40|130:162|222:189,1,225.000008583069,10|0,1:0|0:0,0:0:0:0:
347,273,46653,6,0,P|394:249|415:255,1,50,0|0,0:0|0:0,0:0:0:0:
467,270,46809,102,0,B|419:276|359:230|359:230|301:241|313:333|354:280|345:267,1,225.000008583069,10|0,1:0|0:0,0:0:0:0:
197,178,47121,6,0,P|196:155|183:130,1,50,0|0,0:0|0:0,0:0:0:0:
141,235,47278,101,8,0:0:0:0:
70,192,47434,2,0,L|-13:214,1,50,0|0,0:0|0:0,0:0:0:0:
141,235,47590,1,8,0:0:0:0:
277,135,47746,5,8,1:0:0:0:
141,235,47903,1,0,0:0:0:0:
113,275,47981,1,0,0:0:0:0:
124,323,48059,1,8,0:0:0:0:
416,321,48215,22,0,B|311:294|311:294|369:259,1,150.000005722046,10|0,1:0|0:0,0:0:0:0:
476,265,48449,1,0,0:0:0:0:
416,321,48528,70,0,B|304:292|304:292|283:268|283:268|308:364,1,225.000008583069,10|0,0:0|0:0,0:0:0:0:
351,221,48840,2,0,B|380:116|380:116|338:145,1,150.000005722046,10|0,1:0|0:0,0:0:0:0:
133,49,49153,6,0,L|145:118,1,50,0|0,0:0|0:0,0:0:0:0:
132,177,49309,102,0,B|84:209|84:209|140:28,1,225.000008583069,10|0,1:0|0:0,0:0:0:0:
43,69,49621,2,0,B|14:96|14:96|22:144,1,75.0000028610231,0|0,0:0|0:0,0:0:0:0:
196,129,49778,5,8,1:0:0:0:
35,272,49934,1,0,0:0:0:0:
231,250,50090,101,8,1:0:0:0:
288,362,50246,1,0,0:0:0:0:
209,368,50403,5,8,0:0:0:0:
304,288,50559,1,0,0:0:0:0:
401,353,50715,21,8,1:0:0:0:
437,345,50793,1,0,0:0:0:0:
466,321,50871,1,0,0:0:0:0:
480,287,50949,1,0,0:0:0:0:
478,250,51027,69,14,0:0:0:0:
372,138,51184,2,0,B|325:111|325:111|363:113,1,75.0000028610231,2|0,0:0|0:0,0:0:0:0:
387,42,51340,2,0,B|412:25|412:25|356:180,1,150.000005722046,10|0,1:0|0:0,0:0:0:0:
404,212,51574,1,0,0:0:0:0:
404,212,51653,6,0,B|353:241|353:241|316:226,1,75.0000028610231,0|0,0:0|0:0,0:0:0:0:
250,267,51809,102,0,B|264:203|264:203|240:180|240:180|254:99|254:99|292:130,1,225.000008583069,10|0,1:0|0:0,0:0:0:0:
178,230,52121,6,0,B|162:246|162:246|175:316,1,75.0000028610231,0|0,0:0|0:0,0:0:0:0:
295,334,52278,101,8,0:0:0:0:
369,307,52434,1,0,0:0:0:0:
178,230,52590,5,8,0:0:0:0:
80,196,52746,1,8,1:0:0:0:
332,61,52903,101,0,0:0:0:0:
323,105,52981,1,0,0:0:0:0:
351,140,53059,1,8,0:0:0:0:
475,261,53215,38,0,B|372:219|372:219|280:248,1,150.000005722046,10|0,1:0|0:0,0:0:0:0:
356,354,53449,1,0,0:0:0:0:
356,354,53528,70,0,B|305:323|305:323|293:206|293:206|345:236,1,225.000008583069,10|0,0:0|0:0,0:0:0:0:
218,274,53840,2,0,B|225:240|225:240|308:215|308:215|348:237,1,150.000005722046,10|0,1:0|0:0,0:0:0:0:
154,119,54153,6,0,L|83:102,1,50,0|0,0:0|0:0,0:0:0:0:
25,119,54309,102,0,B|189:76|189:76|144:131,1,225.000008583069,10|0,1:0|0:0,0:0:0:0:
218,274,54621,6,0,L|209:330,1,50,0|0,0:0|0:0,0:0:0:0:
139,362,54778,101,8,0:0:0:0:
296,305,54934,1,0,0:0:0:0:
86,190,55090,5,8,0:0:0:0:
159,218,55246,1,0,0:0:0:0:
376,124,55403,102,0,L|392:62,1,50,8|0,0:0|0:0,0:0:0:0:
292,134,55559,2,0,L|308:72,1,50,0|0,0:0|0:0,0:0:0:0:
466,246,55715,37,8,0:0:0:0:
466,246,55793,1,0,0:0:0:0:
466,246,55871,1,0,0:0:0:0:
466,246,55949,1,0,0:0:0:0:
466,246,56028,70,0,P|422:272|413:326,1,75.0000028610231,14|0,0:0|0:0,0:0:0:0:
344,355,56184,2,0,P|361:375|347:352,1,75.0000028610231,2|0,0:0|0:0,0:0:0:0:
266,324,56340,2,0,P|180:261|40:283,1,225.000008583069,10|0,1:0|0:0,0:0:0:0:
97,113,56653,6,0,P|134:90|143:65,1,50,0|0,0:0|0:0,0:0:0:0:
37,52,56809,102,0,B|10:0|-7:19|-16:91|34:116|123:135|153:62,1,225.000008583069,10|0,1:0|0:0,0:0:0:0:
66,268,57121,6,0,P|54:290|48:348,1,50,0|0,0:0|0:0,0:0:0:0:
111,363,57278,101,8,0:0:0:0:
23,198,57434,1,0,0:0:0:0:
260,264,57590,5,8,0:0:0:0:
231,337,57746,1,8,1:0:0:0:
441,361,57903,101,0,0:0:0:0:
413,321,57981,1,0,0:0:0:0:
424,273,58059,1,8,0:0:0:0:
366,90,58215,38,0,B|389:111|389:111|378:207|378:207|406:189,1,150.000005722046,10|0,1:0|0:0,0:0:0:0:
486,115,58449,1,0,0:0:0:0:
486,115,58528,70,0,B|466:96|466:96|426:102|426:102|417:112|417:112|327:125|327:125|374:82,1,225.000008583069,10|0,0:0|0:0,0:0:0:0:
248,14,58840,2,0,B|357:58|357:58|382:148,1,150.000005722046,10|0,1:0|0:0,0:0:0:0:
149,196,59153,6,0,L|49:226,1,75.0000028610231,0|0,0:0|0:0,0:0:0:0:
77,217,59309,102,0,L|220:266,1,150.000005722046,10|0,1:0|0:0,0:0:0:0:
229,261,59543,1,0,0:0:0:0:
240,256,59621,1,0,0:0:0:0:
474,219,59778,5,10,1:0:0:0:
413,308,59934,2,0,P|419:341|465:358,1,75.0000028610231,0|0,0:0|0:0,0:0:0:0:
345,270,60090,101,8,1:0:0:0:
411,383,60246,2,0,P|440:373|464:335,1,50,2|0,0:1|0:0,0:0:0:0:
332,376,60403,5,10,0:0:0:0:
490,360,60559,2,0,P|471:358|430:365,1,37.5000014305115,0|0,0:0|0:0,0:0:0:0:
282,320,60715,5,14,1:0:0:0:
36,247,61965,102,0,L|44:278,3,25,2|2|2|2,0:0|0:0|0:0|0:0,0:0:0:0:
26,247,62278,6,0,L|51:132,1,100,2|0,0:0|0:0,0:0:0:0:
47,149,62903,1,2,0:0:0:0:
12,78,63215,1,2,0:0:0:0:
12,78,64153,101,2,0:0:0:0:
47,149,64465,1,2,0:0:0:0:
47,149,65403,5,2,0:0:0:0:
12,78,65715,1,2,0:0:0:0:
47,149,66184,102,0,L|35:210,1,50,2|2,0:0|0:0,0:0:0:0:
37,198,66965,2,0,L|47:238,3,25,2|2|2|2,0:0|0:0|0:0|0:0,0:0:0:0:
43,189,67278,6,0,L|108:198,1,50,2|2,0:0|0:0,0:0:0:0:
92,195,67590,1,2,0:0:0:0:
160,241,67746,2,0,L|225:232,1,50,2|2,0:0|0:0,0:0:0:0:
209,234,68058,1,2,0:0:0:0:
273,184,68215,1,2,0:0:0:0:
273,184,68840,101,2,0:0:0:0:
209,234,69153,1,2,0:0:0:0:
434,308,69465,5,2,0:0:0:0:
434,308,70403,2,0,L|447:244,1,50,2|2,0:0|0:0,0:0:0:0:
405,192,70715,1,2,0:0:0:0:
443,259,71340,1,2,0:0:0:0:
405,192,71965,2,0,L|368:202,3,25,2|2|2|2,0:0|0:0|0:0|0:0,0:0:0:0:
415,183,72278,70,0,L|427:102,1,75.0000028610231,8|0,0:0|0:0,0:0:0:0:
383,45,72590,1,2,0:0:0:0:
245,177,72746,1,0,0:0:0:0:
320,204,72903,2,0,P|355:241|360:275,1,75.0000028610231,8|2,0:0|0:0,0:0:0:0:
245,177,73215,1,2,0:0:0:0:
245,177,73293,1,2,0:0:0:0:
245,177,73371,1,8,0:0:0:0:
116,254,73528,6,0,L|208:238,1,75.0000028610231,8|0,0:0|0:0,0:0:0:0:
116,254,73840,1,8,0:0:0:0:
245,177,73996,2,0,L|252:130,1,37.5000014305115,2|0,0:0|0:0,0:0:0:0:
200,80,74153,101,8,0:0:0:0:
56,157,74309,1,8,0:0:0:0:
189,241,74465,2,0,L|199:283,1,37.5000014305115,2|0,0:0|0:0,0:0:0:0:
145,333,74621,2,0,L|155:375,1,37.5000014305115,8|2,0:0|0:0,0:0:0:0:
70,327,74778,6,0,L|173:335,1,75.0000028610231,8|0,0:0|0:0,0:0:0:0:
271,242,75090,1,2,0:0:0:0:
327,300,75246,2,0,L|306:368,1,37.5000014305115,0|0,0:0|0:0,0:0:0:0:
405,274,75403,1,8,0:0:0:0:
473,366,75559,1,2,0:0:0:0:
405,274,75715,2,0,P|415:214|423:201,1,75.0000028610231,8|8,0:0|0:0,0:0:0:0:
478,112,76028,102,0,L|343:138,1,112.500004291535,8|0,0:0|0:0,0:0:0:0:
356,128,76340,2,0,L|349:184,1,37.5000014305115,8|0,0:0|0:0,0:0:0:0:
278,118,76496,2,0,L|271:174,1,37.5000014305115,2|0,0:0|0:0,0:0:0:0:
199,189,76653,1,2,0:0:0:0:
199,189,76731,1,2,0:0:0:0:
199,189,76809,1,8,0:0:0:0:
196,331,76965,1,2,0:0:0:0:
204,327,77043,1,8,0:0:0:0:
213,323,77121,1,8,0:0:0:0:
221,319,77199,1,2,0:0:0:0:
230,316,77277,5,8,0:0:0:0:
256,243,77434,1,0,0:0:0:0:
199,189,77590,1,2,0:0:0:0:
294,99,77746,101,0,0:0:0:0:
217,112,77903,1,8,0:0:0:0:
199,189,78059,1,8,0:0:0:0:
74,152,78215,5,2,0:0:0:0:
256,192,78293,12,2,79465,0:0:0:0:
74,152,79778,70,4,L|154:143,1,59.9999981689454,14|0,0:0|0:0,0:0:0:0:
265,225,79934,2,0,L|205:218,1,59.9999981689454,0|0,0:0|0:0,0:0:0:0:
143,139,80090,2,0,B|120:227|120:227|143:277,1,119.999996337891,8|0,1:0|0:0,0:0:0:0:
88,318,80324,1,0,0:0:0:0:
80,311,80403,2,0,L|13:330,1,59.9999981689454,2|0,0:0|0:0,0:0:0:0:
199,374,80559,1,8,0:0:0:0:
358,310,80715,2,0,B|378:280|378:280|353:177|353:177|317:161,1,179.999994506836,10|0,1:0|0:0,0:0:0:0:
311,151,81028,6,0,L|387:176,1,59.9999981689454,8|0,0:0|0:0,0:0:0:0:
287,235,81184,1,0,0:0:0:0:
461,276,81340,2,0,B|480:245|480:245|450:160,1,119.999996337891,8|2,1:0|0:0,0:0:0:0:
401,85,81574,1,2,0:0:0:0:
409,80,81653,2,0,L|480:93,1,59.9999981689454,2|0,0:0|0:0,0:0:0:0:
315,17,81809,1,8,0:0:0:0:
169,132,81965,2,0,B|112:151|112:151|91:195|91:195|6:222,1,179.999994506836,10|0,1:0|0:0,0:0:0:0:
125,122,82278,102,0,L|207:133,1,59.9999981689454,8|0,0:0|0:0,0:0:0:0:
51,76,82434,2,0,B|33:98|33:98|37:160,1,59.9999981689454,0|0,0:0|0:0,0:0:0:0:
174,215,82590,2,0,B|206:253|203:296|203:296|159:354,1,119.999996337891,8|0,1:0|0:0,0:0:0:0:
119,277,82824,1,0,0:0:0:0:
111,283,82903,1,2,0:0:0:0:
183,321,83059,1,8,0:0:0:0:
303,308,83215,1,10,1:0:0:0:
405,212,83371,1,0,0:0:0:0:
388,36,83528,6,0,P|374:40|394:42,1,59.9999981689454,8|0,0:0|0:0,0:0:0:0:
476,114,83684,2,0,P|428:128|433:173,1,59.9999981689454,2|0,0:0|0:0,0:0:0:0:
405,212,83840,69,10,1:0:0:0:
333,231,83918,1,0,0:0:0:0:
260,212,83996,1,0,0:0:0:0:
206,158,84074,1,0,0:0:0:0:
186,85,84153,22,0,L|259:73,1,59.9999981689454,0|0,0:0|0:0,0:0:0:0:
89,229,84309,1,8,0:0:0:0:
259,347,84465,6,0,P|234:357|193:378,1,59.9999981689454,10|2,1:0|0:0,0:0:0:0:
89,229,84621,2,0,P|114:239|155:260,1,59.9999981689454,2|2,0:0|0:0,0:0:0:0:
188,366,84778,102,0,P|194:336|206:305,1,59.9999981689454,14|0,0:0|0:0,0:0:0:0:
248,240,84934,1,2,0:0:0:0:
367,171,85090,1,10,1:0:0:0:
508,310,85246,6,0,P|463:308|419:276,1,59.9999981689454,2|0,0:0|0:0,0:0:0:0:
384,252,85403,1,2,0:0:0:0:
512,152,85559,1,10,0:0:0:0:
352,103,85715,2,0,B|353:79|317:56|317:56|315:91|353:111,1,119.999996337891,10|0,1:0|0:0,0:0:0:0:
300,187,85949,1,0,0:0:0:0:
300,187,86028,102,0,P|404:105|460:112,1,179.999994506836,8|0,0:0|0:0,0:0:0:0:
512,152,86340,2,0,P|495:181|498:215,1,59.9999981689454,10|0,1:0|0:0,0:0:0:0:
393,274,86496,2,0,P|409:303|440:317,1,59.9999981689454,0|0,0:0|0:0,0:0:0:0:
503,282,86653,5,2,0:0:0:0:
347,358,86809,1,8,0:0:0:0:
300,187,86965,2,0,B|263:205|263:205|265:304|265:304|220:339,1,179.999994506836,10|0,1:0|0:0,0:0:0:0:
230,339,87278,102,0,L|302:297,1,59.9999981689454,8|0,0:0|0:0,0:0:0:0:
186,264,87434,1,0,0:0:0:0:
179,257,87512,1,0,0:0:0:0:
177,249,87590,1,8,1:0:0:0:
300,187,87746,1,0,0:0:0:0:
99,99,87903,2,0,L|187:114,1,59.9999981689454,2|0,0:0|0:0,0:0:0:0:
373,45,88059,2,0,L|285:60,1,59.9999981689454,10|0,0:0|0:0,0:0:0:0:
236,36,88215,6,0,B|202:16|202:16|246:111|246:111|218:166,1,179.999994506836,10|0,1:0|0:0,0:0:0:0:
68,249,88528,102,0,B|47:278|47:278|145:252,1,119.999996337891,8|0,0:0|0:0,0:0:0:0:
214,225,88762,1,0,0:0:0:0:
214,225,88840,2,0,L|204:298,1,59.9999981689454,10|0,1:0|0:0,0:0:0:0:
411,370,88996,2,0,L|401:297,1,59.9999981689454,0|0,0:0|0:0,0:0:0:0:
402,196,89153,6,0,B|319:174|319:174|269:211,1,119.999996337891,0|8,0:0|0:0,0:0:0:0:
336,259,89387,1,0,0:0:0:0:
336,259,89465,69,10,1:0:0:0:
261,270,89543,1,2,0:0:0:0:
189,244,89621,1,2,0:0:0:0:
141,185,89699,1,2,0:0:0:0:
127,111,89778,22,0,P|114:75|85:47,1,59.9999981689454,14|0,0:0|0:0,0:0:0:0:
9,211,89934,2,0,P|46:217|85:206,1,59.9999981689454,0|0,0:0|0:0,0:0:0:0:
141,185,90090,2,0,B|170:223|178:268|178:268|161:298,1,119.999996337891,8|2,1:0|0:0,0:0:0:0:
65,359,90324,1,2,0:0:0:0:
58,350,90403,2,0,L|130:364,1,59.9999981689454,2|0,0:0|0:0,0:0:0:0:
262,275,90559,1,8,0:0:0:0:
429,355,90715,2,0,B|410:332|410:332|447:232|447:232|477:273,1,179.999994506836,10|0,1:0|0:0,0:0:0:0:
485,270,91028,6,0,L|386:286,1,59.9999981689454,8|0,0:0|0:0,0:0:0:0:
332,352,91184,1,0,0:0:0:0:
283,235,91340,2,0,B|266:249|266:249|369:231,1,119.999996337891,8|2,1:0|0:0,0:0:0:0:
420,172,91574,1,2,0:0:0:0:
413,165,91653,2,0,L|500:177,1,59.9999981689454,2|0,0:0|0:0,0:0:0:0:
329,55,91809,1,8,0:0:0:0:
97,60,91965,2,0,B|143:78|170:146|170:146|180:99|242:83,1,179.999994506836,10|0,1:0|0:0,0:0:0:0:
249,166,92278,102,0,P|262:181|251:163,1,59.9999981689454,8|0,0:0|0:0,0:0:0:0:
215,40,92434,2,0,P|203:67|223:119,1,59.9999981689454,0|0,0:0|0:0,0:0:0:0:
64,128,92590,2,0,P|100:181|103:239,1,119.999996337891,8|2,1:0|0:0,0:0:0:0:
49,292,92824,1,2,0:0:0:0:
39,286,92903,5,2,0:0:0:0:
103,235,93059,1,8,0:0:0:0:
223,224,93215,1,10,1:0:0:0:
339,295,93371,1,0,0:0:0:0:
482,193,93528,102,0,B|469:199|469:199|465:215|465:215|478:210|478:210|482:195,1,59.9999981689454,8|0,0:0|0:0,0:0:0:0:
383,99,93684,2,0,B|401:125|401:125|403:183,1,59.9999981689454,0|0,0:0|0:0,0:0:0:0:
381,228,93840,85,10,1:0:0:0:
309,209,93918,1,2,0:0:0:0:
236,228,93996,1,2,0:0:0:0:
182,282,94074,1,2,0:0:0:0:
162,355,94153,22,0,L|235:367,1,59.9999981689454,2|0,0:0|0:0,0:0:0:0:
65,211,94309,1,8,0:0:0:0:
197,39,94465,6,0,P|177:66|186:106,1,59.9999981689454,10|2,1:0|0:0,0:0:0:0:
65,211,94621,2,0,P|64:181|45:158,1,59.9999981689454,2|2,0:0|0:0,0:0:0:0:
121,80,94778,102,0,P|178:91|200:110,1,59.9999981689454,14|0,0:0|0:0,0:0:0:0:
234,155,94934,1,2,0:0:0:0:
193,299,95090,1,10,1:0:0:0:
347,80,95246,6,0,P|290:91|268:110,1,59.9999981689454,14|0,0:0|0:0,0:0:0:0:
234,155,95402,1,2,0:0:0:0:
275,299,95559,1,10,1:0:0:0:
235,34,95715,101,14,0:0:0:0:
235,34,96184,1,8,0:0:0:0:
235,34,96340,2,0,L|243:106,1,59.9999981689454,8|0,1:0|0:0,0:0:0:0:
103,129,96496,2,0,L|111:201,1,59.9999981689454,0|0,0:0|0:0,0:0:0:0:
381,273,96653,5,0,0:0:0:0:
352,280,96731,1,0,0:0:0:0:
328,297,96809,1,8,0:0:0:0:
312,323,96887,1,0,0:0:0:0:
307,352,96965,69,10,1:0:0:0:
298,276,97043,1,10,1:0:0:0:
254,213,97121,1,10,1:0:0:0:
185,182,97199,1,10,1:0:0:0:
109,188,97278,22,0,P|70:184|36:163,1,59.9999981689454,14|0,0:0|0:0,0:0:0:0:
16,54,97434,2,0,P|44:73|48:115,1,59.9999981689454,0|0,0:0|0:0,0:0:0:0:
13,237,97590,2,0,P|57:189|123:194,1,119.999996337891,8|0,1:0|0:0,0:0:0:0:
183,80,97824,1,0,0:0:0:0:
177,71,97903,2,0,L|167:162,1,59.9999981689454,2|0,0:0|0:0,0:0:0:0:
90,265,98059,1,8,0:0:0:0:
280,349,98215,2,0,B|254:365|254:365|141:327|141:327|104:344,1,179.999994506836,10|0,1:0|0:0,0:0:0:0:
111,350,98528,6,0,L|178:320,1,59.9999981689454,8|0,0:0|0:0,0:0:0:0:
280,349,98684,1,0,0:0:0:0:
271,171,98840,2,0,B|233:250|233:250|251:293,1,119.999996337891,8|2,1:0|0:0,0:0:0:0:
396,278,99074,1,2,0:0:0:0:
402,271,99153,2,0,L|421:341,1,59.9999981689454,2|0,0:0|0:0,0:0:0:0:
320,253,99309,1,8,0:0:0:0:
455,173,99465,2,0,B|435:141|435:141|451:40|451:40|497:19,1,179.999994506836,10|0,1:0|0:0,0:0:0:0:
487,13,99778,102,0,L|412:46,1,59.9999981689454,8|0,0:0|0:0,0:0:0:0:
277,31,99934,2,0,P|265:18|283:29,1,59.9999981689454,0|0,0:0|0:0,0:0:0:0:
365,86,100090,2,0,P|378:31|442:74,1,119.999996337891,8|0,1:0|0:0,0:0:0:0:
455,173,100324,1,0,0:0:0:0:
466,170,100403,5,2,0:0:0:0:
379,163,100559,1,8,0:0:0:0:
272,238,100715,1,10,1:0:0:0:
134,160,100871,1,0,0:0:0:0:
4,312,101028,102,0,P|14:332|5:312,1,59.9999981689454,8|0,0:0|0:0,0:0:0:0:
133,348,101184,2,0,P|116:317|96:301,1,59.9999981689454,2|0,0:0|0:0,0:0:0:0:
40,245,101340,85,10,1:0:0:0:
77,180,101418,1,2,0:0:0:0:
142,142,101496,1,2,0:0:0:0:
218,142,101574,1,2,0:0:0:0:
284,179,101653,22,0,L|269:247,1,59.9999981689454,2|0,0:0|0:0,0:0:0:0:
446,104,101809,1,8,0:0:0:0:
284,179,101965,6,0,P|322:204|365:204,1,59.9999981689454,10|2,1:0|0:0,0:0:0:0:
485,309,102121,2,0,P|456:317|433:336,1,59.9999981689454,2|2,0:0|0:0,0:0:0:0:
350,204,102278,102,0,P|327:234|323:286,1,59.9999981689454,14|0,0:0|0:0,0:0:0:0:
350,332,102434,1,2,0:0:0:0:
174,249,102590,1,10,1:0:0:0:
129,361,102746,6,0,L|111:280,1,59.9999981689454,2|0,0:0|0:0,0:0:0:0:
58,246,102903,1,2,0:0:0:0:
204,175,103059,1,10,0:0:0:0:
56,77,103215,2,0,B|41:41|18:30|18:30|69:36|55:70,1,119.999996337891,10|0,1:0|0:0,0:0:0:0:
23,147,103449,1,0,0:0:0:0:
23,147,103528,102,0,B|81:80|136:80|136:80|152:104|190:107,1,179.999994506836,8|0,0:0|0:0,0:0:0:0:
205,15,103840,2,0,P|196:32|208:15,1,59.9999981689454,10|0,1:0|0:0,0:0:0:0:
204,175,103996,2,0,P|208:218|239:222,1,59.9999981689454,0|0,0:0|0:0,0:0:0:0:
255,113,104153,5,2,0:0:0:0:
176,292,104309,1,8,0:0:0:0:
113,121,104465,102,0,B|141:192|196:213|235:207|242:198|220:162|190:178,1,179.999994506836,10|0,1:0|0:0,0:0:0:0:
113,121,104778,6,0,P|83:97|20:117,1,59.9999981689454,8|0,0:0|0:0,0:0:0:0:
59,278,104934,2,0,P|101:249|142:252,1,59.9999981689454,0|0,0:0|0:0,0:0:0:0:
203,174,105090,2,0,P|279:174|319:124,1,119.999996337891,8|0,1:0|0:0,0:0:0:0:
368,90,105324,1,0,0:0:0:0:
359,87,105403,101,2,0:0:0:0:
441,124,105559,1,10,0:0:0:0:
290,287,105715,2,0,B|320:275|328:238|328:238|351:274|399:259,1,119.999996337891,10|0,1:0|0:0,0:0:0:0:
357,340,105949,1,0,0:0:0:0:
405,276,106028,6,0,B|433:298|448:257|390:230|317:243|280:298,1,179.999994506836,8|0,0:0|0:0,0:0:0:0:
100,252,106340,2,0,P|68:243|106:245,1,119.999996337891,10|0,1:0|0:0,0:0:0:0:
390,110,106653,102,0,B|360:18|360:18|345:54,1,119.999996337891,0|8,0:0|0:0,0:0:0:0:
309,104,106887,1,0,0:0:0:0:
309,104,106965,85,10,1:0:0:0:
234,93,107043,1,10,1:0:0:0:
162,119,107121,1,10,1:0:0:0:
114,178,107199,1,10,1:0:0:0:
100,252,107278,22,0,P|87:288|58:316,1,59.9999981689454,14|0,0:0|0:0,0:0:0:0:
14,307,107434,2,0,P|43:310|72:303,1,59.9999981689454,0|0,0:0|0:0,0:0:0:0:
17,226,107590,6,0,L|7:167,1,59.9999981689454,8|0,1:0|0:0,0:0:0:0:
15,162,107746,2,0,L|26:222,1,59.9999981689454,2|2,0:0|0:0,0:0:0:0:
72,302,107903,102,0,B|154:331|154:331|197:302,1,119.999996337891,2|8,0:0|0:0,0:0:0:0:
332,199,108215,2,0,B|313:235|313:235|320:284|320:284|331:292|331:292|340:339|340:339|323:378,1,179.999994506836,10|0,1:0|0:0,0:0:0:0:
332,199,108528,6,0,B|292:192|292:192|334:217,1,59.9999981689454,8|0,0:0|0:0,0:0:0:0:
257,334,108684,1,0,0:0:0:0:
183,204,108840,2,0,B|160:229|160:229|183:321,1,119.999996337891,8|2,1:0|0:0,0:0:0:0:
266,328,109074,1,2,0:0:0:0:
257,334,109153,2,0,L|329:319,1,59.9999981689454,2|0,0:0|0:0,0:0:0:0:
401,247,109309,2,0,L|459:259,1,59.9999981689454,8|0,0:0|0:0,0:0:0:0:
288,117,109465,102,0,B|340:123|340:123|319:106|319:106|193:87,1,179.999994506836,14|0,1:0|0:0,0:0:0:0:
211,81,109778,6,0,L|300:93,1,59.9999981689454,8|0,0:0|0:0,0:0:0:0:
439,45,109934,2,0,L|411:123,1,59.9999981689454,0|0,0:0|0:0,0:0:0:0:
270,89,110090,2,0,B|299:119|299:119|265:204,1,119.999996337891,8|2,1:0|0:0,0:0:0:0:
408,187,110324,1,2,0:0:0:0:
415,182,110403,2,0,L|328:198,1,59.9999981689454,2|0,0:0|0:0,0:0:0:0:
263,351,110559,2,0,P|288:312|327:317,1,59.9999981689454,8|0,0:0|0:0,0:0:0:0:
399,344,110715,102,0,P|280:291|266:269,1,119.999996337891,10|0,1:0|0:0,0:0:0:0:
225,259,110949,1,8,1:0:0:0:
219,251,111028,5,8,0:0:0:0:
115,315,111184,2,0,P|95:313|117:304,1,59.9999981689454,0|0,0:0|0:0,0:0:0:0:
225,259,111340,69,10,1:0:0:0:
268,197,111418,1,2,0:0:0:0:
279,124,111496,1,2,0:0:0:0:
250,54,111574,1,0,0:0:0:0:
190,7,111653,22,0,P|162:15|133:44,1,59.9999981689454,2|0,0:0|0:0,0:0:0:0:
83,90,111809,2,0,P|76:118|106:138,1,59.9999981689454,8|0,0:0|0:0,0:0:0:0:
97,137,111965,6,0,P|61:149|57:178,1,59.9999981689454,10|2,1:0|0:0,0:0:0:0:
157,333,112121,2,0,P|143:307|115:302,1,59.9999981689454,2|2,0:0|0:0,0:0:0:0:
15,279,112278,102,0,P|31:257|81:247,1,59.9999981689454,14|0,0:0|0:0,0:0:0:0:
138,223,112434,1,2,0:0:0:0:
289,336,112590,1,10,1:0:0:0:
484,179,112746,6,0,P|468:157|418:147,1,59.9999981689454,14|0,0:0|0:0,0:0:0:0:
361,123,112902,1,2,0:0:0:0:
465,319,113058,1,10,1:0:0:0:
301,260,113215,101,14,0:0:0:0:
301,260,113684,1,8,0:0:0:0:
301,260,113840,2,0,L|312:181,1,59.9999981689454,8|0,1:0|0:0,0:0:0:0:
178,181,113996,2,0,L|189:102,1,59.9999981689454,8|0,1:0|0:0,0:0:0:0:
121,282,114153,5,0,0:0:0:0:
92,273,114231,1,0,0:0:0:0:
63,276,114309,1,8,0:0:0:0:
36,290,114387,1,0,0:0:0:0:
17,313,114465,69,10,1:0:0:0:
44,242,114543,1,0,0:0:0:0:
103,193,114621,1,2,0:0:0:0:
178,181,114699,1,2,0:0:0:0:
249,206,114778,22,0,P|286:212|325:201,1,59.9999981689454,14|0,0:0|0:0,0:0:0:0:
368,161,114934,1,2,0:0:0:0:
489,331,115090,1,10,1:0:0:0:
368,161,115246,6,0,P|306:135|279:146,1,59.9999981689454,14|0,0:0|0:0,0:0:0:0:
274,70,115403,1,2,0:0:0:0:
475,12,115559,1,2,0:0:0:0:
436,214,115715,101,14,0:0:0:0:
436,214,116184,1,8,0:0:0:0:
436,214,116340,2,0,L|355:231,1,59.9999981689454,8|0,1:0|0:0,0:0:0:0:
234,335,116496,2,0,L|292:322,1,59.9999981689454,8|0,1:0|0:0,0:0:0:0:
48,92,116653,6,0,L|122:103,1,59.9999981689454,0|0,0:0|0:0,0:0:0:0:
109,93,116809,2,0,L|49:101,1,59.9999981689454,8|0,0:0|0:0,0:0:0:0:
91,176,116965,69,10,1:0:0:0:
149,223,117043,1,10,1:0:0:0:
225,236,117121,1,10,1:0:0:0:
296,209,117199,1,10,1:0:0:0:
345,152,117278,22,0,P|374:127|413:117,1,59.9999981689454,14|0,0:0|0:0,0:0:0:0:
414,199,117434,1,2,0:0:0:0:
414,199,117590,1,2,0:0:0:0:
167,152,117746,6,0,P|137:127|98:117,1,59.9999981689454,14|0,0:0|0:0,0:0:0:0:
98,199,117902,1,2,0:0:0:0:
98,199,118058,1,2,0:0:0:0:
247,266,118215,54,0,B|298:212|260:148|260:148|209:90|258:38|258:38|302:81|262:145|262:145|245:154|249:198,1,419.999987182618,14|0,0:0|0:0,0:0:0:0:
248,190,121028,101,4,0:0:0:0:
256,192,121106,12,0,124778,0:0:0:0:
