osu file format v14

[General]
AudioFilename: audio.mp3
AudioLeadIn: 0
PreviewTime: 2333
Countdown: 0
SampleSet: Soft
StackLeniency: 0.7
Mode: 0
LetterboxInBreaks: 0
WidescreenStoryboard: 1

[Editor]
Bookmarks: 16317,28704,41091,50381,59672,68962,72059,81349,84446,96833,109220,120059
DistanceSpacing: 0.4
BeatDivisor: 4
GridSize: 32
TimelineZoom: 3.899998

[Metadata]
Title:Life is beautiful
TitleUnicode:Life is beautiful
Artist:BEMANI Sound Team "Nekomata Master"
ArtistUnicode:BEMANI Sound Team "猫叉Master"
Creator:anna apple
Version:Another
Source:GITADORA Matixx
Tags:Corsace 2020 f hr1 finals hardrock Housecats DeviousPanda instrumental other electronic rhythm video game 佐藤直之 Konami BEMANI SUMMER GREETINGS DanceDanceRevolution A jubeat clan pop'n music うさぎと猫と少年の夢 SOUND VOLTEX IV HEAVENLY HAVEN SDVX 4 ノスタルジア Op.2 naoyuki sato
BeatmapID:3088664
BeatmapSetID:1271996

[Difficulty]
HPDrainRate:5
CircleSize:4
OverallDifficulty:8.5
ApproachRate:7.8
SliderMultiplier:1.8
SliderTickRate:1

[Events]
//Background and Video events
0,0,"bg1120202.jpg",0,0
//Break Periods
//Storyboard Layer 0 (Background)
//Storyboard Layer 1 (Fail)
//Storyboard Layer 2 (Pass)
//Storyboard Layer 3 (Foreground)
//Storyboard Layer 4 (Overlay)
//Storyboard Sound Samples

[TimingPoints]
2377,387.096774193548,4,2,1,50,1,0
16312,-83.3333333333333,4,2,1,70,0,0
21925,-83.3333333333333,4,3,2,70,0,0
22118,-83.3333333333333,4,2,1,70,0,0
22312,-83.3333333333333,4,3,2,70,0,0
22506,-83.3333333333333,4,2,1,70,0,0
34312,-83.3333333333333,4,3,2,70,0,0
34506,-83.3333333333333,4,2,1,70,0,0
34699,-83.3333333333333,4,3,2,70,0,0
34893,-83.3333333333333,4,2,1,70,0,0
41086,-83.3333333333333,4,3,2,60,0,0
44183,-111.111111111111,4,3,2,60,0,0
44957,-83.3333333333333,4,2,1,60,0,0
49409,-83.3333333333333,4,3,2,60,0,0
49602,-83.3333333333333,4,2,1,70,0,0
59667,-83.3333333333333,4,2,1,80,0,0
65086,-83.3333333333333,4,3,2,80,0,0
65376,-83.3333333333333,4,2,1,80,0,0
65409,-83.3333333333333,4,2,2,80,0,0
65473,-83.3333333333333,4,3,2,80,0,0
65764,-83.3333333333333,4,2,1,80,0,0
65796,-83.3333333333333,4,2,2,80,0,0
65860,-83.3333333333333,4,2,1,80,0,0
71280,-83.3333333333333,4,3,2,80,0,0
71731,-83.3333333333333,4,2,1,80,0,0
84054,-83.3333333333333,4,3,2,80,0,0
84247,-83.3333333333333,4,2,1,85,0,0
109215,-83.3333333333333,4,2,1,90,0,0

[Colours]
Combo1 : 220,226,95
Combo2 : 147,187,119
Combo3 : 132,204,197
Combo4 : 193,146,140

[HitObjects]
368,328,2377,5,2,3:2:0:0:
456,304,2764,1,8,0:3:0:0:
278,193,3538,1,8,0:3:0:0:
362,155,3925,1,2,3:2:0:0:
280,104,4312,1,8,0:3:0:0:
130,18,5086,1,8,0:3:0:0:
149,95,5280,1,2,3:2:0:0:
62,342,5860,1,8,0:3:0:0:
36,104,6635,1,8,0:3:0:0:
114,122,6828,1,2,3:2:0:0:
220,319,7409,1,8,0:3:0:0:
136,338,7602,1,2,0:0:0:0:
43,270,7796,1,0,3:0:0:0:
43,270,7893,1,0,3:0:0:0:
43,270,7989,2,0,P|51:221|67:163,1,90,8|0,0:0|0:0,0:0:0:0:
205,23,8376,2,0,P|213:41|221:65,2,30,0|2|2,0:0|0:3|0:3,0:0:0:0:
106,55,8570,5,4,0:0:0:0:
301,144,8957,2,0,P|311:95|317:35,1,90,8|0,0:3|0:0,0:0:0:0:
209,220,9344,2,0,P|177:182|143:131,1,90,0|0,3:0|0:0,0:0:0:0:
319,320,9731,2,0,P|363:298|414:265,1,90,8|2,0:3|0:3,0:0:0:0:
174,369,10118,1,0,3:0:0:0:
55,174,10506,2,0,P|46:241|47:279,1,90,8|0,0:3|0:0,0:0:0:0:
138,86,10893,2,0,P|184:105|238:138,2,90,0|2|8,3:0|3:0|0:3,0:0:0:0:
7,218,11473,1,6,0:0:0:0:
35,137,11667,5,0,3:0:0:0:
192,222,12054,2,0,P|149:235|88:250,1,90,8|0,0:3|0:0,0:0:0:0:
239,120,12441,2,0,P|205:65|163:26,1,90,2|0,0:3|0:0,0:0:0:0:
335,247,12828,1,8,0:3:0:0:
371,155,13022,1,2,0:0:0:0:
452,244,13215,1,0,3:0:0:0:
316,277,13506,1,0,3:0:0:0:
316,277,13602,1,8,3:2:0:0:
180,309,13893,1,0,3:0:0:0:
180,309,13989,1,8,3:2:0:0:
44,341,14183,1,2,3:2:0:0:
44,341,14280,1,8,0:0:0:0:
44,341,14376,2,0,L|32:224,1,90,2|2,0:3|0:3,0:0:0:0:
59,210,14635,1,2,0:0:0:0:
63,197,14699,1,2,0:0:0:0:
66,184,14764,6,0,P|58:135|36:80,1,90,8|0,1:2|0:0,0:0:0:0:
4,66,15054,1,0,3:1:0:0:
245,54,15344,2,0,L|279:18,1,45,0|0,3:3|0:0,0:0:0:0:
182,109,15538,1,2,0:3:0:0:
169,141,15635,1,2,3:0:0:0:
171,175,15731,1,0,3:0:0:0:
188,205,15828,1,0,0:0:0:0:
220,218,15925,1,8,0:0:0:0:
351,186,16118,1,2,0:3:0:0:
351,186,16215,1,8,0:0:0:0:
351,186,16313,6,0,P|380:127|397:59,1,107.999996704102,4|0,1:0|0:0,0:0:0:0:
455,20,16602,2,0,L|519:6,1,53.9999983520508,0|8,3:0|3:2,0:0:0:0:
468,193,16894,2,0,L|404:208,1,53.9999983520508,0|0,0:0|3:0,0:0:0:0:
332,227,17087,2,0,P|295:307|300:349,1,107.999996704102,0|0,3:0|0:0,0:0:0:0:
373,375,17376,1,0,3:0:0:0:
373,375,17473,2,0,P|338:373|303:361,1,53.9999983520508,8|2,0:0|0:0,0:0:0:0:
212,312,17667,6,0,P|160:338|114:386,1,107.999996704102,2|0,3:2|0:0,0:0:0:0:
32,357,17957,1,0,3:0:0:0:
20,313,18054,1,8,0:0:0:0:
71,187,18247,2,0,L|76:264,1,53.9999983520508,0|0,0:0|3:0,0:0:0:0:
67,137,18441,1,0,3:0:0:0:
192,165,18635,1,0,3:0:0:0:
229,146,18731,1,8,0:0:0:0:
257,111,18828,2,0,L|279:46,1,53.9999983520508,2|0,0:3|3:0,0:0:0:0:
331,150,19022,2,0,L|350:213,1,53.9999983520508,8|2,0:0|0:3,0:0:0:0:
411,121,19215,1,0,3:0:0:0:
411,121,19409,5,0,3:0:0:0:
443,96,19506,2,0,P|464:74|484:40,1,53.9999983520508,0|4,3:0|0:0,2:0:0:0:
379,0,19699,1,0,0:0:0:0:
342,8,19796,2,0,P|315:23|289:53,1,53.9999983520508,2|0,0:3|0:0,0:0:0:0:
311,133,19989,1,8,0:0:0:0:
308,168,20086,1,2,0:0:0:0:
304,203,20183,2,0,P|266:252|219:294,1,107.999996704102,0|2,3:0|0:3,0:0:0:0:
130,309,20473,2,0,L|118:373,1,53.9999983520508,2|8,3:2|0:0,0:0:0:0:
43,172,20764,2,0,L|27:106,1,53.9999983520508,2|8,0:0|0:0,0:0:0:0:
8,240,20957,6,0,P|72:225|121:177,1,107.999996704102,0|0,3:0|3:0,0:0:0:0:
146,118,21247,1,2,0:0:0:0:
131,87,21344,1,8,0:0:0:0:
41,28,21538,1,2,1:3:0:0:
205,22,21731,2,0,L|273:33,1,53.9999983520508,8|4,0:0|1:3,0:0:0:0:
303,119,21925,2,0,L|361:129,2,35.9999989013672,8|8|8,0:0|0:0|0:0,0:0:0:0:
234,141,22118,2,0,L|317:157,1,53.9999983520508,12|0,0:0|0:0,0:0:0:0:
332,238,22312,2,0,L|388:248,2,35.9999989013672,8|8|8,0:0|0:0|0:0,0:0:0:0:
268,273,22506,6,0,P|331:287|382:323,1,107.999996704102,4|2,1:2|0:3,0:0:0:0:
420,378,22796,2,0,L|500:387,1,53.9999983520508,0|8,3:0|0:0,0:0:0:0:
433,175,23086,2,0,L|379:168,1,53.9999983520508,2|8,0:3|0:0,0:0:0:0:
297,192,23280,2,0,P|262:137|255:82,1,107.999996704102,0|2,3:0|0:0,0:0:0:0:
274,16,23570,1,0,3:0:0:0:
236,0,23667,1,8,0:0:0:0:
108,95,23860,2,0,L|119:162,1,53.9999983520508,2|8,0:0|0:0,0:0:0:0:
101,46,24054,5,2,3:3:0:0:
30,113,24247,2,0,L|10:179,1,53.9999983520508,2|0,3:2|3:0,0:0:0:0:
80,221,24441,1,8,0:0:0:0:
21,293,24635,2,0,L|-2:366,1,53.9999983520508,2|8,3:2|0:0,0:0:0:0:
83,384,24828,1,0,3:0:0:0:
193,336,25022,1,2,3:2:0:0:
224,329,25118,1,8,0:0:0:0:
255,322,25215,1,2,3:0:0:0:
339,377,25409,1,2,0:3:0:0:
430,352,25602,5,0,3:0:0:0:
430,352,25989,1,8,0:0:0:0:
448,322,26086,2,0,L|509:297,2,53.9999983520508,8|2|2,0:0|0:3|0:0,0:0:0:0:
358,307,26376,2,0,P|312:253|293:210,1,107.999996704102,0|2,3:0|0:3,0:0:0:0:
306,135,26667,1,0,3:0:0:0:
330,108,26764,2,0,L|377:95,3,35.9999989013672,8|10|2|2,0:0|0:0|0:0|3:0,0:0:0:0:
288,48,27054,1,2,0:3:0:0:
269,14,27151,5,0,3:0:0:0:
140,0,27344,1,8,0:0:0:0:
140,0,27441,1,2,0:0:0:0:
140,0,27538,2,0,P|100:47|90:102,1,107.999996704102,8|2,0:0|0:3,0:0:0:0:
92,177,27828,1,0,0:0:0:0:
74,208,27925,2,0,L|35:232,3,35.9999989013672,4|0|0|8,1:3|0:0|0:0|0:0,0:0:0:0:
108,280,28215,1,2,0:0:0:0:
139,300,28312,2,0,P|126:329|114:369,1,53.9999983520508,8|8,0:0|0:0,0:0:0:0:
242,361,28506,1,8,0:0:0:0:
242,361,28602,1,8,0:0:0:0:
242,361,28699,6,0,P|264:310|288:224,1,107.999996704102,4|0,1:0|0:0,0:0:0:0:
237,192,28989,2,0,L|230:137,1,53.9999983520508,0|8,3:0|3:2,0:0:0:0:
377,19,29280,2,0,L|383:72,1,53.9999983520508,0|0,0:0|3:0,0:0:0:0:
351,142,29473,2,0,P|371:188|410:237,1,107.999996704102,0|0,3:0|0:0,0:0:0:0:
482,277,29764,1,0,3:0:0:0:
482,277,29860,2,0,P|478:305|461:352,1,53.9999983520508,8|2,0:0|0:0,0:0:0:0:
380,377,30054,6,0,P|327:351|287:304,1,107.999996704102,6|0,3:2|0:0,0:0:0:0:
226,262,30344,2,0,P|215:282|191:318,1,53.9999983520508,0|8,3:0|0:0,0:0:0:0:
25,378,30635,2,0,P|8:354|-3:317,1,53.9999983520508,0|0,0:0|3:0,0:0:0:0:
35,260,30828,2,0,P|74:213|95:155,1,107.999996704102,0|0,3:0|3:0,0:0:0:0:
44,105,31118,1,8,0:0:0:0:
35,69,31215,2,0,L|33:15,1,53.9999983520508,2|0,0:3|3:0,0:0:0:0:
122,108,31409,2,0,L|124:162,1,53.9999983520508,8|2,0:0|0:3,0:0:0:0:
206,72,31602,1,0,3:0:0:0:
206,72,31796,5,0,3:0:0:0:
229,46,31893,2,0,P|254:31|297:18,1,53.9999983520508,0|4,3:0|0:0,0:0:0:0:
351,106,32086,1,0,0:0:0:0:
340,141,32183,2,0,P|299:171|234:179,1,107.999996704102,2|8,0:3|0:0,0:0:0:0:
167,248,32473,1,2,0:0:0:0:
157,282,32570,1,0,3:0:0:0:
252,384,32764,2,0,P|264:353|270:325,1,53.9999983520508,2|0,0:3|0:0,0:0:0:0:
256,286,32957,1,8,0:0:0:0:
356,234,33151,1,6,0:3:0:0:
356,234,33247,1,8,0:0:0:0:
356,234,33344,6,0,P|395:266|435:319,1,107.999996704102,0|0,3:0|3:0,0:0:0:0:
486,378,33635,2,0,L|514:309,1,53.9999983520508,2|8,0:0|0:0,0:0:0:0:
424,177,33925,1,8,0:0:0:0:
363,89,34118,2,0,L|295:100,1,53.9999983520508,4|2,1:3|0:0,0:0:0:0:
265,186,34312,2,0,L|207:196,2,35.9999989013672,8|8|8,0:0|0:0|0:0,0:0:0:0:
334,208,34505,2,0,L|251:224,1,53.9999983520508,12|0,0:0|0:0,0:0:0:0:
236,305,34699,2,0,L|180:315,2,35.9999989013672,8|8|8,0:0|0:0|0:0,0:0:0:0:
297,346,34893,6,0,P|244:352|179:369,1,107.999996704102,4|2,1:2|0:3,0:0:0:0:
108,373,35183,2,0,L|92:309,1,53.9999983520508,0|8,3:0|0:0,0:0:0:0:
181,129,35473,2,0,L|173:193,1,53.9999983520508,2|8,0:3|0:0,0:0:0:0:
121,243,35667,2,0,P|76:210|13:179,1,107.999996704102,0|2,3:0|0:0,0:0:0:0:
29,104,35957,1,0,3:0:0:0:
48,72,36054,1,8,0:0:0:0:
179,50,36247,2,0,L|203:-10,1,53.9999983520508,2|8,0:0|0:0,0:0:0:0:
162,97,36441,5,2,3:3:0:0:
245,15,36635,2,0,L|311:25,1,53.9999983520508,2|0,3:2|3:0,0:0:0:0:
339,100,36828,1,8,0:0:0:0:
418,15,37022,2,0,L|484:25,1,53.9999983520508,2|8,3:2|0:0,0:0:0:0:
512,100,37215,1,0,3:0:0:0:
445,194,37409,1,2,3:2:0:0:
438,225,37506,1,8,0:0:0:0:
431,256,37602,1,2,3:0:0:0:
492,341,37796,1,2,0:3:0:0:
402,384,37989,5,0,3:0:0:0:
402,384,38376,1,8,0:0:0:0:
356,359,38473,2,0,L|287:370,2,53.9999983520508,8|2|2,0:0|0:3|0:0,0:0:0:0:
341,283,38764,2,0,P|298:240|243:215,1,107.999996704102,0|0,3:0|3:0,0:0:0:0:
188,265,39054,1,8,0:0:0:0:
186,301,39151,2,0,L|205:331,3,35.9999989013672,10|2|2|2,0:0|0:0|3:0|0:3,0:0:0:0:
116,336,39441,1,0,3:0:0:0:
78,358,39538,6,0,L|12:363,1,53.9999983520508,8|0,0:0|3:0,0:0:0:0:
0,273,39731,1,8,0:0:0:0:
38,270,39828,1,8,0:0:0:0:
82,252,39925,2,0,L|108:188,1,53.9999983520508,0|8,3:0|0:0,0:0:0:0:
181,127,40118,1,0,3:0:0:0:
195,162,40215,1,8,0:0:0:0:
224,193,40312,2,0,P|253:197|286:202,1,53.9999983520508,8|0,1:2|3:0,0:0:0:0:
320,282,40506,2,0,L|243:298,1,53.9999983520508,2|2,3:2|1:2,0:0:0:0:
185,322,40699,1,8,0:0:0:0:
185,322,40796,1,8,0:0:0:0:
185,322,40893,1,8,0:0:0:0:
185,322,40989,1,8,1:2:0:0:
141,339,41086,5,4,1:0:0:0:
0,193,41667,1,2,0:3:0:0:
170,206,42247,1,2,0:3:0:0:
36,124,42828,1,2,0:0:0:0:
209,135,43409,1,8,0:0:0:0:
265,59,43796,1,4,0:2:0:0:
333,121,43989,1,0,0:0:0:0:
365,200,44183,6,0,P|366:260|345:336,1,121.499996292114,8|0,0:0|0:0,0:0:0:0:
339,344,44570,2,0,L|441:358,1,80.9999975280763,8|0,0:0|2:0,0:0:0:0:
512,384,44957,1,2,3:2:0:0:
477,279,45151,1,2,0:3:0:0:
477,279,45247,1,0,3:0:0:0:
477,279,45344,1,4,1:3:0:0:
510,177,45538,1,2,0:0:0:0:
510,177,45635,1,2,0:3:0:0:
498,139,45731,1,4,1:0:0:0:
403,75,45925,2,0,L|414:4,2,53.9999983520508,0|8|2,3:0|0:0|0:3,0:0:0:0:
359,101,46215,2,0,L|347:160,1,53.9999983520508,8|0,0:0|3:0,0:0:0:0:
234,216,46506,1,2,1:2:0:0:
234,216,46699,1,2,1:2:0:0:
116,158,46893,1,4,1:3:0:0:
139,56,47086,1,2,3:2:0:0:
139,56,47280,5,2,0:3:0:0:
244,17,47473,2,0,L|232:149,1,107.999996704102,2|8,0:0|0:0,0:0:0:0:
126,193,47860,1,4,1:3:0:0:
126,193,47957,1,4,1:3:0:0:
126,193,48054,2,0,L|58:177,1,53.9999983520508,8|0,1:2|3:0,0:0:0:0:
0,150,48247,2,0,L|23:85,2,53.9999983520508,8|0|4,0:0|3:0|1:3,0:0:0:0:
6,256,48538,2,0,L|68:286,1,53.9999983520508,8|0,0:0|3:0,0:0:0:0:
114,345,48731,1,8,0:0:0:0:
82,363,48828,6,0,L|97:284,1,53.9999983520508,8|4,0:0|0:0,0:0:0:0:
198,298,49022,2,0,L|199:240,1,53.9999983520508,8|4,0:0|1:2,0:0:0:0:
308,372,49215,2,0,L|304:316,1,53.9999983520508,12|0,0:0|0:0,0:0:0:0:
431,359,49409,1,8,0:0:0:0:
487,286,49602,1,10,0:0:0:0:
468,263,49699,1,0,0:0:0:0:
449,240,49796,1,0,3:0:0:0:
340,161,49989,1,2,3:2:0:0:
343,189,50086,1,0,3:0:0:0:
346,219,50183,1,2,1:3:0:0:
346,219,50376,6,0,P|293:234|226:263,1,107.999996704102,4|0,1:2|3:0,0:0:0:0:
168,290,50667,2,0,P|161:315|158:365,1,53.9999983520508,0|2,3:0|0:0,0:0:0:0:
34,143,50957,1,8,0:0:0:0:
108,95,51151,1,2,0:3:0:0:
153,174,51344,2,0,P|181:185|218:197,1,53.9999983520508,2|2,0:0|0:0,0:0:0:0:
267,72,51538,1,4,1:3:0:0:
346,32,51731,1,2,0:0:0:0:
367,72,51828,1,0,3:0:0:0:
385,112,51925,5,2,0:3:0:0:
466,187,52118,2,0,L|473:108,1,53.9999983520508,8|0,3:2|0:0,0:0:0:0:
413,255,52312,2,0,L|357:268,1,53.9999983520508,8|0,0:0|0:0,0:0:0:0:
501,280,52506,1,8,0:0:0:0:
512,317,52602,1,8,0:0:0:0:
502,351,52699,2,0,L|480:396,4,26.9999991760254,0|0|0|0|8,3:0|0:0|0:0|0:0|0:0,0:0:0:0:
512,317,52989,1,0,1:0:0:0:
508,286,53086,1,8,0:0:0:0:
379,321,53280,1,8,0:0:0:0:
343,298,53376,1,8,0:0:0:0:
317,276,53473,6,0,L|291:210,1,53.9999983520508,8|8,0:0|0:0,0:0:0:0:
229,352,53731,1,10,0:0:0:0:
180,300,53860,1,0,0:0:0:0:
152,319,53957,1,8,0:0:0:0:
118,331,54054,1,8,1:2:0:0:
64,283,54183,2,0,L|35:250,2,35.9999989013672,0|2|8,0:0|3:2|0:0,0:0:0:0:
107,218,54441,1,4,1:3:0:0:
60,34,54635,2,0,B|78:29|90:22|90:22|82:37|75:57,1,53.9999983520508,8|8,0:0|0:0,0:0:0:0:
21,128,54893,1,8,0:0:0:0:
102,127,55022,6,0,P|144:93|166:33,1,107.999996704102,4|8,3:0|0:0,0:0:0:0:
220,193,55409,1,0,0:0:0:0:
220,193,55506,1,8,0:0:0:0:
220,193,55602,1,0,3:0:0:0:
309,125,55796,1,2,0:3:0:0:
317,23,55989,1,2,0:3:0:0:
414,51,56183,2,0,L|477:30,2,53.9999983520508,2|0|2,1:2|0:0|3:2,0:0:0:0:
386,122,56473,1,4,3:0:0:0:
357,136,56570,5,8,0:0:0:0:
256,185,56764,1,2,0:0:0:0:
228,92,56957,1,2,3:2:0:0:
149,19,57151,2,0,L|109:11,4,26.9999991760254,2|0|0|0|8,0:3|0:0|0:0|0:0|0:0,0:0:0:0:
27,91,57538,2,0,L|55:82,4,26.9999991760254,8|0|0|0|4,0:0|0:0|0:0|0:0|1:2,0:0:0:0:
79,171,57925,1,8,0:0:0:0:
79,171,57989,1,4,3:0:0:0:
79,171,58054,1,0,3:0:0:0:
79,171,58118,6,0,L|63:258,2,53.9999983520508,8|4|0,0:0|3:0|3:0,0:0:0:0:
193,136,58409,2,0,L|186:52,2,53.9999983520508,8|0|0,0:0|3:0|0:0,0:0:0:0:
273,192,58699,1,8,0:0:0:0:
309,202,58796,1,4,1:3:0:0:
351,212,58893,2,0,L|387:172,1,53.9999983520508,8|8,0:0|0:0,0:0:0:0:
473,266,59086,2,0,L|408:276,1,53.9999983520508,8|8,0:0|0:0,0:0:0:0:
363,351,59280,2,0,L|427:367,1,53.9999983520508,8|0,0:0|0:0,0:0:0:0:
496,376,59473,1,2,0:2:0:0:
500,339,59570,1,0,0:0:0:0:
482,301,59667,6,0,L|470:229,2,53.9999983520508,4|0|2,1:0|0:0|0:3,0:0:0:0:
398,263,59957,1,0,3:0:0:0:
381,289,60054,1,12,1:2:0:0:
251,304,60247,2,0,L|282:356,2,53.9999983520508,0|2|0,0:0|3:2|3:0,0:0:0:0:
350,320,60538,1,2,0:0:0:0:
354,292,60635,1,8,0:0:0:0:
349,188,60828,2,0,P|365:173|389:169,3,35.9999989013672,8|0|0|0,0:0|0:0|0:0|3:0,0:0:0:0:
456,167,61118,1,0,3:0:0:0:
477,150,61215,5,4,1:3:0:0:
433,41,61409,2,0,P|414:31|393:28,3,35.9999989013672,2|0|0|4,0:3|0:0|0:0|1:3,0:0:0:0:
329,57,61699,1,2,0:0:0:0:
300,53,61796,1,8,0:0:0:0:
213,117,61989,1,4,1:3:0:0:
180,98,62086,1,2,0:0:0:0:
152,73,62183,2,0,P|136:50|125:22,1,53.9999983520508,8|4,0:0|3:0,0:0:0:0:
42,71,62376,1,8,1:2:0:0:
27,99,62473,1,8,0:0:0:0:
18,129,62570,2,0,P|24:157|34:186,1,53.9999983520508,2|4,0:0|3:0,0:0:0:0:
131,211,62764,6,0,L|203:221,2,53.9999983520508,4|2|2,3:0|0:0|1:3,0:0:0:0:
176,298,63054,1,2,0:0:0:0:
147,308,63151,1,8,1:2:0:0:
83,384,63344,2,0,L|28:356,2,53.9999983520508,2|0|4,0:0|3:0|3:0,0:0:0:0:
97,281,63635,1,2,0:0:0:0:
120,301,63731,1,8,0:0:0:0:
234,367,63925,2,0,P|258:356|277:344,3,35.9999989013672,0|2|2|10,1:0|0:0|0:0|0:0,0:0:0:0:
305,278,64215,1,2,3:2:0:0:
339,280,64312,5,4,3:0:0:0:
303,174,64506,2,0,P|283:162|261:154,3,35.9999989013672,2|2|2|8,1:2|0:0|0:0|1:2,0:0:0:0:
192,168,64796,1,2,0:0:0:0:
159,163,64893,1,2,1:3:0:0:
150,55,65086,2,0,L|224:41,1,53.9999983520508,8|0,0:0|0:0,0:0:0:0:
277,69,65280,1,8,0:0:0:0:
291,73,65344,1,0,0:0:0:0:
306,79,65409,1,0,0:0:0:0:
321,85,65473,2,0,L|392:95,1,53.9999983520508,8|0,0:0|0:0,0:0:0:0:
436,30,65667,2,0,P|446:8|461:-8,2,35.9999989013672,8|0|0,0:0|0:0|0:0,0:0:0:0:
484,110,65860,6,0,L|514:175,2,53.9999983520508,4|2|2,1:2|0:0|1:3,0:0:0:0:
419,192,66151,1,4,3:0:0:0:
397,168,66247,1,0,1:0:0:0:
294,205,66441,2,0,L|301:138,2,53.9999983520508,2|0|4,1:3|3:0|3:0,0:0:0:0:
405,153,66731,1,2,0:0:0:0:
384,177,66828,1,8,0:0:0:0:
338,287,67022,2,0,P|320:299|293:309,3,35.9999989013672,2|2|2|2,1:2|0:0|0:0|3:2,0:0:0:0:
218,303,67312,1,4,3:0:0:0:
189,280,67409,5,8,1:2:0:0:
98,375,67602,2,0,P|90:353|72:331,3,35.9999989013672,2|2|2|4,1:3|0:0|0:0|1:3,0:0:0:0:
16,288,67893,1,2,0:0:0:0:
4,255,67989,1,2,1:3:0:0:
112,203,68183,1,4,3:0:0:0:
136,172,68280,1,2,0:0:0:0:
156,139,68376,2,0,P|165:112|169:83,1,53.9999983520508,8|4,0:0|3:0,0:0:0:0:
72,13,68570,1,8,0:0:0:0:
83,52,68667,1,8,0:0:0:0:
120,79,68764,2,0,P|148:92|183:102,1,53.9999983520508,0|0,1:0|0:0,0:0:0:0:
262,64,68957,5,4,1:2:0:0:
262,64,69054,1,2,0:0:0:0:
343,29,69247,1,0,3:0:0:0:
343,29,69344,1,4,1:3:0:0:
428,73,69538,1,2,1:2:0:0:
434,101,69635,1,4,3:0:0:0:
354,165,69828,1,2,0:0:0:0:
338,142,69925,1,2,1:3:0:0:
447,195,70118,1,8,1:2:0:0:
477,201,70215,1,2,0:3:0:0:
372,253,70409,1,2,0:0:0:0:
353,274,70506,5,4,3:0:0:0:
379,370,70699,1,4,0:0:0:0:
413,354,70796,1,4,1:3:0:0:
474,284,70989,1,4,1:2:0:0:
503,272,71086,1,0,0:0:0:0:
463,202,71280,2,0,L|477:160,4,35.9999989013672,12|8|8|8|8,0:0|0:0|0:0|0:0|0:0,0:0:0:0:
374,176,71667,2,0,L|313:171,2,35.9999989013672,8|10|0,0:0|0:0|0:0,0:0:0:0:
405,111,71860,2,0,L|451:91,2,35.9999989013672,2|2|2,1:2|0:0|0:0,0:0:0:0:
313,91,72054,5,4,1:0:0:0:
291,61,72151,2,0,B|293:35|293:35|308:61,1,53.9999983520508,0|2,0:0|0:3,0:0:0:0:
238,155,72344,1,4,3:0:0:0:
247,122,72441,1,8,0:0:0:0:
159,182,72634,1,4,3:0:0:0:
137,212,72731,2,0,B|139:238|139:238|154:212,1,53.9999983520508,2|2,0:0|1:2,0:0:0:0:
255,142,72925,1,4,3:0:0:0:
239,173,73022,1,8,0:0:0:0:
314,232,73215,6,0,P|327:241|345:257,3,35.9999989013672,4|2|2|0,3:0|0:3|0:3|3:0,0:0:0:0:
371,334,73506,1,4,3:0:0:0:
372,362,73602,1,8,0:0:0:0:
495,384,73796,2,0,P|505:353|512:333,3,35.9999989013672,0|2|2|8,3:0|0:0|0:0|0:0,0:0:0:0:
462,278,74086,1,2,0:3:0:0:
469,249,74183,1,2,1:3:0:0:
498,120,74376,1,2,3:2:0:0:
454,141,74473,1,0,1:0:0:0:
406,131,74570,2,0,B|380:120|380:120|406:117,1,53.9999983520508,2|0,1:3|3:0,0:0:0:0:
435,27,74764,1,8,0:0:0:0:
399,59,74860,1,8,0:0:0:0:
373,100,74957,2,0,P|362:126|361:185,1,53.9999983520508,2|4,0:0|3:0,0:0:0:0:
296,230,75151,5,4,1:3:0:0:
319,257,75247,2,0,P|314:280|313:257,1,53.9999983520508,2|2,0:0|1:2,0:0:0:0:
222,193,75441,1,0,3:0:0:0:
238,226,75538,1,8,1:2:0:0:
265,130,75731,1,2,0:2:0:0:
279,97,75828,2,0,P|267:76|273:98,1,53.9999983520508,4|4,0:3|3:0,0:0:0:0:
208,204,76021,1,2,0:0:0:0:
221,173,76118,1,2,0:3:0:0:
119,127,76312,2,0,P|96:123|67:107,3,35.9999989013672,8|2|2|2,0:0|0:0|0:0|1:3,0:0:0:0:
46,56,76602,1,4,1:3:0:0:
43,30,76699,5,4,1:2:0:0:
167,0,76893,2,0,P|169:25|166:54,3,35.9999989013672,2|0|0|2,0:3|0:0|0:0|1:2,0:0:0:0:
134,117,77183,1,0,0:0:0:0:
111,141,77280,1,2,0:3:0:0:
8,237,77473,2,0,L|99:249,1,53.9999983520508,8|0,1:2|0:0,0:0:0:0:
106,321,77667,1,8,0:0:0:0:
120,317,77731,1,8,0:0:0:0:
135,311,77796,1,8,0:0:0:0:
150,305,77860,2,0,L|221:295,1,53.9999983520508,4|0,1:3|0:0,0:0:0:0:
286,346,78054,2,0,L|332:364,2,35.9999989013672,4|2|2,3:0|0:0|0:0,0:0:0:0:
275,268,78247,5,4,1:2:0:0:
291,238,78344,2,0,B|317:228|317:228|299:263,1,53.9999983520508,2|2,0:0|1:3,0:0:0:0:
215,315,78538,1,2,1:3:0:0:
82,198,78828,1,4,1:3:0:0:
67,168,78925,2,0,B|47:148|47:148|49:187,1,53.9999983520508,2|8,0:0|3:2,0:0:0:0:
103,268,79118,1,0,1:0:0:0:
150,103,79409,1,2,0:3:0:0:
181,94,79506,1,8,0:0:0:0:
217,86,79602,1,8,1:2:0:0:
253,77,79699,1,2,1:3:0:0:
291,70,79796,5,4,1:3:0:0:
416,59,79989,2,0,P|448:52|426:83,1,53.9999983520508,4|4,1:3|3:0,0:0:0:0:
421,138,80183,1,8,0:0:0:0:
390,152,80280,1,2,0:0:0:0:
359,150,80376,1,2,0:3:0:0:
257,237,80570,2,0,L|187:248,2,53.9999983520508,4|2|2,3:0|0:0|0:3,0:0:0:0:
343,286,80860,1,0,3:0:0:0:
381,276,80957,2,0,L|412:203,1,53.9999983520508,8|2,1:2|0:0,0:0:0:0:
471,313,81151,2,0,L|494:383,1,53.9999983520508,2|2,0:3|1:3,0:0:0:0:
384,362,81344,5,12,0:0:0:0:
347,351,81441,1,4,0:3:0:0:
310,340,81538,1,4,3:0:0:0:
272,328,81635,2,0,B|259:305|259:305|302:321,2,53.9999983520508,8|4|0,0:0|3:0|0:0,0:0:0:0:
197,241,81925,1,8,0:0:0:0:
187,279,82022,1,4,3:0:0:0:
150,311,82118,1,0,3:0:0:0:
118,284,82215,2,0,P|92:290|106:319,2,53.9999983520508,2|4|0,0:0|2:3|0:0,0:0:0:0:
148,188,82506,1,8,1:2:0:0:
166,221,82602,2,0,L|235:233,1,53.9999983520508,0|2,0:0|0:3,0:0:0:0:
304,244,82796,1,4,0:3:0:0:
306,206,82893,6,0,L|379:179,1,53.9999983520508,4|0,3:0|3:0,0:0:0:0:
445,171,83086,2,0,B|468:188|468:188|439:210,5,53.9999983520508,4|2|8|2|2|2,1:3|0:0|0:0|0:0|0:0|3:2,0:0:0:0:
350,180,83667,1,4,0:3:0:0:
324,154,83764,1,0,0:0:0:0:
302,124,83860,2,0,P|306:95|337:72,1,53.9999983520508,8|8,0:0|0:0,0:0:0:0:
400,39,84054,2,0,L|255:55,1,107.999996704102,8|8,0:0|0:0,0:0:0:0:
225,15,84344,1,8,0:0:0:0:
185,38,84441,5,4,1:0:0:0:
151,31,84538,1,0,0:0:0:0:
62,97,84731,1,4,3:0:0:0:
96,104,84828,1,0,0:0:0:0:
141,200,85022,1,4,1:3:0:0:
107,193,85119,1,4,3:0:0:0:
73,186,85215,2,0,P|34:218|68:287,1,107.999996704102,8|2,0:0|1:3,0:0:0:0:
132,370,85602,1,2,1:3:0:0:
148,362,85667,1,2,0:0:0:0:
164,354,85731,1,2,0:0:0:0:
180,346,85796,2,0,P|204:350|237:364,1,53.9999983520508,8|0,0:0|0:0,0:0:0:0:
321,384,85989,5,4,1:3:0:0:
359,361,86086,2,0,P|378:329|385:299,1,53.9999983520508,0|2,0:0|0:3,0:0:0:0:
332,256,86280,1,4,3:0:0:0:
328,100,86570,1,4,1:3:0:0:
328,100,86667,1,4,3:0:0:0:
328,100,86764,2,0,P|376:145|385:202,1,107.999996704102,8|0,0:0|0:0,0:0:0:0:
319,245,87054,2,0,L|245:254,1,53.9999983520508,8|2,0:0|0:3,0:0:0:0:
194,238,87215,1,0,0:0:0:0:
179,228,87280,1,0,0:0:0:0:
163,218,87344,2,0,L|155:163,2,35.9999989013672,2|2|2,1:2|0:0|0:0,0:0:0:0:
84,255,87538,5,4,1:3:0:0:
48,242,87635,2,0,P|24:213|6:177,1,53.9999983520508,0|2,0:0|0:3,0:0:0:0:
33,127,87828,1,4,3:0:0:0:
174,36,88118,1,4,3:0:0:0:
174,36,88215,1,4,3:0:0:0:
174,36,88312,2,0,P|119:35|72:87,1,107.999996704102,8|2,0:0|0:3,0:0:0:0:
38,140,88602,2,0,P|37:169|27:210,2,53.9999983520508
0,58,88893,2,0,P|10:34|35:1,1,53.9999983520508,8|8,0:0|0:0,0:0:0:0:
98,41,89086,5,4,1:3:0:0:
119,77,89183,2,0,L|186:99,1,53.9999983520508,0|2,0:0|0:3,0:0:0:0:
270,130,89376,1,4,3:0:0:0:
268,82,89473,2,0,L|346:59,1,53.9999983520508,8|8,1:2|0:0,0:0:0:0:
422,71,89667,1,4,1:3:0:0:
386,55,89764,1,4,3:0:0:0:
350,39,89860,1,8,0:0:0:0:
463,49,90054,2,0,P|484:37|503:31,2,35.9999989013672,2|0|0,1:2|0:0|0:0,0:0:0:0:
413,125,90247,2,0,P|409:176|411:268,1,107.999996704102,8|2,1:2|1:3,0:0:0:0:
456,307,90538,1,4,3:0:0:0:
419,331,90635,6,0,L|343:321,1,53.9999983520508,12|0,0:0|0:0,0:0:0:0:
292,256,90828,1,2,1:3:0:0:
272,285,90925,2,0,L|195:296,1,53.9999983520508,4|8,3:2|0:0,0:0:0:0:
146,360,91118,1,4,3:0:0:0:
126,333,91215,1,8,1:2:0:0:
58,202,91409,2,0,L|-5:184,2,53.9999983520508,2|4|4,1:2|1:3|3:0,0:0:0:0:
124,145,91699,1,8,0:0:0:0:
148,106,91796,2,0,L|225:98,1,53.9999983520508,0|0,1:0|0:0,0:0:0:0:
267,41,91989,1,4,3:0:0:0:
254,34,92054,1,2,0:0:0:0:
241,27,92118,1,2,0:0:0:0:
228,18,92183,5,4,3:0:0:0:
185,17,92280,2,0,L|107:34,1,53.9999983520508,0|4,0:0|1:3,0:0:0:0:
47,91,92473,1,4,3:0:0:0:
38,129,92570,2,0,L|98:150,2,53.9999983520508,0|8|4,1:0|0:0|3:0,0:0:0:0:
199,223,92957,1,8,0:0:0:0:
200,187,93054,1,8,0:0:0:0:
293,142,93247,1,0,0:0:0:0:
320,174,93344,2,0,L|381:182,1,53.9999983520508,2|8,1:3|0:0,0:0:0:0:
452,151,93538,1,4,3:0:0:0:
455,137,93602,1,2,0:0:0:0:
458,122,93667,1,2,0:0:0:0:
461,108,93731,6,0,P|429:57|390:15,1,107.999996704102,4|2,1:2|1:2,0:0:0:0:
325,39,94022,2,0,L|246:54,1,53.9999983520508,4|8,3:0|0:0,0:0:0:0:
196,206,94312,2,0,L|256:214,1,53.9999983520508,4|4,1:3|1:3,0:0:0:0:
325,261,94506,1,8,0:0:0:0:
342,309,94602,2,0,P|284:320|216:349,1,107.999996704102
176,381,94893,1,4,1:3:0:0:
132,365,94989,2,0,L|67:372,1,53.9999983520508,4|8,3:0|0:0,0:0:0:0:
12,328,95183,1,0,0:0:0:0:
12,328,95280,6,0,P|54:291|88:226,1,107.999996704102,4|2,1:3|0:3,0:0:0:0:
78,157,95570,1,4,3:0:0:0:
88,189,95667,1,8,1:2:0:0:
194,124,95860,1,4,3:0:0:0:
203,159,95957,1,0,0:0:0:0:
200,200,96054,1,8,0:0:0:0:
318,165,96247,1,4,0:0:0:0:
315,283,96441,1,2,1:2:0:0:
356,272,96538,2,0,P|397:243|437:199,1,107.999996704102,4|2,3:2|0:0,0:0:0:0:
484,141,96828,5,4,1:0:0:0:
440,122,96925,2,0,L|433:57,1,53.9999983520508
367,13,97118,1,4,3:0:0:0:
340,44,97215,1,8,0:0:0:0:
256,76,97409,1,4,3:0:0:0:
203,155,97602,1,4,1:3:0:0:
203,155,97699,1,4,3:0:0:0:
165,119,97796,1,12,1:2:0:0:
99,33,97989,2,0,L|71:131,1,53.9999983520508,4|0,3:0|0:0,0:0:0:0:
23,128,98183,1,8,0:0:0:0:
18,141,98247,1,2,0:0:0:0:
14,155,98312,1,2,0:0:0:0:
14,169,98376,6,0,P|33:218|41:286,1,107.999996704102,4|0,1:3|0:0,0:0:0:0:
75,347,98667,2,0,L|138:357,1,53.9999983520508,4|8,1:3|1:2,0:0:0:0:
240,235,98957,2,0,L|186:226,1,53.9999983520508,4|4,3:0|3:0,0:0:0:0:
136,169,99151,1,8,0:0:0:0:
111,133,99247,2,0,P|97:106|95:69,1,53.9999983520508,0|2,0:0|2:3,0:0:0:0:
179,15,99441,1,8,0:0:0:0:
213,31,99538,2,0,P|231:55|256:109,1,53.9999983520508,4|0,1:3|0:0,0:0:0:0:
264,150,99731,1,8,0:0:0:0:
278,153,99796,1,2,0:0:0:0:
291,156,99860,1,2,0:0:0:0:
304,160,99925,6,0,P|367:150|419:133,1,107.999996704102,4|2,1:2|1:3,0:0:0:0:
463,86,100215,2,0,L|476:19,1,53.9999983520508,4|8,3:0|1:2,0:0:0:0:
486,189,100441,1,0,0:0:0:0:
491,201,100506,2,0,P|474:225|462:275,2,53.9999983520508,4|4|8,3:0|3:0|0:0,0:0:0:0:
422,159,100796,1,2,0:0:0:0:
342,335,100989,1,8,0:0:0:0:
312,356,101086,2,0,L|227:367,1,53.9999983520508,2|2,1:3|0:3,0:0:0:0:
180,325,101280,1,8,0:0:0:0:
133,337,101376,1,8,0:0:0:0:
107,368,101473,6,0,P|73:336|52:264,1,107.999996704102,4|2,1:3|0:3,0:0:0:0:
90,214,101764,2,0,P|105:186|120:152,1,53.9999983520508,4|8,3:0|0:0,0:0:0:0:
274,248,102054,2,0,P|264:219|243:179,1,53.9999983520508,4|4,1:3|3:3,0:0:0:0:
200,134,102247,1,8,1:2:0:0:
169,108,102344,2,0,P|174:41|207:-7,1,107.999996704102,0|4,0:0|3:0,0:0:0:0:
286,22,102635,1,8,0:0:0:0:
323,32,102731,1,2,0:0:0:0:
362,25,102828,2,0,P|391:9|431:2,1,53.9999983520508,2|0,1:2|0:0,0:0:0:0:
499,85,103022,5,4,1:2:0:0:
456,105,103118,2,0,L|372:98,1,53.9999983520508,0|8,0:0|0:0,0:0:0:0:
340,154,103312,1,4,0:0:0:0:
228,88,103506,1,8,0:0:0:0:
210,121,103602,1,4,1:0:0:0:
131,185,103796,2,0,P|92:149|25:112,1,107.999996704102,8|4,0:0|3:0,0:0:0:0:
0,204,104086,1,4,3:0:0:0:
7,244,104183,2,0,L|82:268,1,53.9999983520508,8|0,1:2|0:0,0:0:0:0:
134,315,104376,1,4,3:0:0:0:
127,329,104441,1,2,0:0:0:0:
116,341,104506,1,2,0:2:0:0:
103,351,104570,5,4,1:3:0:0:
60,367,104667,2,0,P|12:320|6:265,1,107.999996704102,8|4,0:0|3:0,0:0:0:0:
76,224,104957,1,8,0:0:0:0:
111,193,105054,2,0,L|140:117,1,53.9999983520508,8|4,0:0|3:0,0:0:0:0:
232,236,105344,2,0,L|289:241,2,35.9999989013672,8|8|8,0:0|0:0|3:2,0:0:0:0:
203,304,105538,2,0,L|154:318,2,35.9999989013672,8|4|4,0:0|1:3|1:3,0:0:0:0:
270,346,105731,1,8,0:0:0:0:
304,370,105828,2,0,L|379:373,1,53.9999983520508,0|8,0:0|0:0,0:0:0:0:
429,348,105989,1,8,0:0:0:0:
436,335,106054,1,8,0:0:0:0:
440,321,106118,6,0,P|448:269|436:204,1,107.999996704102,4|4,1:0|3:0,0:0:0:0:
361,174,106409,2,0,L|274:189,1,53.9999983520508,4|4,3:0|0:0,0:0:0:0:
179,26,106796,1,4,3:0:0:0:
159,54,106893,2,0,L|147:148,1,53.9999983520508,4|0,1:2|0:0,0:0:0:0:
229,162,107086,1,2,1:2:0:0:
238,151,107151,1,0,3:0:0:0:
247,140,107215,1,0,3:0:0:0:
257,129,107280,1,12,1:2:0:0:
421,56,107473,2,0,P|438:61|463:75,2,35.9999989013672,8|8|8,0:0|0:0|0:0,0:0:0:0:
359,12,107667,5,4,1:3:0:0:
334,47,107764,2,0,P|332:101|361:169,1,107.999996704102,0|4,0:0|1:3,0:0:0:0:
426,190,108054,1,0,1:0:0:0:
349,364,108344,1,4,1:3:0:0:
314,333,108441,2,0,P|288:337|264:346,5,35.9999989013672,4|2|2|10|4|4,1:2|0:0|0:0|0:0|1:3|0:3,0:0:0:0:
293,262,108828,2,0,P|306:244|324:215,2,35.9999989013672,8|8|8,1:2|0:0|0:0,0:0:0:0:
223,239,109022,2,0,P|201:246|163:264,2,35.9999989013672,2|8|8,1:2|0:0|0:0,0:0:0:0:
254,167,109215,5,4,1:2:0:0:
246,130,109312,1,2,0:0:0:0:
121,140,109506,1,4,1:3:0:0:
112,104,109602,2,0,L|139:41,3,53.9999983520508,2|4|4|0,0:0|1:3|1:3|0:0,0:0:0:0:
58,17,109989,1,12,0:0:0:0:
67,205,110280,1,4,3:0:0:0:
27,221,110376,2,0,L|17:283,1,53.9999983520508,8|2,3:2|0:0,0:0:0:0:
102,322,110570,2,0,L|110:268,1,53.9999983520508,2|4,1:3|3:0,0:0:0:0:
180,207,110764,5,10,0:0:0:0:
200,172,110860,1,0,0:0:0:0:
266,300,111054,1,0,0:0:0:0:
305,289,111151,2,0,L|369:315,1,53.9999983520508,8|4,0:0|3:0,0:0:0:0:
433,370,111344,1,8,0:0:0:0:
450,337,111441,1,2,1:2:0:0:
449,298,111538,2,0,L|446:242,1,53.9999983520508,4|2,1:2|0:0,0:0:0:0:
367,203,111731,2,0,L|333:137,1,53.9999983520508,4|8,3:0|3:2,0:0:0:0:
429,96,111925,2,0,P|408:116|377:142,1,53.9999983520508,8|4,1:2|3:0,0:0:0:0:
323,69,112118,2,0,P|344:49|375:23,1,53.9999983520508,8|2,0:0|3:2,0:0:0:0:
471,17,112312,5,10,0:0:0:0:
453,57,112409,1,8,0:0:0:0:
314,81,112602,1,10,0:0:0:0:
298,41,112699,1,4,3:0:0:0:
189,71,112893,1,8,0:0:0:0:
189,71,112989,1,4,1:3:0:0:
155,106,113086,1,10,0:0:0:0:
110,101,113183,1,4,3:0:0:0:
206,224,113376,1,2,1:2:0:0:
249,216,113473,1,4,3:0:0:0:
335,307,113667,1,4,3:0:0:0:
335,307,113764,1,8,0:0:0:0:
311,353,113860,5,2,1:2:0:0:
262,328,113957,1,8,0:0:0:0:
146,303,114151,1,10,0:0:0:0:
126,341,114247,2,0,L|61:363,3,53.9999983520508,8|4|4|0,0:0|3:0|1:3|0:0,0:0:0:0:
15,311,114635,1,2,1:2:0:0:
52,288,114731,1,8,0:0:0:0:
77,158,114925,1,4,1:3:0:0:
36,137,115022,2,0,L|15:75,1,53.9999983520508,2|4,1:3|0:3,0:0:0:0:
88,20,115215,1,8,1:2:0:0:
102,22,115280,1,8,0:0:0:0:
116,24,115344,1,8,0:0:0:0:
130,26,115409,5,6,1:2:0:0:
326,50,115699,1,2,1:2:0:0:
138,125,115989,1,10,0:0:0:0:
337,158,116280,1,2,1:2:0:0:
223,229,116473,1,8,0:0:0:0:
205,265,116570,1,2,0:0:0:0:
321,357,116764,1,2,1:3:0:0:
311,321,116860,1,8,0:0:0:0:
328,288,116957,6,0,L|379:252,1,53.9999983520508,4|0,1:3|0:0,0:0:0:0:
411,184,117151,1,2,3:2:0:0:
431,317,117344,1,4,1:3:0:0:
439,358,117441,1,0,0:0:0:0:
483,372,117538,2,0,L|515:364,1,26.9999991760254,4|8,3:0|0:0,0:0:0:0:
486,248,117731,2,0,L|506:198,2,35.9999989013672,2|4|8,1:2|3:0|0:0,0:0:0:0:
343,239,118022,1,2,0:0:0:0:
315,212,118118,2,0,L|296:159,2,35.9999989013672,2|8|4,1:2|0:0|3:0,0:0:0:0:
243,236,118312,1,10,0:0:0:0:
107,295,118506,5,8,1:2:0:0:
67,283,118602,1,0,0:0:0:0:
27,142,118796,1,8,0:0:0:0:
74,125,118893,1,4,1:3:0:0:
83,76,118989,2,0,L|14:65,1,53.9999983520508,4|4,3:0|1:3,0:0:0:0:
82,0,119183,1,0,3:0:0:0:
82,0,119280,2,0,L|103:78,1,53.9999983520508,8|8,0:0|0:0,0:0:0:0:
174,103,119473,1,8,0:0:0:0:
206,86,119570,2,0,L|215:53,2,26.9999991760254,8|8|4,0:0|0:0|3:0,0:0:0:0:
327,173,119860,1,4,1:3:0:0:
365,148,119957,1,4,3:0:0:0:
392,106,120054,5,8,0:0:0:0:
392,106,120151,1,4,1:3:0:0:
436,127,120247,1,4,3:0:0:0:
492,117,120344,1,8,0:0:0:0:
440,281,120635,1,8,0:0:0:0:
440,281,120731,1,4,3:0:0:0:
395,250,120828,1,4,1:3:0:0:
340,253,120925,1,8,0:0:0:0:
210,200,121215,1,8,1:2:0:0:
165,219,121312,2,0,L|163:288,1,53.9999983520508,0|8,0:0|1:3,0:0:0:0:
160,354,121506,1,2,1:2:0:0:
