osu file format v14

[General]
AudioFilename: nicolaus.mp3
AudioLeadIn: 1500
PreviewTime: 102276
Countdown: 0
SampleSet: Soft
StackLeniency: 0.7
Mode: 3
LetterboxInBreaks: 0
EpilepsyWarning: 1
SpecialStyle: 0
WidescreenStoryboard: 1

[Editor]
Bookmarks: 30832,70531,79103
DistanceSpacing: 1
BeatDivisor: 4
GridSize: 16
TimelineZoom: 1.499999

[Metadata]
Title:Nicolaus-san no Dekigokoro
TitleUnicode:ニコラウスさんの出来心
Artist:BEMANI Sound Team "Mr.Nicolaus"
ArtistUnicode:BEMANI Sound Team "Mr.Nicolaus"
Creator:MJHs
Version:Advanced
Source:ノスタルジア Op.3
Tags:Akhuta Video Game Instrumental Piano Metal Jingle Bells James Pierpont ノスタルジア NOSTALGIA Op.3 KONAMI BEMANI Christmas xmas x-mas The Whim of Mr. Nicolaus Nicholas FAMoss Arzenvald ajeemaniz ExUsagi
BeatmapID:2708845
BeatmapSetID:1306506

[Difficulty]
HPDrainRate:7.2
CircleSize:5
OverallDifficulty:7.2
ApproachRate:9
SliderMultiplier:1.4
SliderTickRate:1

[Events]
//Background and Video events
0,0,"bg.jpg",0,0
//Break Periods
//Storyboard Layer 0 (Background)
//Storyboard Layer 1 (Fail)
//Storyboard Layer 2 (Pass)
//Storyboard Layer 3 (Foreground)
//Storyboard Layer 4 (Overlay)
//Storyboard Sound Samples
Sample,23387,0,"soft-hitclap.wav",60
Sample,25192,0,"soft-hitclap.wav",60
Sample,26997,0,"soft-hitclap.wav",60
Sample,27222,0,"soft-hitclap.wav",60
Sample,33538,0,"soft-hitclap.wav",60
Sample,33989,0,"soft-hitclap.wav",60
Sample,36245,0,"soft-hitclap.wav",60
Sample,37147,0,"soft-hitclap.wav",60
Sample,40305,0,"soft-hitclap.wav",60
Sample,41207,0,"soft-hitclap.wav",60
Sample,42560,0,"soft-hitclap.wav",60
Sample,54064,0,"soft-hitclap.wav",60
Sample,81809,0,"soft-hitclap.wav",60
Sample,82260,0,"soft-hitclap.wav",60
Sample,85757,0,"soft-hitclap.wav",60
Sample,86095,0,"soft-hitclap.wav",60
Sample,88576,0,"soft-hitclap.wav",60
Sample,89478,0,"soft-hitclap.wav",60
Sample,90832,0,"soft-hitclap.wav",60
Sample,104271,0,"soft-hitclap.wav",60
Sample,106824,0,"soft-hitclap.wav",60
Sample,109377,0,"soft-hitclap.wav",60
Sample,111930,0,"soft-hitclap.wav",60
Sample,114483,0,"soft-hitclap.wav",60

[TimingPoints]
1462,319.149,4,2,1,60,1,0
1462,-140.845070422535,4,2,1,60,0,0
9121,340.909,4,2,1,60,1,0
9121,-131.578947368421,4,2,1,60,0,0
9462,361.446,4,2,1,60,1,8
9462,-125,4,2,1,60,0,8
9823,387.097,4,2,1,60,1,8
9823,-116.279069767442,4,2,1,60,0,8
10211,413.793,4,2,1,60,1,8
10211,-108.695652173913,4,2,1,60,0,8
10624,495.868,4,2,1,60,1,0
10624,-90.9090909090909,4,2,1,60,0,0
14591,451.128,4,2,1,60,1,0
14591,-100,4,2,1,60,0,1
14647,-100,4,2,1,60,0,0
30831,-100,4,2,1,60,0,1
30887,-100,4,2,1,60,0,0
74479,451.127819548872,4,2,1,60,1,0
79103,451.127819548872,4,2,1,60,1,0
79103,-100,4,2,1,60,0,1
79159,-100,4,2,1,60,0,0
100757,319.149,5,2,1,60,1,0
100757,-140.845070422535,5,2,1,60,0,0
102037,319.149,4,2,1,60,1,0
102037,-140.845070422535,4,2,1,60,0,0
103313,-140.845070422535,4,2,1,60,0,1
126292,-140.845070422535,4,2,1,60,0,0

[HitObjects]
51,192,1462,5,0,0:0:0:0:
460,192,1781,1,0,0:0:0:0:
358,192,2100,1,0,0:0:0:0:
460,192,2419,1,0,0:0:0:0:
153,192,2738,1,0,0:0:0:0:
460,192,3057,1,0,0:0:0:0:
51,192,3376,1,0,0:0:0:0:
460,192,3696,1,0,0:0:0:0:
256,192,4015,1,0,0:0:0:0:
460,192,4334,1,0,0:0:0:0:
153,192,4653,1,0,0:0:0:0:
460,192,4972,1,0,0:0:0:0:
358,192,5291,1,0,0:0:0:0:
460,192,5610,1,0,0:0:0:0:
256,192,5930,1,0,0:0:0:0:
460,192,6249,1,0,0:0:0:0:
358,192,6568,1,0,0:0:0:0:
153,192,6568,1,2,0:0:0:0:
256,192,6887,1,2,0:0:0:0:
51,192,6887,1,0,0:0:0:0:
358,192,7206,1,0,0:0:0:0:
153,192,7206,1,2,0:0:0:0:
460,192,7525,1,0,0:0:0:0:
51,192,7738,1,2,0:0:0:0:
460,192,7844,1,0,0:0:0:0:
256,192,7844,1,0,0:0:0:0:
153,192,8057,1,2,0:0:0:0:
358,192,8164,1,0,0:0:0:0:
51,192,8376,1,2,0:0:0:0:
256,192,8483,1,0,0:0:0:0:
153,192,8483,1,2,0:0:0:0:
460,192,8802,1,0,0:0:0:0:
358,192,8802,1,8,0:0:0:0:
358,192,9121,1,4,0:0:0:0:
51,192,9121,1,2,0:0:0:0:
256,192,9462,1,0,0:0:0:0:
153,192,9823,1,0,0:0:0:0:
256,192,10211,1,0,0:0:0:0:
460,192,10624,128,0,14591:0:0:0:0:
51,192,10624,1,0,0:0:0:0:
256,192,14591,1,4,0:0:0:0:
51,192,14591,1,2,0:0:0:0:
153,192,15042,1,0,0:0:0:0:
460,192,15380,1,0,0:0:0:0:
460,192,15606,1,0,0:0:0:0:
256,192,15944,1,0,0:0:0:0:
51,192,16282,1,0,0:0:0:0:
358,192,16508,1,0,0:0:0:0:
256,192,16846,1,0,0:0:0:0:
460,192,17184,1,0,0:0:0:0:
153,192,17410,1,0,0:0:0:0:
358,192,17748,1,0,0:0:0:0:
256,192,18200,1,4,0:0:0:0:
153,192,18200,1,0,0:0:0:0:
51,192,18200,1,2,0:0:0:0:
256,192,18538,1,4,0:0:0:0:
153,192,18538,1,0,0:0:0:0:
51,192,18538,1,2,0:0:0:0:
256,192,18876,1,4,0:0:0:0:
153,192,18876,1,0,0:0:0:0:
51,192,18876,1,2,0:0:0:0:
358,192,19215,1,0,0:0:0:0:
460,192,19327,1,0,0:0:0:0:
153,192,19327,1,0,0:0:0:0:
460,192,19666,1,0,0:0:0:0:
256,192,19666,1,0,0:0:0:0:
460,192,20004,1,0,0:0:0:0:
358,192,20004,1,0,0:0:0:0:
358,192,20342,1,0,0:0:0:0:
51,192,20342,1,0,0:0:0:0:
256,192,20681,1,0,0:0:0:0:
51,192,20681,1,0,0:0:0:0:
153,192,21019,1,0,0:0:0:0:
51,192,21019,1,0,0:0:0:0:
256,192,21245,1,0,0:0:0:0:
460,192,21357,1,0,0:0:0:0:
358,192,21357,1,0,0:0:0:0:
51,192,21583,1,0,0:0:0:0:
460,192,21809,1,4,0:0:0:0:
153,192,21809,1,2,0:0:0:0:
358,192,22034,1,0,0:0:0:0:
256,192,22260,1,8,0:0:0:0:
51,192,22485,1,0,0:0:0:0:
358,192,22598,1,0,0:0:0:0:
358,192,22824,1,0,0:0:0:0:
153,192,23049,1,8,0:0:0:0:
460,192,23162,1,2,0:0:0:0:
256,192,23275,1,0,0:0:0:0:
153,192,23500,1,0,0:0:0:0:
153,192,23726,1,0,0:0:0:0:
460,192,23839,1,8,0:0:0:0:
256,192,24064,1,2,0:0:0:0:
358,192,24177,1,8,0:0:0:0:
51,192,24290,1,0,0:0:0:0:
153,192,24403,1,0,0:0:0:0:
460,192,24741,1,0,0:0:0:0:
256,192,24741,1,8,0:0:0:0:
358,192,25079,1,0,0:0:0:0:
153,192,25079,1,0,0:0:0:0:
460,192,25305,1,0,0:0:0:0:
256,192,25418,1,4,0:0:0:0:
51,192,25418,1,2,0:0:0:0:
460,192,25643,1,0,0:0:0:0:
153,192,25756,1,0,0:0:0:0:
358,192,25869,1,8,0:0:0:0:
51,192,25981,1,0,0:0:0:0:
256,192,26207,1,0,0:0:0:0:
256,192,26433,1,0,0:0:0:0:
153,192,26658,1,8,0:0:0:0:
460,192,26771,1,2,0:0:0:0:
256,192,26884,1,0,0:0:0:0:
153,192,27109,1,0,0:0:0:0:
153,192,27335,1,0,0:0:0:0:
460,192,27448,1,0,0:0:0:0:
256,192,27673,1,8,0:0:0:0:
358,192,27786,1,0,0:0:0:0:
153,192,27899,1,0,0:0:0:0:
256,192,28012,1,0,0:0:0:0:
358,192,28237,1,0,0:0:0:0:
51,192,28237,1,0,0:0:0:0:
460,192,28575,128,0,29027:0:0:0:0:
153,192,28575,1,8,0:0:0:0:
256,192,29027,128,4,29478:0:0:0:0:
51,192,29027,1,8,0:0:0:0:
358,192,29478,128,0,29929:0:0:0:0:
51,192,29929,128,0,30380:0:0:0:0:
460,192,30831,1,4,0:0:0:0:
358,192,30831,1,0,0:0:0:0:
153,192,30831,1,8,0:0:0:0:
358,192,31057,1,2,0:0:0:0:
153,192,31057,1,0,0:0:0:0:
358,192,31282,1,8,0:0:0:0:
153,192,31282,1,0,0:0:0:0:
460,192,31733,1,8,0:0:0:0:
358,192,31733,1,0,0:0:0:0:
153,192,31733,1,0,0:0:0:0:
358,192,31959,1,2,0:0:0:0:
153,192,31959,1,0,0:0:0:0:
358,192,32184,1,8,0:0:0:0:
153,192,32184,1,0,0:0:0:0:
358,192,32636,1,8,0:0:0:0:
153,192,32636,1,0,0:0:0:0:
460,192,32861,1,0,0:0:0:0:
256,192,32861,1,2,0:0:0:0:
358,192,33087,1,8,0:0:0:0:
51,192,33087,1,0,0:0:0:0:
460,192,33425,1,0,0:0:0:0:
153,192,33425,1,0,0:0:0:0:
358,192,33763,1,0,0:0:0:0:
256,192,33763,1,2,0:0:0:0:
358,192,34102,1,0,0:0:0:0:
153,192,34102,1,2,0:0:0:0:
256,192,34440,1,4,0:0:0:0:
51,192,34440,1,8,0:0:0:0:
358,192,34666,1,2,0:0:0:0:
460,192,34891,1,8,0:0:0:0:
153,192,35004,1,0,0:0:0:0:
51,192,35117,1,2,0:0:0:0:
358,192,35342,1,8,0:0:0:0:
358,192,35568,1,2,0:0:0:0:
153,192,35681,1,0,0:0:0:0:
51,192,35794,1,8,0:0:0:0:
256,192,35906,1,2,0:0:0:0:
358,192,36132,1,2,0:0:0:0:
460,192,36357,1,0,0:0:0:0:
153,192,36470,1,2,0:0:0:0:
460,192,36696,1,8,0:0:0:0:
256,192,36809,1,2,0:0:0:0:
358,192,36921,1,2,0:0:0:0:
153,192,37034,1,0,0:0:0:0:
51,192,37260,1,2,0:0:0:0:
460,192,37372,1,2,0:0:0:0:
153,192,37485,1,2,0:0:0:0:
358,192,37598,1,8,0:0:0:0:
460,192,38049,1,4,0:0:0:0:
256,192,38049,1,8,0:0:0:0:
51,192,38049,1,0,0:0:0:0:
460,192,38275,1,2,0:0:0:0:
256,192,38275,1,0,0:0:0:0:
460,192,38500,1,8,0:0:0:0:
256,192,38500,1,0,0:0:0:0:
460,192,38951,1,8,0:0:0:0:
256,192,38951,1,0,0:0:0:0:
51,192,38951,1,0,0:0:0:0:
460,192,39177,1,2,0:0:0:0:
256,192,39177,1,0,0:0:0:0:
460,192,39403,1,8,0:0:0:0:
256,192,39403,1,0,0:0:0:0:
358,192,39854,1,8,0:0:0:0:
51,192,39854,1,0,0:0:0:0:
460,192,40192,1,0,0:0:0:0:
153,192,40192,1,2,0:0:0:0:
256,192,40530,1,2,0:0:0:0:
51,192,40530,1,0,0:0:0:0:
358,192,40756,1,8,0:0:0:0:
153,192,40756,1,0,0:0:0:0:
460,192,40981,1,0,0:0:0:0:
256,192,40981,1,2,0:0:0:0:
460,192,41320,1,0,0:0:0:0:
358,192,41320,1,2,0:0:0:0:
256,192,41658,1,4,0:0:0:0:
51,192,41658,1,8,0:0:0:0:
460,192,41771,1,2,0:0:0:0:
358,192,41884,1,8,0:0:0:0:
460,192,42109,1,8,0:0:0:0:
153,192,42222,1,0,0:0:0:0:
51,192,42335,1,2,0:0:0:0:
358,192,42448,1,2,0:0:0:0:
358,192,42673,1,2,0:0:0:0:
256,192,42786,1,8,0:0:0:0:
51,192,42899,1,0,0:0:0:0:
153,192,43012,1,8,0:0:0:0:
460,192,43237,1,2,0:0:0:0:
256,192,43463,1,2,0:0:0:0:
358,192,43688,1,2,0:0:0:0:
256,192,43914,1,2,0:0:0:0:
153,192,44027,1,4,0:0:0:0:
51,192,44027,1,8,0:0:0:0:
358,192,44252,1,8,0:0:0:0:
256,192,44365,1,4,0:0:0:0:
153,192,44365,1,8,0:0:0:0:
460,192,44591,1,8,0:0:0:0:
358,192,44703,1,4,0:0:0:0:
256,192,44703,1,8,0:0:0:0:
153,192,44929,1,8,0:0:0:0:
460,192,45042,1,4,0:0:0:0:
358,192,45042,1,8,0:0:0:0:
460,192,45267,1,4,0:0:0:0:
51,192,45267,1,2,0:0:0:0:
153,192,45606,1,0,0:0:0:0:
358,192,45718,1,0,0:0:0:0:
153,192,45944,1,0,0:0:0:0:
358,192,46169,1,0,0:0:0:0:
256,192,46395,1,0,0:0:0:0:
256,192,46621,1,0,0:0:0:0:
256,192,46959,1,0,0:0:0:0:
460,192,47072,1,0,0:0:0:0:
460,192,47297,1,0,0:0:0:0:
358,192,47523,1,0,0:0:0:0:
256,192,47748,1,0,0:0:0:0:
153,192,47974,1,0,0:0:0:0:
460,192,48425,1,8,0:0:0:0:
51,192,48425,1,2,0:0:0:0:
153,192,48876,1,6,0:0:0:0:
358,192,49102,1,0,0:0:0:0:
256,192,49102,1,0,0:0:0:0:
153,192,49327,1,2,0:0:0:0:
358,192,49553,1,0,0:0:0:0:
256,192,49553,1,0,0:0:0:0:
51,192,49778,1,2,0:0:0:0:
460,192,50004,1,0,0:0:0:0:
358,192,50004,1,0,0:0:0:0:
51,192,50230,1,2,0:0:0:0:
460,192,50455,1,0,0:0:0:0:
358,192,50455,1,0,0:0:0:0:
153,192,50681,1,2,0:0:0:0:
358,192,50906,1,0,0:0:0:0:
256,192,50906,1,0,0:0:0:0:
51,192,51132,1,2,0:0:0:0:
358,192,51357,1,0,0:0:0:0:
153,192,51357,1,0,0:0:0:0:
256,192,51583,1,2,0:0:0:0:
460,192,51809,1,0,0:0:0:0:
153,192,51809,1,0,0:0:0:0:
51,192,52034,1,2,0:0:0:0:
460,192,52260,1,0,0:0:0:0:
153,192,52260,1,0,0:0:0:0:
256,192,52485,1,2,0:0:0:0:
153,192,52711,1,0,0:0:0:0:
51,192,52711,1,0,0:0:0:0:
358,192,52936,1,2,0:0:0:0:
256,192,53162,1,0,0:0:0:0:
153,192,53162,1,0,0:0:0:0:
460,192,53388,1,2,0:0:0:0:
51,192,53388,1,0,0:0:0:0:
358,192,53613,1,2,0:0:0:0:
153,192,53839,128,0,54290:0:0:0:0:
51,192,53839,1,2,0:0:0:0:
460,192,54290,1,2,0:0:0:0:
256,192,54515,1,8,0:0:0:0:
51,192,54515,1,0,0:0:0:0:
460,192,54628,1,8,0:0:0:0:
358,192,54741,1,2,0:0:0:0:
256,192,54966,1,8,0:0:0:0:
51,192,54966,1,0,0:0:0:0:
460,192,55192,1,2,0:0:0:0:
256,192,55418,1,8,0:0:0:0:
153,192,55418,1,0,0:0:0:0:
460,192,55530,1,8,0:0:0:0:
358,192,55643,1,2,0:0:0:0:
153,192,55869,1,8,0:0:0:0:
51,192,55869,1,0,0:0:0:0:
256,192,56094,1,2,0:0:0:0:
358,192,56320,1,8,0:0:0:0:
51,192,56320,1,0,0:0:0:0:
256,192,56433,1,8,0:0:0:0:
153,192,56545,1,2,0:0:0:0:
256,192,56771,1,8,0:0:0:0:
51,192,56771,1,0,0:0:0:0:
358,192,56997,1,2,0:0:0:0:
460,192,57222,1,8,0:0:0:0:
256,192,57222,1,0,0:0:0:0:
358,192,57448,1,2,0:0:0:0:
51,192,57560,1,8,0:0:0:0:
460,192,57673,1,8,0:0:0:0:
153,192,57673,1,0,0:0:0:0:
256,192,57899,1,2,0:0:0:0:
460,192,58124,1,0,0:0:0:0:
153,192,58124,1,8,0:0:0:0:
358,192,58237,1,8,0:0:0:0:
51,192,58350,1,2,0:0:0:0:
358,192,58575,1,0,0:0:0:0:
256,192,58575,1,8,0:0:0:0:
460,192,58801,1,0,0:0:0:0:
256,192,58801,1,2,0:0:0:0:
358,192,59027,1,8,0:0:0:0:
153,192,59027,1,2,0:0:0:0:
460,192,59252,1,8,0:0:0:0:
51,192,59252,1,2,0:0:0:0:
460,192,59816,1,4,0:0:0:0:
153,192,59816,1,8,0:0:0:0:
460,192,60154,1,4,0:0:0:0:
153,192,60154,1,8,0:0:0:0:
460,192,60493,1,4,0:0:0:0:
256,192,60493,1,0,0:0:0:0:
153,192,60493,1,8,0:0:0:0:
460,192,60831,1,4,0:0:0:0:
256,192,60831,1,0,0:0:0:0:
153,192,60831,1,8,0:0:0:0:
358,192,61057,1,2,0:0:0:0:
51,192,61057,1,0,0:0:0:0:
460,192,61621,1,4,0:0:0:0:
51,192,61621,1,8,0:0:0:0:
460,192,61959,1,4,0:0:0:0:
51,192,61959,1,8,0:0:0:0:
460,192,62297,1,4,0:0:0:0:
256,192,62297,1,0,0:0:0:0:
51,192,62297,1,8,0:0:0:0:
460,192,62636,1,4,0:0:0:0:
256,192,62636,1,0,0:0:0:0:
51,192,62636,1,8,0:0:0:0:
153,192,62861,1,8,0:0:0:0:
460,192,63012,1,0,0:0:0:0:
256,192,63162,1,2,0:0:0:0:
358,192,63312,1,0,0:0:0:0:
51,192,63463,1,2,0:0:0:0:
460,192,63613,1,2,0:0:0:0:
358,192,63763,1,4,0:0:0:0:
153,192,63763,1,8,0:0:0:0:
358,192,64102,1,4,0:0:0:0:
256,192,64102,1,0,0:0:0:0:
153,192,64102,1,8,0:0:0:0:
358,192,64440,1,4,0:0:0:0:
256,192,64440,1,0,0:0:0:0:
153,192,64440,1,8,0:0:0:0:
460,192,64666,1,8,0:0:0:0:
51,192,64666,1,0,0:0:0:0:
358,192,65117,1,6,0:0:0:0:
51,192,65267,1,0,0:0:0:0:
153,192,65267,1,0,0:0:0:0:
358,192,65418,1,0,0:0:0:0:
153,192,65568,1,0,0:0:0:0:
51,192,65568,1,2,0:0:0:0:
460,192,65718,1,2,0:0:0:0:
256,192,65869,1,0,0:0:0:0:
153,192,65869,1,0,0:0:0:0:
460,192,66019,1,0,0:0:0:0:
256,192,66169,1,0,0:0:0:0:
153,192,66169,1,2,0:0:0:0:
358,192,66320,1,2,0:0:0:0:
460,192,66470,1,0,0:0:0:0:
51,192,66470,1,0,0:0:0:0:
358,192,66621,1,8,0:0:0:0:
153,192,66621,1,0,0:0:0:0:
460,192,67034,1,4,0:0:0:0:
51,192,67034,1,8,0:0:0:0:
460,192,67372,1,4,0:0:0:0:
51,192,67372,1,8,0:0:0:0:
460,192,67711,1,4,0:0:0:0:
256,192,67711,1,0,0:0:0:0:
51,192,67711,1,8,0:0:0:0:
460,192,68049,1,4,0:0:0:0:
256,192,68049,1,0,0:0:0:0:
51,192,68049,1,8,0:0:0:0:
358,192,68275,1,8,0:0:0:0:
153,192,68275,1,0,0:0:0:0:
358,192,68839,1,4,0:0:0:0:
51,192,68839,1,8,0:0:0:0:
358,192,69177,1,4,0:0:0:0:
51,192,69177,1,8,0:0:0:0:
358,192,69515,1,4,0:0:0:0:
256,192,69515,1,0,0:0:0:0:
51,192,69515,1,8,0:0:0:0:
358,192,69854,1,4,0:0:0:0:
256,192,69854,1,0,0:0:0:0:
51,192,69854,1,8,0:0:0:0:
460,192,70079,128,0,70530:0:0:0:0:
153,192,70079,1,0,0:0:0:0:
153,192,70530,1,2,0:0:0:0:
358,192,70681,1,0,0:0:0:0:
256,192,70681,1,0,0:0:0:0:
153,192,70831,1,8,0:0:0:0:
358,192,70982,1,0,0:0:0:0:
256,192,70982,1,2,0:0:0:0:
51,192,71132,1,2,0:0:0:0:
460,192,71282,1,0,0:0:0:0:
358,192,71282,1,8,0:0:0:0:
51,192,71433,1,0,0:0:0:0:
460,192,71583,1,0,0:0:0:0:
358,192,71583,1,8,0:0:0:0:
153,192,71733,1,2,0:0:0:0:
358,192,71884,1,8,0:0:0:0:
256,192,71884,1,0,0:0:0:0:
51,192,72034,1,2,0:0:0:0:
358,192,72185,1,8,0:0:0:0:
153,192,72185,1,0,0:0:0:0:
256,192,72335,1,2,0:0:0:0:
460,192,72485,1,0,0:0:0:0:
153,192,72485,1,0,0:0:0:0:
358,192,72636,1,8,0:0:0:0:
460,192,72786,1,2,0:0:0:0:
153,192,72786,1,0,0:0:0:0:
256,192,72936,1,2,0:0:0:0:
153,192,73087,1,8,0:0:0:0:
51,192,73087,1,0,0:0:0:0:
358,192,73237,1,0,0:0:0:0:
256,192,73388,1,8,0:0:0:0:
153,192,73388,1,0,0:0:0:0:
460,192,73538,1,2,0:0:0:0:
51,192,73538,1,0,0:0:0:0:
358,192,73688,1,2,0:0:0:0:
153,192,73839,128,0,74139:0:0:0:0:
51,192,73839,1,2,0:0:0:0:
358,192,74479,128,4,75832:0:0:0:0:
256,192,74479,128,2,75832:0:0:0:0:
51,192,74479,128,0,75832:0:0:0:0:
460,192,76283,128,4,77749:0:0:0:0:
256,192,76283,128,2,77749:0:0:0:0:
153,192,76283,128,0,77749:0:0:0:0:
460,192,79103,1,4,0:0:0:0:
358,192,79103,1,8,0:0:0:0:
153,192,79103,1,0,0:0:0:0:
358,192,79328,1,2,0:0:0:0:
153,192,79328,1,0,0:0:0:0:
358,192,79554,1,8,0:0:0:0:
153,192,79554,1,0,0:0:0:0:
460,192,80005,1,8,0:0:0:0:
358,192,80005,1,0,0:0:0:0:
153,192,80005,1,0,0:0:0:0:
358,192,80230,1,2,0:0:0:0:
153,192,80230,1,0,0:0:0:0:
358,192,80456,1,8,0:0:0:0:
153,192,80456,1,0,0:0:0:0:
358,192,80907,1,8,0:0:0:0:
153,192,80907,1,0,0:0:0:0:
460,192,81133,1,0,0:0:0:0:
256,192,81133,1,2,0:0:0:0:
358,192,81358,1,8,0:0:0:0:
51,192,81358,1,0,0:0:0:0:
460,192,81696,1,0,0:0:0:0:
153,192,81696,1,0,0:0:0:0:
358,192,82035,1,0,0:0:0:0:
256,192,82035,1,2,0:0:0:0:
153,192,82373,1,2,0:0:0:0:
256,192,82486,1,2,0:0:0:0:
460,192,82712,1,4,0:0:0:0:
358,192,82712,1,8,0:0:0:0:
51,192,82712,1,0,0:0:0:0:
358,192,82937,1,2,0:0:0:0:
51,192,82937,1,0,0:0:0:0:
358,192,83163,1,8,0:0:0:0:
51,192,83163,1,0,0:0:0:0:
460,192,83614,1,0,0:0:0:0:
358,192,83614,1,8,0:0:0:0:
51,192,83614,1,0,0:0:0:0:
256,192,83839,1,2,0:0:0:0:
51,192,83839,1,0,0:0:0:0:
256,192,84065,1,8,0:0:0:0:
51,192,84065,1,0,0:0:0:0:
256,192,84516,1,8,0:0:0:0:
153,192,84516,1,0,0:0:0:0:
358,192,84742,1,0,0:0:0:0:
51,192,84742,1,2,0:0:0:0:
256,192,84967,1,8,0:0:0:0:
153,192,84967,1,0,0:0:0:0:
460,192,85193,1,0,0:0:0:0:
51,192,85193,1,2,0:0:0:0:
358,192,85418,1,8,0:0:0:0:
256,192,85418,1,0,0:0:0:0:
358,192,85869,1,0,0:0:0:0:
153,192,85869,1,2,0:0:0:0:
460,192,86321,1,4,0:0:0:0:
256,192,86321,1,8,0:0:0:0:
51,192,86321,1,0,0:0:0:0:
460,192,86546,1,0,0:0:0:0:
256,192,86546,1,2,0:0:0:0:
460,192,86772,1,0,0:0:0:0:
256,192,86772,1,8,0:0:0:0:
460,192,87223,1,0,0:0:0:0:
256,192,87223,1,8,0:0:0:0:
51,192,87223,1,0,0:0:0:0:
460,192,87448,1,0,0:0:0:0:
256,192,87448,1,2,0:0:0:0:
460,192,87674,1,0,0:0:0:0:
256,192,87674,1,8,0:0:0:0:
358,192,88125,1,8,0:0:0:0:
51,192,88125,1,0,0:0:0:0:
460,192,88463,1,0,0:0:0:0:
153,192,88463,1,2,0:0:0:0:
256,192,88802,1,2,0:0:0:0:
51,192,88802,1,0,0:0:0:0:
358,192,89027,1,8,0:0:0:0:
153,192,89027,1,0,0:0:0:0:
460,192,89253,1,0,0:0:0:0:
256,192,89253,1,2,0:0:0:0:
460,192,89591,1,0,0:0:0:0:
358,192,89591,1,2,0:0:0:0:
256,192,89930,1,4,0:0:0:0:
51,192,89930,1,8,0:0:0:0:
460,192,90042,1,2,0:0:0:0:
358,192,90155,1,8,0:0:0:0:
460,192,90381,1,8,0:0:0:0:
153,192,90493,1,0,0:0:0:0:
51,192,90606,1,2,0:0:0:0:
358,192,90719,1,2,0:0:0:0:
358,192,90945,1,2,0:0:0:0:
256,192,91057,1,8,0:0:0:0:
51,192,91170,1,0,0:0:0:0:
153,192,91283,1,8,0:0:0:0:
460,192,91509,1,2,0:0:0:0:
256,192,91734,1,2,0:0:0:0:
358,192,91960,1,8,0:0:0:0:
256,192,92185,1,2,0:0:0:0:
153,192,92298,1,4,0:0:0:0:
51,192,92298,1,8,0:0:0:0:
358,192,92524,1,8,0:0:0:0:
256,192,92636,1,4,0:0:0:0:
153,192,92636,1,8,0:0:0:0:
460,192,92862,1,8,0:0:0:0:
358,192,92975,1,4,0:0:0:0:
256,192,92975,1,8,0:0:0:0:
153,192,93200,1,8,0:0:0:0:
460,192,93313,1,4,0:0:0:0:
358,192,93313,1,8,0:0:0:0:
460,192,93539,1,4,0:0:0:0:
51,192,93539,1,2,0:0:0:0:
153,192,93877,1,0,0:0:0:0:
358,192,93990,1,0,0:0:0:0:
153,192,94215,1,0,0:0:0:0:
358,192,94441,1,0,0:0:0:0:
256,192,94666,1,0,0:0:0:0:
256,192,94892,1,0,0:0:0:0:
256,192,95230,1,0,0:0:0:0:
460,192,95343,1,0,0:0:0:0:
460,192,95569,1,0,0:0:0:0:
358,192,95794,1,0,0:0:0:0:
256,192,96020,1,2,0:0:0:0:
460,192,96245,1,8,0:0:0:0:
153,192,96245,1,2,0:0:0:0:
51,192,96696,128,0,97599:0:0:0:0:
153,192,97148,128,0,98050:0:0:0:0:
256,192,97599,128,0,98501:0:0:0:0:
358,192,98050,128,0,100080:0:0:0:0:
460,192,98896,128,0,100080:0:0:0:0:
256,192,100757,1,4,0:0:0:0:
51,192,100757,1,2,0:0:0:0:
460,192,100969,1,8,0:0:0:0:
153,192,101182,1,2,0:0:0:0:
460,192,101395,1,0,0:0:0:0:
256,192,101395,1,8,0:0:0:0:
358,192,101608,1,4,0:0:0:0:
51,192,101608,1,2,0:0:0:0:
358,192,101927,1,4,0:0:0:0:
51,192,101927,1,2,0:0:0:0:
153,192,102356,1,0,0:0:0:0:
256,192,102675,1,0,0:0:0:0:
358,192,102994,1,0,0:0:0:0:
460,192,103313,1,4,0:0:0:0:
153,192,103313,1,2,0:0:0:0:
256,192,103632,1,8,0:0:0:0:
51,192,103951,1,2,0:0:0:0:
256,192,104164,1,0,0:0:0:0:
460,192,104483,1,2,0:0:0:0:
51,192,104802,1,2,0:0:0:0:
358,192,104909,1,8,0:0:0:0:
256,192,105228,1,2,0:0:0:0:
153,192,105547,1,8,0:0:0:0:
358,192,105866,1,2,0:0:0:0:
256,192,106079,1,0,0:0:0:0:
51,192,106185,1,8,0:0:0:0:
256,192,106398,1,0,0:0:0:0:
358,192,106717,1,0,0:0:0:0:
153,192,106717,128,0,107462:0:0:0:0:
460,192,107462,1,8,0:0:0:0:
51,192,107675,1,2,0:0:0:0:
358,192,107781,1,2,0:0:0:0:
153,192,108100,1,8,0:0:0:0:
256,192,108313,1,0,0:0:0:0:
460,192,108419,1,4,0:0:0:0:
51,192,108419,1,2,0:0:0:0:
358,192,108739,1,8,0:0:0:0:
51,192,109058,1,2,0:0:0:0:
358,192,109271,1,0,0:0:0:0:
460,192,109590,1,2,0:0:0:0:
153,192,109909,1,2,0:0:0:0:
460,192,110015,1,8,0:0:0:0:
256,192,110334,1,2,0:0:0:0:
153,192,110654,1,8,0:0:0:0:
358,192,110973,1,2,0:0:0:0:
256,192,111185,1,0,0:0:0:0:
51,192,111292,1,8,0:0:0:0:
256,192,111505,1,0,0:0:0:0:
358,192,111824,1,0,0:0:0:0:
51,192,111824,128,0,112568:0:0:0:0:
460,192,112568,1,8,0:0:0:0:
358,192,112781,1,2,0:0:0:0:
51,192,112888,1,2,0:0:0:0:
153,192,113100,1,8,0:0:0:0:
460,192,113207,1,2,0:0:0:0:
358,192,113419,1,2,0:0:0:0:
460,192,113526,1,4,0:0:0:0:
153,192,113526,1,2,0:0:0:0:
256,192,113845,1,8,0:0:0:0:
153,192,114164,1,2,0:0:0:0:
51,192,114377,1,0,0:0:0:0:
358,192,114696,1,2,0:0:0:0:
256,192,115015,1,2,0:0:0:0:
460,192,115122,1,8,0:0:0:0:
358,192,115441,1,2,0:0:0:0:
153,192,115760,1,8,0:0:0:0:
358,192,116079,1,2,0:0:0:0:
51,192,116292,1,0,0:0:0:0:
153,192,116398,1,8,0:0:0:0:
358,192,116611,1,0,0:0:0:0:
460,192,116717,1,2,0:0:0:0:
153,192,116930,1,0,0:0:0:0:
51,192,117037,1,8,0:0:0:0:
460,192,117249,1,0,0:0:0:0:
256,192,117249,1,2,0:0:0:0:
153,192,117568,1,2,0:0:0:0:
358,192,117675,1,8,0:0:0:0:
460,192,117888,1,2,0:0:0:0:
153,192,117994,1,2,0:0:0:0:
358,192,118207,1,0,0:0:0:0:
256,192,118313,1,8,0:0:0:0:
51,192,118313,1,0,0:0:0:0:
358,192,118632,1,2,0:0:0:0:
460,192,118632,1,4,0:0:0:0:
358,192,118951,1,8,0:0:0:0:
460,192,119164,1,0,0:0:0:0:
153,192,119271,1,4,0:0:0:0:
51,192,119271,1,2,0:0:0:0:
153,192,119590,1,8,0:0:0:0:
51,192,119802,1,0,0:0:0:0:
358,192,119909,1,2,0:0:0:0:
460,192,119909,1,4,0:0:0:0:
358,192,120228,1,8,0:0:0:0:
460,192,120441,1,0,0:0:0:0:
153,192,120547,1,4,0:0:0:0:
51,192,120547,1,2,0:0:0:0:
460,192,120866,1,8,0:0:0:0:
51,192,120866,1,0,0:0:0:0:
358,192,121185,1,4,0:0:0:0:
153,192,121185,1,2,0:0:0:0:
460,192,121398,1,8,0:0:0:0:
256,192,121505,1,8,0:0:0:0:
358,192,121717,1,2,0:0:0:0:
51,192,121824,1,8,0:0:0:0:
358,192,122037,1,4,0:0:0:0:
153,192,122037,1,2,0:0:0:0:
460,192,122356,1,4,0:0:0:0:
256,192,122356,1,2,0:0:0:0:
153,192,122994,1,0,0:0:0:0:
460,192,123100,1,0,0:0:0:0:
358,192,123313,1,0,0:0:0:0:
153,192,123419,1,0,0:0:0:0:
256,192,123632,1,0,0:0:0:0:
358,192,123739,1,4,0:0:0:0:
51,192,123739,1,2,0:0:0:0:
460,192,124058,1,8,0:0:0:0:
256,192,124058,1,0,0:0:0:0:
460,192,124377,1,0,0:0:0:0:
256,192,124377,1,2,0:0:0:0:
460,192,124696,1,8,0:0:0:0:
358,192,124696,1,0,0:0:0:0:
153,192,124909,1,2,0:0:0:0:
460,192,125015,1,0,0:0:0:0:
153,192,125228,1,2,0:0:0:0:
460,192,125334,1,8,0:0:0:0:
358,192,125334,1,0,0:0:0:0:
153,192,125547,1,2,0:0:0:0:
460,192,125654,1,0,0:0:0:0:
256,192,125654,1,2,0:0:0:0:
460,192,125973,1,4,0:0:0:0:
358,192,125973,1,8,0:0:0:0:
358,192,126292,1,4,0:0:0:0:
51,192,126292,1,2,0:0:0:0:
256,192,126930,1,0,0:0:0:0:
358,192,127568,1,0,0:0:0:0:
460,192,128100,1,0,0:0:0:0:
460,192,128526,1,4,0:0:0:0:
358,192,128526,1,8,0:0:0:0:
51,192,128526,1,2,0:0:0:0:
153,192,128526,1,0,0:0:0:0:
