osu file format v14

[General]
AudioFilename: audio.ogg
AudioLeadIn: 0
PreviewTime: 67960
Countdown: 0
SampleSet: Soft
StackLeniency: 0.7
Mode: 0
LetterboxInBreaks: 0
EpilepsyWarning: 1
WidescreenStoryboard: 1

[Editor]
DistanceSpacing: 0.2
BeatDivisor: 4
GridSize: 4
TimelineZoom: 3.399999

[Metadata]
Title:Shadow World
TitleUnicode:Shadow World
Artist:BEMANI Sound Team "HuMeR x Nekomata Master" feat. Emi Evans
ArtistUnicode:BEMANI Sound Team "HuΣeR × 猫叉Master" feat. Emi Evans
Creator:Hakurei Yoru
Version:Necho's ANOTHER
Source:beatmania IIDX 30 RESIDENT
Tags:Yours- necho video game english sodarose Tachibana Gekka VoiceCore liaoxingyao Atlust Ameth Otosaka-Yu 1112 konami electronic
BeatmapID:3979755
BeatmapSetID:1871338

[Difficulty]
HPDrainRate:7
CircleSize:4.5
OverallDifficulty:8
ApproachRate:9.3
SliderMultiplier:1.9
SliderTickRate:1

[Events]
//Background and Video events
0,0,"bg.jpg",0,0
//Break Periods
//Storyboard Layer 0 (Background)
Sprite,Background,Centre,"bg.jpg",320,240 F,0,0,,0
//Storyboard Layer 1 (Fail)
//Storyboard Layer 2 (Pass)
//Storyboard Layer 3 (Foreground)
Sprite,Foreground,Centre,"sb\glow1.png",0,0 M,0,106639,,124,288 S,0,106639,,0.6 C,0,106639,,188,98,245 P,0,106639,,A F,0,106639,107389,0.3,0 M,0,107393,,253.0547,251.822 F,0,107393,108143,0.3,0 M,0,108147,,457.6955,149.8273 F,0,108147,108897,0.3,0 M,0,108901,,507.7776,225.616 F,0,108901,109651,0.3,0 M,0,109655,,361.361,378.3458 F,0,109655,110405,0.3,0 M,0,110409,,420.912,70.17591 F,0,110409,111159,0.3,0 M,0,111163,,425.0184,215.4465 F,0,111163,111913,0.3,0 M,0,111917,,151.8372,231.8311 F,0,111917,112667,0.3,0 M,0,112671,,248.9633,178.4543 F,0,112671,113421,0.3,0 M,0,113425,,545.2963,365.687 F,0,113425,114175,0.3,0 M,0,114179,,284.6765,385.0478 F,0,114179,114929,0.3,0
Sprite,Foreground,Centre,"sb\glow1.png",0,0 M,0,107133,,123.6644,291.3937 S,0,107133,,0.6 C,0,107133,,184,184,184 P,0,107133,,A F,0,107133,107883,0.3,0 M,0,107887,,332.707,141.656 F,0,107887,108637,0.3,0 M,0,108641,,404.3673,223.9385 F,0,108641,109391,0.3,0 M,0,109395,,454.37,383.684 F,0,109395,110145,0.3,0 M,0,110149,,447.9348,282.9491 F,0,110149,110899,0.3,0 M,0,110903,,503.534,235.4964 F,0,110903,111653,0.3,0 M,0,111657,,271.8601,119.0114 F,0,111657,112407,0.3,0 M,0,112411,,206.9772,68.69955 F,0,112411,113161,0.3,0 M,0,113165,,500.4779,234.6818 F,0,113165,113915,0.3,0 M,0,113919,,322.1437,205.7605 F,0,113919,114669,0.3,0
Sprite,Foreground,Centre,"sb\glow1.png",0,0 M,0,107146,,122.7763,298.7072 S,0,107146,,0.6 C,0,107146,,184,184,184 P,0,107146,,A F,0,107146,107896,0.3,0 M,0,107900,,333.6261,149.0088 F,0,107900,108650,0.3,0 M,0,108654,,405.8798,231.1187 F,0,108654,109404,0.3,0 M,0,109408,,447.025,384.6633 F,0,109408,110158,0.3,0 M,0,110162,,431.3951,270.0275 F,0,110162,110912,0.3,0 M,0,110916,,503.7223,243.7824 F,0,110916,111666,0.3,0 M,0,111670,,269.8713,111.9124 F,0,111670,112420,0.3,0 M,0,112424,,218.4933,62.8549 F,0,112424,113174,0.3,0 M,0,113178,,507.8643,234.0909 F,0,113178,113928,0.3,0 M,0,113932,,325.2687,200.5522 F,0,113932,114682,0.3,0
Sprite,Foreground,Centre,"sb\glow1.png",0,0 M,0,107159,,122.7657,306.082 S,0,107159,,0.6 C,0,107159,,184,184,184 P,0,107159,,A F,0,107159,107909,0.3,0 M,0,107913,,334.5452,156.3615 F,0,107913,108663,0.3,0 M,0,108667,,408.2101,238.0406 F,0,108667,109417,0.3,0 M,0,109421,,439.68,385.6427 F,0,109421,110171,0.3,0 M,0,110175,,416.4192,258.3275 F,0,110175,110925,0.3,0 M,0,110929,,503.8622,249.9354 F,0,110929,111679,0.3,0 M,0,111683,,267.2656,105.042 F,0,111683,112433,0.3,0 M,0,112437,,226.4869,58.79803 F,0,112437,113187,0.3,0 M,0,113191,,515.2507,233.5 F,0,113191,113941,0.3,0 M,0,113945,,327.2162,197.3064 F,0,113945,114695,0.3,0
Sprite,Foreground,Centre,"sb\glow1.png",0,0 M,0,107172,,123.8397,313.3794 S,0,107172,,0.6 C,0,107172,,184,184,184 P,0,107172,,A F,0,107172,107922,0.3,0 M,0,107926,,336.5801,155.8264 F,0,107926,108676,0.3,0 M,0,108680,,411.4547,244.583 F,0,108680,109430,0.3,0 M,0,109434,,432.335,386.622 F,0,109434,110184,0.3,0 M,0,110188,,403.007,247.8492 F,0,110188,110938,0.3,0 M,0,110942,,503.9535,253.9553 F,0,110942,111692,0.3,0 M,0,111696,,264.0374,98.43958 F,0,111696,112446,0.3,0 M,0,112450,,230.9578,56.52893 F,0,112450,113200,0.3,0 M,0,113204,,522.6371,232.909 F,0,113204,113954,0.3,0 M,0,113958,,327.9861,196.0232 F,0,113958,114708,0.3,0
Sprite,Foreground,Centre,"sb\glow1.png",0,0 M,0,107185,,125.3737,320.6001 S,0,107185,,0.6 C,0,107185,,184,184,184 P,0,107185,,A F,0,107185,107935,0.3,0 M,0,107939,,338.6954,150.9857 F,0,107939,108689,0.3,0 M,0,108693,,415.6346,250.5834 F,0,108693,109443,0.3,0 M,0,109447,,424.99,387.6013 F,0,109447,110197,0.3,0 M,0,110201,,391.1586,238.5927 F,0,110201,110951,0.3,0 M,0,110955,,503.9964,255.8422 F,0,110955,111705,0.3,0 M,0,111709,,260.1087,92.21548 F,0,111709,112459,0.3,0 M,0,112463,,232.5679,57.70359 F,0,112463,113213,0.3,0 M,0,113217,,530.0235,232.3181 F,0,113217,113967,0.3,0 M,0,113971,,324.2132,212.5243 F,0,113971,114721,0.3,0
Sprite,Foreground,Centre,"sb\glow1.png",0,0 M,0,107198,,128.2069,327.4204 S,0,107198,,0.6 C,0,107198,,184,184,184 P,0,107198,,A F,0,107198,107948,0.3,0 M,0,107952,,339.8107,148.4333 F,0,107952,108702,0.3,0 M,0,108706,,420.6631,255.9107 F,0,108706,109456,0.3,0 M,0,109460,,417.2758,388.8066 F,0,109460,110210,0.3,0 M,0,110214,,380.8739,230.5577 F,0,110214,110964,0.3,0 M,0,110968,,501.9817,249.9451 F,0,110968,111718,0.3,0 M,0,111722,,227.7114,116.6564 F,0,111722,112472,0.3,0 M,0,112476,,234.787,64.36115 F,0,112476,113226,0.3,0 M,0,113230,,537.4099,231.7272 F,0,113230,113980,0.3,0 M,0,113984,,319.9575,231.0945 F,0,113984,114734,0.3,0
Sprite,Foreground,Centre,"sb\glow1.png",0,0 M,0,107211,,132.6867,334.1787 S,0,107211,,0.6 C,0,107211,,184,184,184 P,0,107211,,A F,0,107211,107961,0.3,0 M,0,107965,,342.7946,148.5589 F,0,107965,108715,0.3,0 M,0,108719,,426.4353,260.4471 F,0,108719,109469,0.3,0 M,0,109473,,397.2744,397.8128 F,0,109473,110223,0.3,0 M,0,110227,,372.153,223.7445 F,0,110227,110977,0.3,0 M,0,110981,,499.1379,241.4137 F,0,110981,111731,0.3,0 M,0,111735,,197.8669,140.0577 F,0,111735,112485,0.3,0 M,0,112489,,236.6137,69.84119 F,0,112489,113239,0.3,0 M,0,113243,,544.7963,231.1363 F,0,113243,113993,0.3,0 M,0,113997,,315.9398,248.6264 F,0,113997,114747,0.3,0
Sprite,Foreground,Centre,"sb\glow1.png",0,0 M,0,107224,,151.1703,346.388 S,0,107224,,0.6 C,0,107224,,184,184,184 P,0,107224,,A F,0,107224,107974,0.3,0 M,0,107978,,350.0608,150.0122 F,0,107978,108728,0.3,0 M,0,108732,,432.8308,264.0902 F,0,108732,109482,0.3,0 M,0,109486,,380.6719,405.2885 F,0,109486,110236,0.3,0 M,0,110240,,364.9958,218.153 F,0,110240,110990,0.3,0 M,0,110994,,496.8338,234.5014 F,0,110994,111744,0.3,0 M,0,111748,,174.0376,158.7425 F,0,111748,112498,0.3,0 M,0,112502,,238.0479,74.14371 F,0,112502,113252,0.3,0 M,0,113256,,552.1827,230.5454 F,0,113256,114006,0.3,0 M,0,114010,,312.16,265.12 F,0,114010,114760,0.3,0
Sprite,Foreground,Centre,"sb\glow1.png",0,0 M,0,107237,,166.4714,356.495 S,0,107237,,0.6 C,0,107237,,184,184,184 P,0,107237,,A F,0,107237,107987,0.3,0 M,0,107991,,357.3268,151.4654 F,0,107991,108741,0.3,0 M,0,108745,,439.7969,266.4693 F,0,108745,109495,0.3,0 M,0,109499,,367.4684,411.2338 F,0,109499,110249,0.3,0 M,0,110253,,359.4024,213.7831 F,0,110253,111003,0.3,0 M,0,111007,,495.0694,229.2082 F,0,111007,111757,0.3,0 M,0,111761,,156.2235,172.7108 F,0,111761,112511,0.3,0 M,0,112515,,239.0896,77.26869 F,0,112515,113265,0.3,0 M,0,113269,,559.5691,229.9545 F,0,113269,114019,0.3,0 M,0,114023,,308.6182,280.5752 F,0,114023,114773,0.3,0
Sprite,Foreground,Centre,"sb\glow1.png",0,0 M,0,107250,,178.5898,364.4998 S,0,107250,,0.6 C,0,107250,,184,184,184 P,0,107250,,A F,0,107250,108000,0.3,0 M,0,108004,,364.4436,150.5188 F,0,108004,108754,0.3,0 M,0,108758,,447.019,267.7359 F,0,108758,109508,0.3,0 M,0,109512,,357.6638,415.6486 F,0,109512,110262,0.3,0 M,0,110266,,355.3727,210.6349 F,0,110266,111016,0.3,0 M,0,111020,,493.8447,225.534 F,0,111020,111770,0.3,0 M,0,111774,,144.4245,181.9625 F,0,111774,112524,0.3,0 M,0,112528,,239.7387,79.21614 F,0,112528,113278,0.3,0 M,0,113282,,566.9555,229.3636 F,0,113282,114032,0.3,0 M,0,114036,,305.3143,294.9921 F,0,114036,114786,0.3,0
Sprite,Foreground,Centre,"sb\glow1.png",0,0 M,0,107263,,187.5256,370.4023 S,0,107263,,0.6 C,0,107263,,184,184,184 P,0,107263,,A F,0,107263,108013,0.3,0 M,0,108017,,371.4733,148.1756 F,0,108017,108767,0.3,0 M,0,108771,,454.3258,268.5093 F,0,108771,109521,0.3,0 M,0,109525,,351.2581,418.5329 F,0,109525,110275,0.3,0 M,0,110279,,352.9068,208.7084 F,0,110279,111029,0.3,0 M,0,111033,,493.1597,223.479 F,0,111033,111783,0.3,0 M,0,111787,,138.6407,186.4977 F,0,111787,112537,0.3,0 M,0,112541,,239.9954,79.98606 F,0,112541,113291,0.3,0 M,0,113295,,572.8099,231.6971 F,0,113295,114045,0.3,0 M,0,114049,,302.2484,308.3707 F,0,114049,114799,0.3,0
Sprite,Foreground,Centre,"sb\glow1.png",0,0 M,0,107276,,193.2788,374.2025 S,0,107276,,0.6 C,0,107276,,184,184,184 P,0,107276,,A F,0,107276,108026,0.3,0 M,0,108030,,378.5031,145.8323 F,0,108030,108780,0.3,0 M,0,108784,,461.5863,267.4679 F,0,108784,109534,0.3,0 M,0,109538,,348.2514,419.8868 F,0,109538,110288,0.3,0 M,0,110292,,352.0046,208.0036 F,0,110292,111042,0.3,0 M,0,111046,,491.3004,222.8112 F,0,111046,111796,0.3,0 M,0,111800,,138.229,190.9722 F,0,111800,112550,0.3,0 M,0,112554,,244.8951,82.93707 F,0,112554,113304,0.3,0 M,0,113308,,568.449,252.9345 F,0,113308,114058,0.3,0 M,0,114062,,299.4204,320.7109 F,0,114062,114812,0.3,0
Sprite,Foreground,Centre,"sb\glow1.png",0,0 M,0,107289,,195.8493,375.9005 S,0,107289,,0.6 C,0,107289,,184,184,184 P,0,107289,,A F,0,107289,108039,0.3,0 M,0,108043,,385.5328,143.4891 F,0,108043,108793,0.3,0 M,0,108797,,468.6563,265.632 F,0,108797,109547,0.3,0 M,0,109551,,344.3719,417.8231 F,0,109551,110301,0.3,0 M,0,110305,,362.5298,186.9405 F,0,110305,111055,0.3,0 M,0,111059,,483.9358,221.9929 F,0,111059,111809,0.3,0 M,0,111813,,138.4487,198.3377 F,0,111813,112563,0.3,0 M,0,112567,,249.7959,85.87755 F,0,112567,113317,0.3,0 M,0,113321,,564.4458,272.4301 F,0,113321,114071,0.3,0 M,0,114075,,296.8304,332.0128 F,0,114075,114825,0.3,0
Sprite,Foreground,Centre,"sb\glow1.png",0,0 M,0,107302,,203.1319,360.4778 S,0,107302,,0.6 C,0,107302,,104,104,255 P,0,107302,,A F,0,107302,108052,0.3,0 M,0,108056,,405.3842,148.0667 F,0,108056,108806,0.3,0 M,0,108810,,475.4128,262.8461 F,0,108810,109560,0.3,0 M,0,109564,,339.25,414.75 F,0,109564,110314,0.3,0 M,0,110318,,373.0513,165.8974 F,0,110318,111068,0.3,0 M,0,111072,,476.5711,221.1746 F,0,111072,111822,0.3,0 M,0,111826,,139.4665,205.6526 F,0,111826,112576,0.3,0 M,0,112580,,253.7387,88.24319 F,0,112580,113330,0.3,0 M,0,113334,,560.8002,290.1837 F,0,113334,114084,0.3,0 M,0,114088,,294.4783,342.2764 F,0,114088,114838,0.3,0
Sprite,Foreground,Centre,"sb\glow1.png",0,0 M,0,107315,,212.7361,339.5745 S,0,107315,,0.6 C,0,107315,,104,104,255 P,0,107315,,A F,0,107315,108065,0.3,0 M,0,108069,,422.2226,152.0366 F,0,108069,108819,0.3,0 M,0,108823,,481.6945,259.0878 F,0,108823,109573,0.3,0 M,0,109577,,335.0862,412.2517 F,0,109577,110327,0.3,0 M,0,110331,,382.6518,146.6964 F,0,110331,111081,0.3,0 M,0,111085,,469.2064,220.3563 F,0,111085,111835,0.3,0 M,0,111839,,141.4088,212.7864 F,0,111839,112589,0.3,0 M,0,112593,,256.7234,90.03401 F,0,112593,113343,0.3,0 M,0,113347,,557.5124,306.1955 F,0,113347,114097,0.3,0 M,0,114101,,292.3642,351.5016 F,0,114101,114851,0.3,0
Sprite,Foreground,Centre,"sb\glow1.png",0,0 M,0,107328,,221.5162,320.4648 S,0,107328,,0.6 C,0,107328,,104,104,255 P,0,107328,,A F,0,107328,108078,0.3,0 M,0,108082,,435.6673,155.2063 F,0,108082,108832,0.3,0 M,0,108836,,487.3639,254.4342 F,0,108836,109586,0.3,0 M,0,109590,,331.8804,410.3282 F,0,109590,110340,0.3,0 M,0,110344,,391.3312,129.3376 F,0,110344,111094,0.3,0 M,0,111098,,461.8417,219.538 F,0,111098,111848,0.3,0 M,0,111852,,144.3453,219.553 F,0,111852,112602,0.3,0 M,0,112606,,258.75,91.25 F,0,112606,113356,0.3,0 M,0,113360,,554.5822,320.4654 F,0,113360,114110,0.3,0 M,0,114114,,290.4881,359.6884 F,0,114114,114864,0.3,0
Sprite,Foreground,Centre,"sb\glow1.png",0,0 M,0,107341,,229.4721,303.1489 S,0,107341,,0.6 C,0,107341,,104,104,255 P,0,107341,,A F,0,107341,108091,0.3,0 M,0,108095,,445.7182,157.5759 F,0,108095,108845,0.3,0 M,0,108849,,492.2956,248.9812 F,0,108849,109599,0.3,0 M,0,109603,,329.6327,408.9796 F,0,109603,110353,0.3,0 M,0,110357,,399.0895,113.8209 F,0,110357,111107,0.3,0 M,0,111111,,454.4771,218.7197 F,0,111111,111861,0.3,0 M,0,111865,,147.8933,225.9892 F,0,111865,112615,0.3,0 M,0,112619,,259.8186,91.89116 F,0,112619,113369,0.3,0 M,0,113373,,552.0096,332.9935 F,0,113373,114123,0.3,0 M,0,114127,,288.8499,366.837 F,0,114127,114877,0.3,0
Sprite,Foreground,Centre,"sb\glow1.png",0,0 M,0,107354,,236.604,287.6266 S,0,107354,,0.6 C,0,107354,,104,104,255 P,0,107354,,A F,0,107354,108104,0.3,0 M,0,108108,,452.3752,159.1454 F,0,108108,108858,0.3,0 M,0,108862,,496.3786,242.8422 F,0,108862,109612,0.3,0 M,0,109616,,328.343,408.2058 F,0,109616,110366,0.3,0 M,0,110370,,405.9268,100.1464 F,0,110370,111120,0.3,0 M,0,111124,,447.1124,217.9014 F,0,111124,111874,0.3,0 M,0,111878,,151.408,231.3858 F,0,111878,112628,0.3,0 M,0,112632,,258.576,103.1547 F,0,112632,113382,0.3,0 M,0,113386,,549.7948,343.7797 F,0,113386,114136,0.3,0 M,0,114140,,287.4496,372.9472 F,0,114140,114890,0.3,0
Sprite,Foreground,Centre,"sb\glow1.png",0,0 M,0,107367,,242.9117,273.8981 S,0,107367,,0.6 C,0,107367,,104,104,255 P,0,107367,,A F,0,107367,108117,0.3,0 M,0,108121,,455.6385,159.9148 F,0,108121,108871,0.3,0 M,0,108875,,499.1798,236.0288 F,0,108875,109625,0.3,0 M,0,109629,,330.5867,405.7007 F,0,109629,110379,0.3,0 M,0,110383,,411.843,88.3141 F,0,110383,111133,0.3,0 M,0,111137,,439.7477,217.0831 F,0,111137,111887,0.3,0 M,0,111891,,151.5808,231.5651 F,0,111891,112641,0.3,0 M,0,112645,,255.0774,130.5606 F,0,112645,113395,0.3,0 M,0,113399,,547.9376,352.824 F,0,113399,114149,0.3,0 M,0,114153,,286.2873,378.0191 F,0,114153,114903,0.3,0
Sprite,Foreground,Centre,"sb\glow1.png",0,0 M,0,107380,,248.3953,261.9632 S,0,107380,,0.6 C,0,107380,,104,104,255 P,0,107380,,A F,0,107380,108130,0.3,0 M,0,108134,,456.6462,156.1225 F,0,108134,108884,0.3,0 M,0,108888,,503.7549,230.3204 F,0,108888,109638,0.3,0 M,0,109642,,346.6362,391.4344 F,0,109642,110392,0.3,0 M,0,110396,,416.838,78.32393 F,0,110396,111146,0.3,0 M,0,111150,,432.383,216.2648 F,0,111150,111900,0.3,0 M,0,111904,,151.7239,231.7135 F,0,111904,112654,0.3,0 M,0,112658,,251.8731,155.6605 F,0,112658,113408,0.3,0 M,0,113412,,546.4381,360.1264 F,0,113412,114162,0.3,0 M,0,114166,,285.3629,382.0526 F,0,114166,114916,0.3,0
Sprite,Foreground,Centre,"sb\glow1.png",0,0 M,0,107406,,256.8901,243.4745 S,0,107406,,0.6 C,0,107406,,104,104,255 P,0,107406,,A F,0,107406,108156,0.3,0 M,0,108160,,458.5484,144.7095 F,0,108160,108910,0.3,0 M,0,108914,,511.0018,221.8453 F,0,108914,109664,0.3,0 M,0,109668,,374.7611,366.4346 F,0,109668,110418,0.3,0 M,0,110422,,424.065,63.87006 F,0,110422,111172,0.3,0 M,0,111176,,417.6537,214.6282 F,0,111176,111926,0.3,0 M,0,111930,,151.9208,231.9178 F,0,111930,112680,0.3,0 M,0,112684,,246.3478,198.9422 F,0,112684,113434,0.3,0 M,0,113438,,544.5122,369.5057 F,0,113438,114188,0.3,0 M,0,114192,,284.2281,387.0047 F,0,114192,114942,0.3,0
Sprite,Foreground,Centre,"sb\glow1.png",0,0 M,0,107419,,259.9013,236.9207 S,0,107419,,0.6 C,0,107419,,104,104,255 P,0,107419,,A F,0,107419,108169,0.3,0 M,0,108173,,459.2051,140.7693 F,0,108173,108923,0.3,0 M,0,108927,,513.4277,219.0083 F,0,108927,109677,0.3,0 M,0,109681,,386.8364,355.701 F,0,109681,110431,0.3,0 M,0,110435,,426.2968,59.40636 F,0,110435,111185,0.3,0 M,0,111189,,410.289,213.8099 F,0,111189,111939,0.3,0 M,0,111943,,151.9745,231.9736 F,0,111943,112693,0.3,0 M,0,112697,,244.0267,217.1241 F,0,112697,113447,0.3,0 M,0,113451,,544.0857,371.5826 F,0,113451,114201,0.3,0 M,0,114205,,284.0176,387.9232 F,0,114205,114955,0.3,0
Sprite,Foreground,Centre,"sb\glow1.png",0,0 M,0,107432,,262.0884,232.1605 S,0,107432,,0.6 C,0,107432,,104,104,255 P,0,107432,,A F,0,107432,108182,0.3,0 M,0,108186,,459.6656,138.0067 F,0,108186,108936,0.3,0 M,0,108940,,515.0552,217.105 F,0,108940,109690,0.3,0 M,0,109694,,397.587,346.1449 F,0,109694,110444,0.3,0 M,0,110448,,427.6076,56.78482 F,0,110448,111198,0.3,0 M,0,111202,,402.9243,212.9916 F,0,111202,111952,0.3,0 M,0,111956,,151.9986,231.9985 F,0,111956,112706,0.3,0 M,0,112710,,242,233 F,0,112710,113460,0.3,0 M,0,113464,,542.1187,371.2475 F,0,113464,114214,0.3,0 M,0,114218,,280.3304,391.6696 F,0,114218,114968,0.3,0
Sprite,Foreground,Centre,"sb\glow1.png",0,0 M,0,107445,,263.4514,229.194 S,0,107445,,0.6 C,0,107445,,104,104,255 P,0,107445,,A F,0,107445,108195,0.3,0 M,0,108199,,459.9297,136.4215 F,0,108199,108949,0.3,0 M,0,108953,,515.8843,216.1354 F,0,108953,109703,0.3,0 M,0,109707,,407.0129,337.7663 F,0,109707,110457,0.3,0 M,0,110461,,427.447,56.13824 F,0,110461,111211,0.3,0 M,0,111215,,395.5597,212.1733 F,0,111215,111965,0.3,0 M,0,111969,,147.0438,230.7453 F,0,111969,112719,0.3,0 M,0,112723,,240.2677,246.5699 F,0,112723,113473,0.3,0 M,0,113477,,536.6462,369.0585 F,0,113477,114227,0.3,0 M,0,114231,,275.1598,396.8402 F,0,114231,114981,0.3,0
Sprite,Foreground,Centre,"sb\glow1.png",0,0 M,0,107458,,263.9902,228.0212 S,0,107458,,0.6 C,0,107458,,104,104,255 P,0,107458,,A F,0,107458,108208,0.3,0 M,0,108212,,459.6191,134.8573 F,0,108212,108962,0.3,0 M,0,108966,,519.3445,215.4426 F,0,108966,109716,0.3,0 M,0,109720,,415.1141,330.5652 F,0,109720,110470,0.3,0 M,0,110474,,420.2583,57.93544 F,0,110474,111224,0.3,0 M,0,111228,,388.195,211.355 F,0,111228,111978,0.3,0 M,0,111982,,139.9458,228.8793 F,0,111982,112732,0.3,0 M,0,112736,,238.8297,257.8338 F,0,112736,113486,0.3,0 M,0,113490,,532.155,367.262 F,0,113490,114240,0.3,0 M,0,114244,,270.9705,401.0295 F,0,114244,114994,0.3,0
Sprite,Foreground,Centre,"sb\glow1.png",0,0 M,0,107471,,262.02,222.0601 S,0,107471,,0.6 C,0,107471,,104,104,255 P,0,107471,,A F,0,107471,108221,0.3,0 M,0,108225,,457.3697,128.1092 F,0,108225,108975,0.3,0 M,0,108979,,525.7303,214.3783 F,0,108979,109729,0.3,0 M,0,109733,,421.8906,324.5417 F,0,109733,110483,0.3,0 M,0,110487,,413.0695,59.73262 F,0,110487,111237,0.3,0 M,0,111241,,380.8303,210.5367 F,0,111241,111991,0.3,0 M,0,111995,,133.1465,226.1002 F,0,111995,112745,0.3,0 M,0,112749,,237.6862,266.7917 F,0,112749,113499,0.3,0 M,0,113503,,528.6451,365.858 F,0,113503,114253,0.3,0 M,0,114257,,267.7625,404.2375 F,0,114257,115007,0.3,0
Sprite,Foreground,Centre,"sb\glow1.png",0,0 M,0,107484,,260.0424,216.1272 S,0,107484,,0.6 C,0,107484,,104,104,255 P,0,107484,,A F,0,107484,108234,0.3,0 M,0,108238,,455.5128,122.5385 F,0,108238,108988,0.3,0 M,0,108992,,530.9386,213.5102 F,0,108992,109742,0.3,0 M,0,109746,,427.3423,319.6957 F,0,109746,110496,0.3,0 M,0,110500,,405.8807,61.52981 F,0,110500,111250,0.3,0 M,0,111254,,373.4656,209.7184 F,0,111254,112004,0.3,0 M,0,112008,,126.7623,222.4533 F,0,112008,112758,0.3,0 M,0,112762,,236.837,273.4436 F,0,112762,113512,0.3,0 M,0,113516,,526.1164,364.8466 F,0,113516,114266,0.3,0 M,0,114270,,265.5358,406.4642 F,0,114270,115020,0.3,0
Sprite,Foreground,Centre,"sb\glow1.png",0,0 M,0,107497,,258.4572,211.3717 S,0,107497,,0.6 C,0,107497,,104,104,255 P,0,107497,,A F,0,107497,108247,0.3,0 M,0,108251,,454.0485,118.1454 F,0,108251,109001,0.3,0 M,0,109005,,534.9694,212.8384 F,0,109005,109755,0.3,0 M,0,109759,,431.4693,316.0273 F,0,109759,110509,0.3,0 M,0,110513,,411.2262,60.19344 F,0,110513,111263,0.3,0 M,0,111267,,366.101,208.9001 F,0,111267,112017,0.3,0 M,0,112021,,120.9027,217.9988 F,0,112021,112771,0.3,0 M,0,112775,,236.2822,277.7895 F,0,112775,113525,0.3,0 M,0,113529,,524.569,364.2276 F,0,113529,114279,0.3,0 M,0,114283,,264.2903,407.7097 F,0,114283,115033,0.3,0
Sprite,Foreground,Centre,"sb\glow1.png",0,0 M,0,107510,,257.2646,207.7939 S,0,107510,,0.6 C,0,107510,,104,104,255 P,0,107510,,A F,0,107510,108260,0.3,0 M,0,108264,,452.9766,114.9299 F,0,108264,109014,0.3,0 M,0,109018,,537.8226,212.3629 F,0,109018,109768,0.3,0 M,0,109772,,434.2716,313.5364 F,0,109772,110522,0.3,0 M,0,110526,,418.415,58.39625 F,0,110526,111276,0.3,0 M,0,111280,,358.7362,208.0818 F,0,111280,112030,0.3,0 M,0,112034,,115.6687,212.8103 F,0,112034,112784,0.3,0 M,0,112788,,236.0218,279.8294 F,0,112788,113538,0.3,0 M,0,113542,,524.0029,364.0012 F,0,113542,114292,0.3,0 M,0,114296,,265.6422,408.4638 F,0,114296,115046,0.3,0
Sprite,Foreground,Centre,"sb\glow1.png",0,0 M,0,107523,,256.4645,205.3935 S,0,107523,,0.6 C,0,107523,,104,104,255 P,0,107523,,A F,0,107523,108273,0.3,0 M,0,108277,,452.2973,112.8919 F,0,108277,109027,0.3,0 M,0,109031,,539.4984,212.0836 F,0,109031,109781,0.3,0 M,0,109785,,435.7492,312.223 F,0,109785,110535,0.3,0 M,0,110539,,425.6038,56.59906 F,0,110539,111289,0.3,0 M,0,111293,,351.3716,207.2635 F,0,111293,112043,0.3,0 M,0,112047,,111.316,206.8622 F,0,112047,112797,0.3,0 M,0,112801,,249.84,276.6335 F,0,112801,113551,0.3,0 M,0,113555,,519.7551,359.7551 F,0,113555,114305,0.3,0 M,0,114309,,272.6547,410.8208 F,0,114309,115059,0.3,0
Sprite,Foreground,Centre,"sb\glow1.png",0,0 M,0,107536,,256.0569,204.1707 S,0,107536,,0.6 C,0,107536,,104,104,255 P,0,107536,,A F,0,107536,108286,0.3,0 M,0,108290,,452.0104,112.0314 F,0,108290,109040,0.3,0 M,0,109044,,540.0937,212.5622 F,0,109044,109794,0.3,0 M,0,109798,,438.3101,310.614 F,0,109798,110548,0.3,0 M,0,110552,,430.3573,70.92954 F,0,110552,111302,0.3,0 M,0,111306,,341.4069,198.8292 F,0,111306,112056,0.3,0 M,0,112060,,107.4302,200.5878 F,0,112060,112810,0.3,0 M,0,112814,,270.8813,271.5154 F,0,112814,113564,0.3,0 M,0,113568,,515.8934,355.8934 F,0,113568,114318,0.3,0 M,0,114322,,279.9171,412.1993 F,0,114322,115072,0.3,0
Sprite,Foreground,Centre,"sb\glow1.png",0,0 M,0,107549,,253.2449,202.3469 S,0,107549,,0.6 C,0,107549,,104,104,255 P,0,107549,,A F,0,107549,108299,0.3,0 M,0,108303,,444.5648,107.353 F,0,108303,109053,0.3,0 M,0,109057,,541.3119,219.8714 F,0,109057,109807,0.3,0 M,0,109811,,443.6531,307.4082 F,0,109811,110561,0.3,0 M,0,110565,,433.4104,90.26581 F,0,110565,111315,0.3,0 M,0,111319,,331.9743,190.8453 F,0,111319,112069,0.3,0 M,0,112073,,104.8169,193.6825 F,0,112073,112823,0.3,0 M,0,112827,,290.1289,266.8335 F,0,112827,113577,0.3,0 M,0,113581,,512.7982,352.7982 F,0,113581,114331,0.3,0 M,0,114335,,287.2593,412.8728 F,0,114335,115085,0.3,0
Sprite,Foreground,Centre,"sb\glow1.png",0,0 M,0,107562,,247.9756,199.1854 S,0,107562,,0.6 C,0,107562,,104,104,255 P,0,107562,,A F,0,107562,108312,0.3,0 M,0,108316,,435.5852,101.7408 F,0,108316,109066,0.3,0 M,0,109070,,542.5301,227.1806 F,0,109070,109820,0.3,0 M,0,109824,,448.038,304.7772 F,0,109824,110574,0.3,0 M,0,110578,,435.8841,105.9324 F,0,110578,111328,0.3,0 M,0,111332,,323.0736,183.3116 F,0,111332,112082,0.3,0 M,0,112086,,103.2017,186.5051 F,0,112086,112836,0.3,0 M,0,112840,,307.5828,262.588 F,0,112840,113590,0.3,0 M,0,113594,,510.4694,350.4694 F,0,113594,114344,0.3,0 M,0,114348,,294.6188,412.9629 F,0,114348,115098,0.3,0
Sprite,Foreground,Centre,"sb\glow1.png",0,0 M,0,107575,,243.6644,196.5986 S,0,107575,,0.6 C,0,107575,,104,104,255 P,0,107575,,A F,0,107575,108325,0.3,0 M,0,108329,,427.3813,96.61329 F,0,108329,109079,0.3,0 M,0,109083,,543.7483,234.4898 F,0,109083,109833,0.3,0 M,0,109837,,451.4648,302.7211 F,0,109837,110587,0.3,0 M,0,110591,,437.7783,117.9294 F,0,110591,111341,0.3,0 M,0,111345,,314.705,176.2282 F,0,111345,112095,0.3,0 M,0,112099,,102.3621,179.2203 F,0,112099,112849,0.3,0 M,0,112853,,323.243,258.7787 F,0,112853,113603,0.3,0 M,0,113607,,508.907,348.907 F,0,113607,114357,0.3,0 M,0,114361,,301.9572,412.363 F,0,114361,115111,0.3,0
Sprite,Foreground,Centre,"sb\glow1.png",0,0 M,0,107588,,240.3112,194.5867 S,0,107588,,0.6 C,0,107588,,104,104,255 P,0,107588,,A F,0,107588,108338,0.3,0 M,0,108342,,419.9529,91.9706 F,0,108342,109092,0.3,0 M,0,109096,,542.1409,241.5773 F,0,109096,109846,0.3,0 M,0,109850,,453.9337,301.2398 F,0,109850,110600,0.3,0 M,0,110604,,439.0932,126.2567 F,0,110604,111354,0.3,0 M,0,111358,,306.8683,169.5951 F,0,111358,112108,0.3,0 M,0,112112,,102.3366,171.8849 F,0,112112,112862,0.3,0 M,0,112866,,337.1095,255.4058 F,0,112866,113616,0.3,0 M,0,113620,,508.1111,348.1111 F,0,113620,114370,0.3,0 M,0,114374,,309.1935,410.9935 F,0,114374,115124,0.3,0
Sprite,Foreground,Centre,"sb\glow1.png",0,0 M,0,107601,,237.9161,193.1497 S,0,107601,,0.6 C,0,107601,,104,104,255 P,0,107601,,A F,0,107601,108351,0.3,0 M,0,108355,,413.3003,87.81268 F,0,108355,109105,0.3,0 M,0,109109,,539.7977,248.607 F,0,109109,109859,0.3,0 M,0,109863,,455.4445,300.3333 F,0,109863,110613,0.3,0 M,0,110617,,439.8286,130.9143 F,0,110617,111367,0.3,0 M,0,111371,,299.5636,163.4123 F,0,111371,112121,0.3,0 M,0,112125,,103.4409,164.6332 F,0,112125,112875,0.3,0 M,0,112879,,349.1824,252.4691 F,0,112879,113629,0.3,0 M,0,113633,,494.6552,342.8893 F,0,113633,114383,0.3,0 M,0,114387,,316.2695,408.9362 F,0,114387,115137,0.3,0
Sprite,Foreground,Centre,"sb\glow1.png",0,0 M,0,107614,,236.479,192.2874 S,0,107614,,0.6 C,0,107614,,104,104,255 P,0,107614,,A F,0,107614,108364,0.3,0 M,0,108368,,407.4233,84.13956 F,0,108368,109118,0.3,0 M,0,109122,,537.4544,255.6367 F,0,109122,109872,0.3,0 M,0,109876,,455.9972,300.0017 F,0,109876,110626,0.3,0 M,0,110630,,441.2091,133.2092 F,0,110630,111380,0.3,0 M,0,111384,,292.7909,157.6797 F,0,111384,112134,0.3,0 M,0,112138,,105.3987,157.5647 F,0,112138,112888,0.3,0 M,0,112892,,359.4616,249.9688 F,0,112892,113642,0.3,0 M,0,113646,,467.4268,332.4613 F,0,113646,114396,0.3,0 M,0,114400,,323.1125,406.1866 F,0,114400,115150,0.3,0
Sprite,Foreground,Centre,"sb\glow1.png",0,0 M,0,107627,,236,192 S,0,107627,,0.6 C,0,107627,,104,104,255 P,0,107627,,A F,0,107627,108377,0.3,0 M,0,108381,,402.3219,80.9512 F,0,108381,109131,0.3,0 M,0,109135,,542.8272,271.7348 F,0,109135,109885,0.3,0 M,0,109889,,462.4381,302.146 F,0,109889,110639,0.3,0 M,0,110643,,446.4488,138.4488 F,0,110643,111393,0.3,0 M,0,111397,,286.5502,152.3975 F,0,111397,112147,0.3,0 M,0,112151,,108.2646,150.8075 F,0,112151,112901,0.3,0 M,0,112905,,367.9471,247.9048 F,0,112905,113655,0.3,0 M,0,113659,,442.5043,322.9165 F,0,113659,114409,0.3,0 M,0,114413,,329.656,402.7701 F,0,114413,115163,0.3,0
Sprite,Foreground,Centre,"sb\glow1.png",0,0 M,0,107640,,234.2204,184.8215 S,0,107640,,0.6 C,0,107640,,104,104,255 P,0,107640,,A F,0,107640,108390,0.3,0 M,0,108394,,397.9962,78.24763 F,0,108394,109144,0.3,0 M,0,109148,,550.7975,289.5496 F,0,109148,109898,0.3,0 M,0,109902,,468.2805,304.0935 F,0,109902,110652,0.3,0 M,0,110656,,451.6885,143.6885 F,0,110656,111406,0.3,0 M,0,111410,,280.8415,147.5656 F,0,111410,112160,0.3,0 M,0,112164,,111.9914,144.4772 F,0,112164,112914,0.3,0 M,0,112918,,374.6389,246.277 F,0,112918,113668,0.3,0 M,0,113672,,419.8878,314.2549 F,0,113672,114422,0.3,0 M,0,114426,,335.8358,398.718 F,0,114426,115176,0.3,0
Sprite,Foreground,Centre,"sb\glow1.png",0,0 M,0,107653,,233.0986,177.5389 S,0,107653,,0.6 C,0,107653,,104,104,255 P,0,107653,,A F,0,107653,108403,0.3,0 M,0,108407,,394.4461,76.02883 F,0,108407,109157,0.3,0 M,0,109161,,557.2551,303.9835 F,0,109161,109911,0.3,0 M,0,109915,,472.9453,305.6484 F,0,109915,110665,0.3,0 M,0,110669,,457.3072,148.1188 F,0,110669,111419,0.3,0 M,0,111423,,275.6648,143.1839 F,0,111423,112173,0.3,0 M,0,112177,,116.5176,138.6821 F,0,112177,112927,0.3,0 M,0,112931,,379.537,245.0856 F,0,112931,113681,0.3,0 M,0,113685,,399.5773,306.4764 F,0,113685,114435,0.3,0 M,0,114439,,341.5911,394.0681 F,0,114439,115189,0.3,0
Sprite,Foreground,Centre,"sb\glow1.png",0,0 M,0,107666,,232.4776,170.2041 S,0,107666,,0.6 C,0,107666,,104,104,255 P,0,107666,,A F,0,107666,108416,0.3,0 M,0,108420,,391.6717,74.29482 F,0,108420,109170,0.3,0 M,0,109174,,562.2002,315.0365 F,0,109174,109924,0.3,0 M,0,109928,,476.4326,306.8109 F,0,109928,110678,0.3,0 M,0,110682,,464.6868,148.7897 F,0,110682,111432,0.3,0 M,0,111436,,271.0201,139.2525 F,0,111436,112186,0.3,0 M,0,112190,,121.7679,133.5222 F,0,112190,112940,0.3,0 M,0,112944,,382.6415,244.3305 F,0,112944,113694,0.3,0 M,0,113698,,381.5728,299.5811 F,0,113698,114448,0.3,0 M,0,114452,,346.637,388.6663 F,0,114452,115202,0.3,0
Sprite,Foreground,Centre,"sb\glow1.png",0,0 M,0,107679,,232.5724,162.8379 S,0,107679,,0.6 C,0,107679,,104,104,255 P,0,107679,,A F,0,107679,108429,0.3,0 M,0,108433,,389.6729,73.04557 F,0,108433,109183,0.3,0 M,0,109187,,565.6326,322.7086 F,0,109187,109937,0.3,0 M,0,109941,,478.7423,307.5808 F,0,109941,110691,0.3,0 M,0,110695,,472.0663,149.4606 F,0,110695,111445,0.3,0 M,0,111449,,266.9074,135.7715 F,0,111449,112199,0.3,0 M,0,112203,,127.6549,129.0869 F,0,112203,112953,0.3,0 M,0,112957,,383.9522,244.0116 F,0,112957,113707,0.3,0 M,0,113711,,365.8743,293.5689 F,0,113711,114461,0.3,0 M,0,114465,,357.6435,381.1813 F,0,114465,115215,0.3,0
Sprite,Foreground,Centre,"sb\glow1.png",0,0 M,0,107692,,233.3836,155.5081 S,0,107692,,0.6 C,0,107692,,104,104,255 P,0,107692,,A F,0,107692,108442,0.3,0 M,0,108446,,388.4498,72.28111 F,0,108446,109196,0.3,0 M,0,109200,,567.5525,326.9997 F,0,109200,109950,0.3,0 M,0,109954,,479.8746,307.9582 F,0,109954,110704,0.3,0 M,0,110708,,479.4459,150.1314 F,0,110708,111458,0.3,0 M,0,111462,,263.3267,132.7407 F,0,111462,112212,0.3,0 M,0,112216,,134.1101,129.0804 F,0,112216,112966,0.3,0 M,0,112970,,389.6818,243.5455 F,0,112970,113720,0.3,0 M,0,113724,,352.4818,288.4398 F,0,113724,114474,0.3,0 M,0,114478,,375.4747,372.2648 F,0,114478,115228,0.3,0
Sprite,Foreground,Centre,"sb\glow1.png",0,0 M,0,107705,,234.9188,148.2858 S,0,107705,,0.6 C,0,107705,,104,104,255 P,0,107705,,A F,0,107705,108455,0.3,0 M,0,108459,,388.0023,72.00143 F,0,108459,109209,0.3,0 M,0,109213,,564.025,331.4072 F,0,109213,109963,0.3,0 M,0,109967,,479.3441,311.9357 F,0,109967,110717,0.3,0 M,0,110721,,485.4128,133.292 F,0,110721,111471,0.3,0 M,0,111475,,260.2779,130.1602 F,0,111475,112225,0.3,0 M,0,112229,,139.6409,132.4563 F,0,112229,112979,0.3,0 M,0,112983,,397.0683,242.9545 F,0,112983,113733,0.3,0 M,0,113737,,341.3953,284.1939 F,0,113737,114487,0.3,0 M,0,114491,,390.0638,364.9695 F,0,114491,115241,0.3,0
Sprite,Foreground,Centre,"sb\glow1.png",0,0 M,0,107718,,237.382,141.3233 S,0,107718,,0.6 C,0,107718,,104,104,255 P,0,107718,,A F,0,107718,108468,0.3,0 M,0,108472,,390.2168,91.9511 F,0,108472,109222,0.3,0 M,0,109226,,548.4907,344.7223 F,0,109226,109976,0.3,0 M,0,109980,,478.1259,319.2449 F,0,109980,110730,0.3,0 M,0,110734,,490.2048,115.785 F,0,110734,111484,0.3,0 M,0,111488,,257.7612,128.03 F,0,111488,112238,0.3,0 M,0,112242,,144.1519,135.2097 F,0,112242,112992,0.3,0 M,0,112996,,404.4547,242.3636 F,0,112996,113746,0.3,0 M,0,113750,,332.6147,280.8312 F,0,113750,114500,0.3,0 M,0,114504,,401.4109,359.2953 F,0,114504,115254,0.3,0
Sprite,Foreground,Centre,"sb\glow1.png",0,0 M,0,107731,,240.0521,134.4232 S,0,107731,,0.6 C,0,107731,,104,104,255 P,0,107731,,A F,0,107731,108481,0.3,0 M,0,108485,,392.4319,111.8867 F,0,108485,109235,0.3,0 M,0,109239,,535.7039,355.6824 F,0,109239,109989,0.3,0 M,0,109993,,476.9077,326.5541 F,0,109993,110743,0.3,0 M,0,110747,,494.0458,101.7527 F,0,110747,111497,0.3,0 M,0,111501,,255.7764,126.35 F,0,111501,112251,0.3,0 M,0,112255,,147.6429,137.3406 F,0,112255,113005,0.3,0 M,0,113009,,411.8411,241.7727 F,0,113009,113759,0.3,0 M,0,113763,,326.1402,278.3516 F,0,113763,114513,0.3,0 M,0,114517,,409.516,355.2424 F,0,114517,115267,0.3,0
Sprite,Foreground,Centre,"sb\glow1.png",0,0 M,0,107744,,243.9218,128.1235 S,0,107744,,0.6 C,0,107744,,104,104,255 P,0,107744,,A F,0,107744,108494,0.3,0 M,0,108498,,394.453,130.0771 F,0,108498,109248,0.3,0 M,0,109252,,525.6647,364.2874 F,0,109252,110002,0.3,0 M,0,110006,,475.6895,333.8633 F,0,110006,110756,0.3,0 M,0,110760,,496.9357,91.19502 F,0,110760,111510,0.3,0 M,0,111514,,254.3237,125.1204 F,0,111514,112264,0.3,0 M,0,112268,,150.1142,138.8489 F,0,112268,113018,0.3,0 M,0,113022,,419.2274,241.1818 F,0,113022,113772,0.3,0 M,0,113776,,321.9717,276.7551 F,0,113776,114526,0.3,0 M,0,114530,,414.379,352.8106 F,0,114530,115280,0.3,0
Sprite,Foreground,Centre,"sb\glow1.png",0,0 M,0,107757,,248.3185,122.2115 S,0,107757,,0.6 C,0,107757,,104,104,255 P,0,107757,,A F,0,107757,108507,0.3,0 M,0,108511,,396.2802,146.5223 F,0,108511,109261,0.3,0 M,0,109265,,518.373,370.5374 F,0,109265,110015,0.3,0 M,0,110019,,474.4713,341.1724 F,0,110019,110769,0.3,0 M,0,110773,,498.8745,84.11204 F,0,110773,111523,0.3,0 M,0,111527,,253.4029,124.341 F,0,111527,112277,0.3,0 M,0,112281,,151.5655,139.7348 F,0,112281,113031,0.3,0 M,0,113035,,426.6139,240.5909 F,0,113035,113785,0.3,0 M,0,113789,,320.1092,276.0418 F,0,113789,114539,0.3,0 M,0,114543,,416,352 F,0,114543,115293,0.3,0
Sprite,Foreground,Centre,"sb\glow1.png",0,0 M,0,107770,,253.1198,116.6321 S,0,107770,,0.6 C,0,107770,,104,104,255 P,0,107770,,A F,0,107770,108520,0.3,0 M,0,108524,,397.9136,161.2223 F,0,108524,109274,0.3,0 M,0,109278,,513.829,374.4323 F,0,109278,110028,0.3,0 M,0,110032,,473.2531,348.4816 F,0,110032,110782,0.3,0 M,0,110786,,499.8621,80.50372 F,0,110786,111536,0.3,0 M,0,111540,,253.0142,124.012 F,0,111540,112290,0.3,0 M,0,112294,,152.0845,139.4363 F,0,112294,113044,0.3,0 M,0,113048,,434.0002,240 F,0,113048,113798,0.3,0 M,0,113802,,316.7551,267.8878 F,0,113802,114552,0.3,0 M,0,114556,,437.7035,352 F,0,114556,115306,0.3,0
Sprite,Foreground,Centre,"sb\glow1.png",0,0 M,0,107783,,258.4447,111.5417 S,0,107783,,0.6 C,0,107783,,104,104,255 P,0,107783,,A F,0,107783,108533,0.3,0 M,0,108537,,399.353,174.1771 F,0,108537,109287,0.3,0 M,0,109291,,512.0325,375.9721 F,0,109291,110041,0.3,0 M,0,110045,,472.3472,353.9166 F,0,110045,110795,0.3,0 M,0,110799,,500.2823,92.41952 F,0,110799,111549,0.3,0 M,0,111553,,257.4785,126.6871 F,0,111553,112303,0.3,0 M,0,112307,,153.1838,132.1083 F,0,112307,113057,0.3,0 M,0,113061,,441.3867,239.4091 F,0,113061,113811,0.3,0 M,0,113815,,312.7166,257.7914 F,0,113815,114565,0.3,0 M,0,114569,,455.7664,352 F,0,114569,115319,0.3,0
Sprite,Foreground,Centre,"sb\glow1.png",0,0 M,0,107796,,266.9086,109.2308 S,0,107796,,0.6 C,0,107796,,104,104,255 P,0,107796,,A F,0,107796,108546,0.3,0 M,0,108550,,400.5985,185.3866 F,0,108550,109300,0.3,0 M,0,109304,,505.785,376.8287 F,0,109304,110054,0.3,0 M,0,110058,,473.5654,346.6075 F,0,110058,110808,0.3,0 M,0,110812,,500.8584,117.7697 F,0,110812,111562,0.3,0 M,0,111566,,262.4529,129.6718 F,0,111566,112316,0.3,0 M,0,112320,,154.283,124.7803 F,0,112320,113070,0.3,0 M,0,113074,,448.773,238.8182 F,0,113074,113824,0.3,0 M,0,113828,,309.4445,249.6111 F,0,113828,114578,0.3,0 M,0,114582,,470.1888,352 F,0,114582,115332,0.3,0
Sprite,Foreground,Centre,"sb\glow1.png",0,0 M,0,107809,,286.1255,117.1339 S,0,107809,,0.6 C,0,107809,,104,104,255 P,0,107809,,A F,0,107809,108559,0.3,0 M,0,108563,,401.6501,194.851 F,0,108563,109313,0.3,0 M,0,109317,,498.44,377.808 F,0,109317,110067,0.3,0 M,0,110071,,474.7836,339.2983 F,0,110071,110821,0.3,0 M,0,110825,,501.3861,140.9869 F,0,110825,111575,0.3,0 M,0,111579,,266.4694,132.0816 F,0,111579,112329,0.3,0 M,0,112333,,155.3822,117.4523 F,0,112333,113083,0.3,0 M,0,113087,,456.1595,238.2272 F,0,113087,113837,0.3,0 M,0,113841,,306.9388,243.3469 F,0,113841,114591,0.3,0 M,0,114595,,480.9705,352 F,0,114595,115345,0.3,0
Sprite,Foreground,Centre,"sb\glow1.png",0,0 M,0,107822,,301.9891,123.6579 S,0,107822,,0.6 C,0,107822,,104,104,255 P,0,107822,,A F,0,107822,108572,0.3,0 M,0,108576,,402.5078,202.5702 F,0,108576,109326,0.3,0 M,0,109330,,491.095,378.7873 F,0,109330,110080,0.3,0 M,0,110084,,476.0018,331.9891 F,0,110084,110834,0.3,0 M,0,110838,,501.8653,162.0711 F,0,110838,111588,0.3,0 M,0,111592,,269.5278,133.9167 F,0,111592,112342,0.3,0 M,0,112346,,156.4814,110.1242 F,0,112346,113096,0.3,0 M,0,113100,,463.5459,237.6363 F,0,113100,113850,0.3,0 M,0,113854,,305.1996,238.9989 F,0,113854,114604,0.3,0 M,0,114608,,488.1117,352 F,0,114608,115358,0.3,0
Sprite,Foreground,Centre,"sb\glow1.png",0,0 M,0,107835,,314.4995,128.8028 S,0,107835,,0.6 C,0,107835,,104,104,255 P,0,107835,,A F,0,107835,108585,0.3,0 M,0,108589,,403.1716,208.5442 F,0,108589,109339,0.3,0 M,0,109343,,483.75,379.7667 F,0,109343,110093,0.3,0 M,0,110097,,477.22,324.6799 F,0,110097,110847,0.3,0 M,0,110851,,502.296,181.0222 F,0,110851,111601,0.3,0 M,0,111605,,271.6281,135.1769 F,0,111605,112355,0.3,0 M,0,112359,,157.5806,102.7962 F,0,112359,113109,0.3,0 M,0,113113,,470.9323,237.0454 F,0,113113,113863,0.3,0 M,0,113867,,304.2267,236.5669 F,0,113867,114617,0.3,0 M,0,114621,,491.6122,352 F,0,114621,115371,0.3,0
Sprite,Foreground,Centre,"sb\glow1.png",0,0 M,0,107848,,323.6565,132.5687 S,0,107848,,0.6 C,0,107848,,104,104,255 P,0,107848,,A F,0,107848,108598,0.3,0 M,0,108602,,403.6414,212.7729 F,0,108602,109352,0.3,0 M,0,109356,,476.405,380.746 F,0,109356,110106,0.3,0 M,0,110110,,478.4382,317.3707 F,0,110110,110860,0.3,0 M,0,110864,,502.6782,197.8403 F,0,110864,111614,0.3,0 M,0,111618,,272.7704,135.8622 F,0,111618,112368,0.3,0 M,0,112372,,158.6798,95.46819 F,0,112372,113122,0.3,0 M,0,113126,,478.3187,236.4545 F,0,113126,113876,0.3,0 M,0,113880,,305.7036,233.1607 F,0,113880,114630,0.3,0 M,0,114634,,492,352 F,0,114634,115384,0.3,0
Sprite,Foreground,Centre,"sb\glow1.png",0,0 M,0,107861,,329.4602,134.9555 S,0,107861,,0.6 C,0,107861,,104,104,255 P,0,107861,,A F,0,107861,108611,0.3,0 M,0,108615,,403.9174,215.2565 F,0,108615,109365,0.3,0 M,0,109369,,469.06,381.7253 F,0,109369,110119,0.3,0 M,0,110123,,479.6564,310.0616 F,0,110123,110873,0.3,0 M,0,110877,,503.0119,212.5254 F,0,110877,111627,0.3,0 M,0,111631,,272.8691,133.7302 F,0,111631,112381,0.3,0 M,0,112385,,173.3773,85.75218 F,0,112385,113135,0.3,0 M,0,113139,,485.705,235.8636 F,0,113139,113889,0.3,0 M,0,113893,,312.3611,222.0647 F,0,113893,114643,0.3,0
Sprite,Foreground,Centre,"sb\glow1.png",0,0 M,0,107874,,331.9107,135.9633 S,0,107874,,0.6 C,0,107874,,104,104,255 P,0,107874,,A F,0,107874,108624,0.3,0 M,0,108628,,404.0553,216.5646 F,0,108628,109378,0.3,0 M,0,109382,,461.715,382.7047 F,0,109382,110132,0.3,0 M,0,110136,,466.0383,297.0924 F,0,110136,110886,0.3,0 M,0,110890,,503.2972,225.0774 F,0,110890,111640,0.3,0 M,0,111644,,272.8692,126.3376 F,0,111644,112394,0.3,0 M,0,112398,,191.9386,76.33198 F,0,112398,113148,0.3,0 M,0,113152,,493.0915,235.2727 F,0,113152,113902,0.3,0 M,0,113906,,317.8412,212.9313 F,0,113906,114656,0.3,0
Sprite,Foreground,Centre,"sb\glow1.png",0,0 M,0,115972,,384,117 S,0,115972,,0.6 C,0,115972,,188,98,245 P,0,115972,,A F,0,115972,116722,0.3,0 M,0,116726,,271.6161,197.1083 F,0,116726,117476,0.3,0
Sprite,Foreground,Centre,"sb\glow1.png",0,0 M,0,116050,,380.9653,119.2361 S,0,116050,,0.6 C,0,116050,,174,174,255 P,0,116050,,A F,0,116050,116800,0.3,0 M,0,116804,,197.8741,198.8532 F,0,116804,117554,0.3,0
Sprite,Foreground,Centre,"sb\glow1.png",0,0 M,0,116063,,376.0295,122.873 S,0,116063,,0.6 C,0,116063,,174,174,255 P,0,116063,,A F,0,116063,116813,0.3,0 M,0,116817,,203.7551,205.7143 F,0,116817,117567,0.3,0
Sprite,Foreground,Centre,"sb\glow1.png",0,0 M,0,116076,,372.0038,125.8393 S,0,116076,,0.6 C,0,116076,,174,174,255 P,0,116076,,A F,0,116076,116826,0.3,0 M,0,116830,,208.4864,211.2341 F,0,116830,117580,0.3,0
Sprite,Foreground,Centre,"sb\glow1.png",0,0 M,0,116089,,368.8883,128.1349 S,0,116089,,0.6 C,0,116089,,174,174,255 P,0,116089,,A F,0,116089,116839,0.3,0 M,0,116843,,212.068,215.4127 F,0,116843,117593,0.3,0
Sprite,Foreground,Centre,"sb\glow1.png",0,0 M,0,116102,,366.683,129.7599 S,0,116102,,0.6 C,0,116102,,174,174,255 P,0,116102,,A F,0,116102,116852,0.3,0 M,0,116856,,214.5,218.25 F,0,116856,117606,0.3,0
Sprite,Foreground,Centre,"sb\glow1.png",0,0 M,0,116115,,365.3878,130.7143 S,0,116115,,0.6 C,0,116115,,174,174,255 P,0,116115,,A F,0,116115,116865,0.3,0 M,0,116869,,215.7823,219.746 F,0,116869,117619,0.3,0
Sprite,Foreground,Centre,"sb\glow1.png",0,0 M,0,116128,,364.497,130.7605 S,0,116128,,0.6 C,0,116128,,174,174,255 P,0,116128,,A F,0,116128,116878,0.3,0 M,0,116882,,216.9348,224.2067 F,0,116882,117632,0.3,0
Sprite,Foreground,Centre,"sb\glow1.png",0,0 M,0,116141,,358.5131,127.911 S,0,116141,,0.6 C,0,116141,,174,174,255 P,0,116141,,A F,0,116141,116891,0.3,0 M,0,116895,,219.0936,233.9213 F,0,116895,117645,0.3,0
Sprite,Foreground,Centre,"sb\glow1.png",0,0 M,0,116154,,353.5596,125.5522 S,0,116154,,0.6 C,0,116154,,174,174,255 P,0,116154,,A F,0,116154,116904,0.3,0 M,0,116908,,220.8599,241.8696 F,0,116908,117658,0.3,0
Sprite,Foreground,Centre,"sb\glow1.png",0,0 M,0,116167,,349.6364,123.684 S,0,116167,,0.6 C,0,116167,,174,174,255 P,0,116167,,A F,0,116167,116917,0.3,0 M,0,116921,,222.2337,248.0517 F,0,116921,117671,0.3,0
Sprite,Foreground,Centre,"sb\glow1.png",0,0 M,0,116180,,346.7435,122.3064 S,0,116180,,0.6 C,0,116180,,174,174,255 P,0,116180,,A F,0,116180,116930,0.3,0 M,0,116934,,223.215,252.4674 F,0,116934,117684,0.3,0
Sprite,Foreground,Centre,"sb\glow1.png",0,0 M,0,116193,,344.881,121.4195 S,0,116193,,0.6 C,0,116193,,174,174,255 P,0,116193,,A F,0,116193,116943,0.3,0 M,0,116947,,223.8037,255.1169 F,0,116947,117697,0.3,0
Sprite,Foreground,Centre,"sb\glow1.png",0,0 M,0,116206,,344.0488,121.0232 S,0,116206,,0.6 C,0,116206,,174,174,255 P,0,116206,,A F,0,116206,116956,0.3,0 M,0,116960,,224,256 F,0,116960,117710,0.3,0
Sprite,Foreground,Centre,"sb\glow1.png",0,0 M,0,116219,,339.6927,118.9489 S,0,116219,,0.6 C,0,116219,,174,174,255 P,0,116219,,A F,0,116219,116969,0.3,0 M,0,116973,,224.8325,263.3319 F,0,116973,117723,0.3,0
Sprite,Foreground,Centre,"sb\glow1.png",0,0 M,0,116232,,334.3429,116.4014 S,0,116232,,0.6 C,0,116232,,174,174,255 P,0,116232,,A F,0,116232,116982,0.3,0 M,0,116986,,224.7197,270.6581 F,0,116986,117736,0.3,0
Sprite,Foreground,Centre,"sb\glow1.png",0,0 M,0,116245,,330.0234,114.3445 S,0,116245,,0.6 C,0,116245,,174,174,255 P,0,116245,,A F,0,116245,116995,0.3,0 M,0,116999,,223.8442,277.9137 F,0,116999,117749,0.3,0
Sprite,Foreground,Centre,"sb\glow1.png",0,0 M,0,116258,,326.7342,112.7782 S,0,116258,,0.6 C,0,116258,,174,174,255 P,0,116258,,A F,0,116258,117008,0.3,0 M,0,117012,,221.9434,284.9783 F,0,117012,117762,0.3,0
Sprite,Foreground,Centre,"sb\glow1.png",0,0 M,0,116271,,324.4754,111.7026 S,0,116271,,0.6 C,0,116271,,174,174,255 P,0,116271,,A F,0,116271,117021,0.3,0 M,0,117025,,219.0526,291.7099 F,0,117025,117775,0.3,0
Sprite,Foreground,Centre,"sb\glow1.png",0,0 M,0,116284,,323.2469,111.1176 S,0,116284,,0.6 C,0,116284,,174,174,255 P,0,116284,,A F,0,116284,117034,0.3,0 M,0,117038,,215.226,297.9724 F,0,117038,117788,0.3,0
Sprite,Foreground,Centre,"sb\glow1.png",0,0 M,0,116297,,322.1007,119.1882 S,0,116297,,0.6 C,0,116297,,174,174,255 P,0,116297,,A F,0,116297,117047,0.3,0 M,0,117051,,188.9339,298.0614 F,0,117051,117801,0.3,0
Sprite,Foreground,Centre,"sb\glow1.png",0,0 M,0,116310,,319.3286,144.4288 S,0,116310,,0.6 C,0,116310,,174,174,255 P,0,116310,,A F,0,116310,117060,0.3,0 M,0,117064,,153.1765,294.8757 F,0,117064,117814,0.3,0
Sprite,Foreground,Centre,"sb\glow1.png",0,0 M,0,116323,,316.7868,167.5728 S,0,116323,,0.6 C,0,116323,,174,174,255 P,0,116323,,A F,0,116323,117073,0.3,0 M,0,117077,,124.2052,292.2946 F,0,117077,117827,0.3,0
Sprite,Foreground,Centre,"sb\glow1.png",0,0 M,0,116336,,314.4753,188.6202 S,0,116336,,0.6 C,0,116336,,174,174,255 P,0,116336,,A F,0,116336,117086,0.3,0 M,0,117090,,102.02,290.3181 F,0,117090,117840,0.3,0
Sprite,Foreground,Centre,"sb\glow1.png",0,0 M,0,116349,,312.394,207.5708 S,0,116349,,0.6 C,0,116349,,174,174,255 P,0,116349,,A F,0,116349,117099,0.3,0 M,0,117103,,86.6208,288.9462 F,0,117103,117853,0.3,0
Sprite,Foreground,Centre,"sb\glow1.png",0,0 M,0,116362,,310.5429,224.4248 S,0,116362,,0.6 C,0,116362,,174,174,255 P,0,116362,,A F,0,116362,117112,0.3,0 M,0,117116,,78.00771,288.1789 F,0,117116,117866,0.3,0
Sprite,Foreground,Centre,"sb\glow1.png",0,0 M,0,116375,,308.9222,239.1821 S,0,116375,,0.6 C,0,116375,,174,174,255 P,0,116375,,A F,0,116375,117125,0.3,0 M,0,117129,,78.55538,283.741 F,0,117129,117879,0.3,0
Sprite,Foreground,Centre,"sb\glow1.png",0,0 M,0,116388,,307.5317,251.8428 S,0,116388,,0.6 C,0,116388,,174,174,255 P,0,116388,,A F,0,116388,117138,0.3,0 M,0,117142,,88.54173,267.0971 F,0,117142,117892,0.3,0
Sprite,Foreground,Centre,"sb\glow1.png",0,0 M,0,116401,,306.3715,262.4068 S,0,116401,,0.6 C,0,116401,,174,174,255 P,0,116401,,A F,0,116401,117151,0.3,0 M,0,117155,,96.7618,253.397 F,0,117155,117905,0.3,0
Sprite,Foreground,Centre,"sb\glow1.png",0,0 M,0,116414,,305.4416,270.8741 S,0,116414,,0.6 C,0,116414,,174,174,255 P,0,116414,,A F,0,116414,117164,0.3,0 M,0,117168,,103.2156,242.6407 F,0,117168,117918,0.3,0
Sprite,Foreground,Centre,"sb\glow1.png",0,0 M,0,116427,,304.7419,277.2448 S,0,116427,,0.6 C,0,116427,,174,174,255 P,0,116427,,A F,0,116427,117177,0.3,0 M,0,117181,,107.903,234.8283 F,0,117181,117931,0.3,0
Sprite,Foreground,Centre,"sb\glow1.png",0,0 M,0,116440,,304.2725,281.5187 S,0,116440,,0.6 C,0,116440,,174,174,255 P,0,116440,,A F,0,116440,117190,0.3,0 M,0,117194,,110.8242,229.9596 F,0,117194,117944,0.3,0
Sprite,Foreground,Centre,"sb\glow1.png",0,0 M,0,116453,,304.0334,283.696 S,0,116453,,0.6 C,0,116453,,174,174,255 P,0,116453,,A F,0,116453,117203,0.3,0 M,0,117207,,111.9791,228.0348 F,0,117207,117957,0.3,0
Sprite,Foreground,Centre,"sb\glow1.png",0,0 M,0,116466,,306.2296,281.7704 S,0,116466,,0.6 C,0,116466,,184,184,184 P,0,116466,,A F,0,116466,117216,0.3,0 M,0,117220,,112,210.3775 F,0,117220,117970,0.3,0
Sprite,Foreground,Centre,"sb\glow1.png",0,0 M,0,116479,,310.4869,277.5131 S,0,116479,,0.6 C,0,116479,,184,184,184 P,0,116479,,A F,0,116479,117229,0.3,0 M,0,117233,,112,192.7347 F,0,117233,117983,0.3,0
Sprite,Foreground,Centre,"sb\glow1.png",0,0 M,0,116492,,313.9591,274.0409 S,0,116492,,0.6 C,0,116492,,184,184,184 P,0,116492,,A F,0,116492,117242,0.3,0 M,0,117246,,112,178.5408 F,0,117246,117996,0.3,0
Sprite,Foreground,Centre,"sb\glow1.png",0,0 M,0,116505,,316.6462,271.3538 S,0,116505,,0.6 C,0,116505,,184,184,184 P,0,116505,,A F,0,116505,117255,0.3,0 M,0,117259,,112,167.7959 F,0,117259,118009,0.3,0
Sprite,Foreground,Centre,"sb\glow1.png",0,0 M,0,116518,,318.5484,269.4516 S,0,116518,,0.6 C,0,116518,,184,184,184 P,0,116518,,A F,0,116518,117268,0.3,0 M,0,117272,,112,160.5 F,0,117272,118022,0.3,0
Sprite,Foreground,Centre,"sb\glow1.png",0,0 M,0,116531,,319.6656,268.3344 S,0,116531,,0.6 C,0,116531,,184,184,184 P,0,116531,,A F,0,116531,117281,0.3,0 M,0,117285,,112,156.6531 F,0,117285,118035,0.3,0
Sprite,Foreground,Centre,"sb\glow1.png",0,0 M,0,116544,,320.0947,267.432 S,0,116544,,0.6 C,0,116544,,184,184,184 P,0,116544,,A F,0,116544,117294,0.3,0 M,0,117298,,112,156 F,0,117298,118048,0.3,0
Sprite,Foreground,Centre,"sb\glow1.png",0,0 M,0,116557,,321.2222,260.6667 S,0,116557,,0.6 C,0,116557,,184,184,184 P,0,116557,,A F,0,116557,117307,0.3,0
Sprite,Foreground,Centre,"sb\glow1.png",0,0 M,0,116570,,322.1582,255.051 S,0,116570,,0.6 C,0,116570,,184,184,184 P,0,116570,,A F,0,116570,117320,0.3,0
Sprite,Foreground,Centre,"sb\glow1.png",0,0 M,0,116583,,322.9025,250.585 S,0,116583,,0.6 C,0,116583,,184,184,184 P,0,116583,,A F,0,116583,117333,0.3,0
Sprite,Foreground,Centre,"sb\glow1.png",0,0 M,0,116596,,323.4552,247.2687 S,0,116596,,0.6 C,0,116596,,184,184,184 P,0,116596,,A F,0,116596,117346,0.3,0
Sprite,Foreground,Centre,"sb\glow1.png",0,0 M,0,116609,,323.8163,245.102 S,0,116609,,0.6 C,0,116609,,184,184,184 P,0,116609,,A F,0,116609,117359,0.3,0
Sprite,Foreground,Centre,"sb\glow1.png",0,0 M,0,116622,,323.9858,244.085 S,0,116622,,0.6 C,0,116622,,184,184,184 P,0,116622,,A F,0,116622,117372,0.3,0
Sprite,Foreground,Centre,"sb\glow1.png",0,0 M,0,116635,,324.3411,239.4726 S,0,116635,,0.6 C,0,116635,,184,184,184 P,0,116635,,A F,0,116635,117385,0.3,0
Sprite,Foreground,Centre,"sb\glow1.png",0,0 M,0,116648,,324.9642,232.1689 S,0,116648,,0.6 C,0,116648,,184,184,184 P,0,116648,,A F,0,116648,117398,0.3,0
Sprite,Foreground,Centre,"sb\glow1.png",0,0 M,0,116661,,324.54,224.8373 S,0,116661,,0.6 C,0,116661,,184,184,184 P,0,116661,,A F,0,116661,117411,0.3,0
Sprite,Foreground,Centre,"sb\glow1.png",0,0 M,0,116674,,323.0725,217.625 S,0,116674,,0.6 C,0,116674,,184,184,184 P,0,116674,,A F,0,116674,117424,0.3,0
Sprite,Foreground,Centre,"sb\glow1.png",0,0 M,0,116687,,320.2652,210.8196 S,0,116687,,0.6 C,0,116687,,184,184,184 P,0,116687,,A F,0,116687,117437,0.3,0
Sprite,Foreground,Centre,"sb\glow1.png",0,0 M,0,116700,,317.123,204.138 S,0,116700,,0.6 C,0,116700,,184,184,184 P,0,116700,,A F,0,116700,117450,0.3,0
Sprite,Foreground,Centre,"sb\glow1.png",0,0 M,0,116713,,305.5092,199.2829 S,0,116713,,0.6 C,0,116713,,184,184,184 P,0,116713,,A F,0,116713,117463,0.3,0
Sprite,Foreground,Centre,"sb\glow1.png",0,0 M,0,116739,,243.7177,195.3183 S,0,116739,,0.6 C,0,116739,,184,184,184 P,0,116739,,A F,0,116739,117489,0.3,0
Sprite,Foreground,Centre,"sb\glow1.png",0,0 M,0,116752,,221.8139,193.9129 S,0,116752,,0.6 C,0,116752,,184,184,184 P,0,116752,,A F,0,116752,117502,0.3,0
Sprite,Foreground,Centre,"sb\glow1.png",0,0 M,0,116765,,205.9049,192.8922 S,0,116765,,0.6 C,0,116765,,184,184,184 P,0,116765,,A F,0,116765,117515,0.3,0
Sprite,Foreground,Centre,"sb\glow1.png",0,0 M,0,116778,,195.9906,192.256 S,0,116778,,0.6 C,0,116778,,184,184,184 P,0,116778,,A F,0,116778,117528,0.3,0
Sprite,Foreground,Centre,"sb\glow1.png",0,0 M,0,116791,,192.0709,192.0045 S,0,116791,,0.6 C,0,116791,,184,184,184 P,0,116791,,A F,0,116791,117541,0.3,0
Sprite,Foreground,Centre,"sb\glow1.png",0,0 C,0,48127,,184,184,184 M,0,48127,48168,444,200,440.0955,223.4268 F,2,48127,48493,1,0 S,2,48127,48493,1.5,0.3 P,0,48127,48493,A M,0,48168,48210,440.0955,223.4268,451.0945,244.3399 M,0,48210,48251,451.0945,244.3399,440.0955,223.4268 M,0,48251,48293,440.0955,223.4268,444,200
Sprite,Foreground,Centre,"sb\glow1.png",492,140 C,0,48460,,184,184,184 F,2,48460,48660,1,0 S,2,48460,48660,1.5,0.3 P,0,48460,48660,A
Sprite,Foreground,Centre,"sb\glow1.png",0,0 C,0,48627,,184,184,184 M,0,48627,48668,380,164,381.6341,140.3063 F,2,48627,48993,1,0 S,2,48627,48993,1.5,0.3 P,0,48627,48993,A M,0,48668,48710,381.6341,140.3063,383.2681,116.6126 M,0,48710,48751,383.2681,116.6126,384.9022,92.91884 M,0,48751,48793,384.9022,92.91884,386.5362,69.22512
Sprite,Foreground,Centre,"sb\glow1.png",300,156 C,0,48960,,184,184,184 F,2,48960,49160,1,0 S,2,48960,49160,1.5,0.3 P,0,48960,49160,A
Sprite,Foreground,Centre,"sb\glow1.png",388,280 C,0,49127,,184,184,184 F,2,49127,49327,1,0 S,2,49127,49327,1.5,0.3 P,0,49127,49327,A
Sprite,Foreground,Centre,"sb\glow1.png",0,0 C,0,49293,,104,104,255 M,0,49293,49334,484,119,472.037,98.81966 F,2,49293,49826,1,0 S,2,49293,49826,1.5,0.3 P,0,49293,49826,A M,0,49334,49376,472.037,98.81966,453.3778,84.80412 M,0,49376,49417,453.3778,84.80412,430.6359,79.52139 M,0,49417,49459,430.6359,79.52139,407.6831,83.88229 M,0,49459,49501,407.6831,83.88229,388.4329,97.15915 M,0,49501,49542,388.4329,97.15915,376.1769,117.1061 M,0,49542,49584,376.1769,117.1061,373.0246,140.3365 M,0,49584,49626,373.0246,140.3365,379.5421,162.8943
Sprite,Foreground,Centre,"sb\glow1.png",0,0 C,0,49793,,104,104,255 M,0,49793,49834,548,192,544.0955,168.5732 F,2,49793,50076,1,0 S,2,49793,50076,1.5,0.3 P,0,49793,50076,A M,0,49834,49876,544.0955,168.5732,554.3615,147.2771
Sprite,Foreground,Centre,"sb\glow1.png",532,264 C,0,49960,,174,174,255 F,2,49960,50160,1,0 S,2,49960,50160,1.5,0.3 P,0,49960,50160,A
Sprite,Foreground,Centre,"sb\glow1.png",324,220 C,0,50127,,174,174,255 F,2,50127,50327,1,0 S,2,50127,50327,1.5,0.3 P,0,50127,50327,A
Sprite,Foreground,Centre,"sb\glow1.png",0,0 C,0,50293,,174,174,255 M,0,50293,50334,432,228,438.5715,250.763 F,2,50293,50743,1,0 S,2,50293,50743,1.5,0.3 P,0,50293,50743,A M,0,50334,50376,438.5715,250.763,441.1836,274.2882 M,0,50376,50417,441.1836,274.2882,439.4974,297.9043 M,0,50417,50459,439.4974,297.9043,433.5652,320.8354 M,0,50459,50501,433.5652,320.8354,423.5777,342.3271 M,0,50501,50543,423.5777,342.3271,409.6422,361.4836
Sprite,Foreground,Centre,"sb\glow1.png",0,0 C,0,50627,,184,184,184 M,0,50627,50668,388,364,398.4041,384.7825 F,2,50627,50993,1,0 S,2,50627,50993,1.5,0.3 P,0,50627,50993,A M,0,50668,50710,398.4041,384.7825,417.6703,397.3868 M,0,50710,50751,417.6703,397.3868,440.6915,397.864 M,0,50751,50793,440.6915,397.864,460.4702,386.0648
Sprite,Foreground,Centre,"sb\glow1.png",432,228 C,0,50960,,184,184,184 F,2,50960,51160,1,0 S,2,50960,51160,1.5,0.3 P,0,50960,51160,A
Sprite,Foreground,Centre,"sb\glow1.png",476.576,296.576 C,0,51127,,184,184,184 F,2,51127,51327,1,0 S,2,51127,51327,1.5,0.3 P,0,51127,51327,A
Sprite,Foreground,Centre,"sb\glow1.png",544,248 C,0,51293,,184,184,184 F,2,51293,51493,1,0 S,2,51293,51493,1.5,0.3 P,0,51293,51493,A
Sprite,Foreground,Centre,"sb\glow1.png",480,300 C,0,51460,,184,184,184 F,2,51460,51660,1,0 S,2,51460,51660,1.5,0.3 P,0,51460,51660,A
Sprite,Foreground,Centre,"sb\glow1.png",500,172 C,0,51627,,104,104,255 F,2,51627,51827,1,0 S,2,51627,51827,1.5,0.3 P,0,51627,51827,A
Sprite,Foreground,Centre,"sb\glow1.png",0,0 C,0,51793,,104,104,255 M,0,51793,51834,344,220,336.7027,197.562 F,2,51793,52076,1,0 S,2,51793,52076,1.5,0.3 P,0,51793,52076,A M,0,51834,51876,336.7027,197.562,335.9912,174.043
Sprite,Foreground,Centre,"sb\glow1.png",0,0 C,0,51960,,104,104,255 M,0,51960,52001,409,185,432.2554,189.3805 F,2,51960,52326,1,0 S,2,51960,52326,1.5,0.3 P,0,51960,52326,A M,0,52001,52043,432.2554,189.3805,455.8721,188.677 M,0,52043,52084,455.8721,188.677,478.7134,182.6323 M,0,52084,52126,478.7134,182.6323,499.5874,171.5614
Sprite,Foreground,Centre,"sb\glow1.png",560,128 C,0,52293,,104,104,255 F,2,52293,52493,1,0 S,2,52293,52493,1.5,0.3 P,0,52293,52493,A
Sprite,Foreground,Centre,"sb\glow1.png",0,0 C,0,52460,,174,174,255 M,0,52460,52501,268,140,248.5078,153.3637 F,2,52460,52993,1,0 S,2,52460,52993,1.5,0.3 P,0,52460,52993,A M,0,52501,52543,248.5078,153.3637,226.4042,161.5926 M,0,52543,52584,226.4042,161.5926,202.9169,163.8487 M,0,52584,52626,202.9169,163.8487,179.6268,159.9734 M,0,52626,52668,179.6268,159.9734,158.1043,150.2186 M,0,52668,52709,158.1043,150.2186,139.8042,135.2305 M,0,52709,52751,139.8042,135.2305,126.3388,115.8148 M,0,52751,52793,126.3388,115.8148,118.0661,93.73183
Sprite,Foreground,Centre,"sb\glow1.png",80.576,188.576 C,0,52960,,174,174,255 F,2,52960,53160,1,0 S,2,52960,53160,1.5,0.3 P,0,52960,53160,A
Sprite,Foreground,Centre,"sb\glow1.png",0,0 C,0,53127,,174,174,255 M,0,53127,53168,84,192,95.92376,212.4193 F,2,53127,53410,1,0 S,2,53127,53410,1.5,0.3 P,0,53127,53410,A M,0,53168,53210,95.92376,212.4193,91.67523,235.7862
Sprite,Foreground,Centre,"sb\glow1.png",0,0 C,0,53293,,184,184,184 M,0,53293,53334,84,308,107.2458,309.0761 F,2,53293,53659,1,0 S,2,53293,53659,1.5,0.3 P,0,53293,53659,A M,0,53334,53376,107.2458,309.0761,128.0354,299.0527 M,0,53376,53417,128.0354,299.0527,107.2458,309.0761 M,0,53417,53459,107.2458,309.0761,84,308
Sprite,Foreground,Centre,"sb\glow1.png",64,384 C,0,53627,,184,184,184 F,2,53627,53827,1,0 S,2,53627,53827,1.5,0.3 P,0,53627,53827,A
Sprite,Foreground,Centre,"sb\glow1.png",132,424 C,0,53793,,184,184,184 F,2,53793,53993,1,0 S,2,53793,53993,1.5,0.3 P,0,53793,53993,A
Sprite,Foreground,Centre,"sb\glow1.png",0,0 C,0,53960,,184,184,184 M,0,53960,54001,176,360,169.2086,337.4964 F,2,53960,54326,1,0 S,2,53960,54326,1.5,0.3 P,0,53960,54326,A M,0,54001,54043,169.2086,337.4964,170.4326,314.1064 M,0,54043,54084,170.4326,314.1064,180.0514,292.6862 M,0,54084,54126,180.0514,292.6862,196.8182,276.1124
Sprite,Foreground,Centre,"sb\glow1.png",324,352 C,0,54293,,104,104,255 F,2,54293,54493,1,0 S,2,54293,54493,1.5,0.3 P,0,54293,54493,A
Sprite,Foreground,Centre,"sb\glow1.png",279,413 C,0,54460,,104,104,255 F,2,54460,54660,1,0 S,2,54460,54660,1.5,0.3 P,0,54460,54660,A
Sprite,Foreground,Centre,"sb\glow1.png",256,419 C,0,54543,,104,104,255 F,2,54543,54743,1,0 S,2,54543,54743,1.5,0.3 P,0,54543,54743,A
Sprite,Foreground,Centre,"sb\glow1.png",231,414 C,0,54627,,104,104,255 F,2,54627,54827,1,0 S,2,54627,54827,1.5,0.3 P,0,54627,54827,A
Sprite,Foreground,Centre,"sb\glow1.png",252,344 C,0,54793,,104,104,255 F,2,54793,54993,1,0 S,2,54793,54993,1.5,0.3 P,0,54793,54993,A
Sprite,Foreground,Centre,"sb\glow1.png",388,388 C,0,54960,,104,104,255 F,2,54960,55160,1,0 S,2,54960,55160,1.5,0.3 P,0,54960,55160,A
Sprite,Foreground,Centre,"sb\glow1.png",324,352 C,0,55127,,104,104,255 F,2,55127,55327,1,0 S,2,55127,55327,1.5,0.3 P,0,55127,55327,A
Sprite,Foreground,Centre,"sb\glow1.png",436,332 C,0,55293,,174,174,255 F,2,55293,55493,1,0 S,2,55293,55493,1.5,0.3 P,0,55293,55493,A
Sprite,Foreground,Centre,"sb\glow1.png",576,252 C,0,55460,,174,174,255 F,2,55460,55660,1,0 S,2,55460,55660,1.5,0.3 P,0,55460,55660,A
Sprite,Foreground,Centre,"sb\glow1.png",508,104 C,0,55627,,174,174,255 F,2,55627,55827,1,0 S,2,55627,55827,1.5,0.3 P,0,55627,55827,A
Sprite,Foreground,Centre,"sb\glow1.png",360,192 C,0,55793,,174,174,255 F,2,55793,55993,1,0 S,2,55793,55993,1.5,0.3 P,0,55793,55993,A
Sprite,Foreground,Centre,"sb\glow1.png",383,193 C,0,55877,,174,174,255 F,2,55877,56077,1,0 S,2,55877,56077,1.5,0.3 P,0,55877,56077,A
Sprite,Foreground,Centre,"sb\glow1.png",403,206 C,0,55960,,184,184,184 F,2,55960,56160,1,0 S,2,55960,56160,1.5,0.3 P,0,55960,56160,A
Sprite,Foreground,Centre,"sb\glow1.png",472,216 C,0,56127,,184,184,184 F,2,56127,56327,1,0 S,2,56127,56327,1.5,0.3 P,0,56127,56327,A
Sprite,Foreground,Centre,"sb\glow1.png",0,0 C,0,56293,,184,184,184 M,0,56293,56334,536,176,558.5199,181.5257 F,2,56293,56659,1,0 S,2,56293,56659,1.5,0.3 P,0,56293,56659,A M,0,56334,56376,558.5199,181.5257,575.0532,197.4998 M,0,56376,56417,575.0532,197.4998,580.5095,219.9561 M,0,56417,56459,580.5095,219.9561,573.0911,242.069
Sprite,Foreground,Centre,"sb\glow1.png",296,152 C,0,56627,,104,104,255 F,2,56627,56827,1,0 S,2,56627,56827,1.5,0.3 P,0,56627,56827,A
Sprite,Foreground,Centre,"sb\glow1.png",0,0 C,0,56793,,104,104,255 M,0,56793,56834,220,152,212.8192,129.9478 F,2,56793,57159,1,0 S,2,56793,57159,1.5,0.3 P,0,56793,57159,A M,0,56834,56876,212.8192,129.9478,217.4917,107.4066 M,0,56876,56917,217.4917,107.4066,233.4986,90.61388 M,0,56917,56959,233.4986,90.61388,256.1943,85.02809
Sprite,Foreground,Centre,"sb\glow1.png",0,0 C,0,57127,,104,104,255 M,0,57127,57168,416,96,419.9045,119.4269 F,2,57127,57410,1,0 S,2,57127,57410,1.5,0.3 P,0,57127,57410,A M,0,57168,57210,419.9045,119.4269,435.2569,137.4364
Sprite,Foreground,Centre,"sb\glow1.png",0,0 C,0,57293,,174,174,255 M,0,57293,57334,492,92,515.4738,88.38864 F,2,57293,57659,1,0 S,2,57293,57659,1.5,0.3 P,0,57293,57659,A M,0,57334,57376,515.4738,88.38864,538.9476,84.77728 M,0,57376,57417,538.9476,84.77728,515.4738,88.38864 M,0,57417,57459,515.4738,88.38864,492,92
Sprite,Foreground,Centre,"sb\glow1.png",440,148 C,0,57627,,174,174,255 F,2,57627,57827,1,0 S,2,57627,57827,1.5,0.3 P,0,57627,57827,A
Sprite,Foreground,Centre,"sb\glow1.png",0,0 C,0,57793,,174,174,255 M,0,57793,57834,368,140,366.5185,163.7038 F,2,57793,58159,1,0 S,2,57793,58159,1.5,0.3 P,0,57793,58159,A M,0,57834,57876,366.5185,163.7038,365.037,187.4075 M,0,57876,57917,365.037,187.4075,366.5185,163.7038 M,0,57917,57959,366.5185,163.7038,368,140
Sprite,Foreground,Centre,"sb\glow1.png",416,76 C,0,58127,,174,174,255 F,2,58127,58327,1,0 S,2,58127,58327,1.5,0.3 P,0,58127,58327,A
Sprite,Foreground,Centre,"sb\glow1.png",168.304,286.304 C,0,58293,,184,184,184 F,2,58293,58493,1,0 S,2,58293,58493,1.5,0.3 P,0,58293,58493,A
Sprite,Foreground,Centre,"sb\glow1.png",171.728,289.728 C,0,58376,,184,184,184 F,2,58376,58576,1,0 S,2,58376,58576,1.5,0.3 P,0,58376,58576,A
Sprite,Foreground,Centre,"sb\glow1.png",175.152,293.152 C,0,58459,,184,184,184 F,2,58459,58659,1,0 S,2,58459,58659,1.5,0.3 P,0,58459,58659,A
Sprite,Foreground,Centre,"sb\glow1.png",178.576,296.576 C,0,58543,,184,184,184 F,2,58543,58743,1,0 S,2,58543,58743,1.5,0.3 P,0,58543,58743,A
Sprite,Foreground,Centre,"sb\glow1.png",0,0 C,0,58627,,104,104,255 M,0,58627,58668,182,300,200.3605,284.9902 F,2,58627,59160,1,0 S,2,58627,59160,1.5,0.3 P,0,58627,59160,A M,0,58668,58710,200.3605,284.9902,220.5902,272.6437 M,0,58710,58751,220.5902,272.6437,242.3988,263.3658 M,0,58751,58793,242.3988,263.3658,265.3242,257.3534 M,0,58793,58835,265.3242,257.3534,288.8804,254.734 M,0,58835,58876,288.8804,254.734,312.5682,255.5635 M,0,58876,58918,312.5682,255.5635,335.8854,259.8245 M,0,58918,58960,335.8854,259.8245,358.3378,267.4271
Sprite,Foreground,Centre,"sb\glow1.png",365,187 C,0,59127,,104,104,255 F,2,59127,59327,1,0 S,2,59127,59327,1.5,0.3 P,0,59127,59327,A
Sprite,Foreground,Centre,"sb\glow1.png",0,0 C,0,59293,,104,104,255 M,0,59293,59334,380,340,365.857,358.8532 F,2,59293,59659,1,0 S,2,59293,59659,1.5,0.3 P,0,59293,59659,A M,0,59334,59376,365.857,358.8532,344.5468,368.73 M,0,59376,59417,344.5468,368.73,325.569,355.5372 M,0,59417,59459,325.569,355.5372,314.8698,334.5504
Sprite,Foreground,Centre,"sb\glow1.png",432,280 C,0,59627,,104,104,255 F,2,59627,59827,1,0 S,2,59627,59827,1.5,0.3 P,0,59627,59827,A
Sprite,Foreground,Centre,"sb\glow1.png",0,0 C,0,59793,,174,174,255 M,0,59793,59834,504,304,514.6213,325.2426 F,2,59793,60076,1,0 S,2,59793,60076,1.5,0.3 P,0,59793,60076,A M,0,59834,59876,514.6213,325.2426,504,304
Sprite,Foreground,Centre,"sb\glow1.png",0,0 C,0,59960,,184,184,184 M,0,59960,60001,544,240,534.9946,218.0556 F,2,59960,60326,1,0 S,2,59960,60326,1.5,0.3 P,0,59960,60326,A M,0,60001,60043,534.9946,218.0556,528.7899,195.1743 M,0,60043,60084,528.7899,195.1743,525.6639,171.6722 M,0,60084,60126,525.6639,171.6722,525.6718,147.9612
Sprite,Foreground,Centre,"sb\glow1.png",0,0 C,0,60293,,184,184,184 M,0,60293,60334,312,68,302.9946,89.94435 F,2,60293,60659,1,0 S,2,60293,60659,1.5,0.3 P,0,60293,60659,A M,0,60334,60376,302.9946,89.94435,296.7899,112.8257 M,0,60376,60417,296.7899,112.8257,293.6639,136.3278 M,0,60417,60459,293.6639,136.3278,293.6718,160.0388
Sprite,Foreground,Centre,"sb\glow1.png",220,156 C,0,60627,,104,104,255 F,2,60627,60827,1,0 S,2,60627,60827,1.5,0.3 P,0,60627,60827,A
Sprite,Foreground,Centre,"sb\glow1.png",0,0 C,0,60793,,104,104,255 M,0,60793,60834,292,232,315.2982,229.0264 F,2,60793,61076,1,0 S,2,60793,61076,1.5,0.3 P,0,60793,61076,A M,0,60834,60876,315.2982,229.0264,336.1562,218.3325
Sprite,Foreground,Centre,"sb\glow1.png",400,176 C,0,60960,,104,104,255 F,2,60960,61160,1,0 S,2,60960,61160,1.5,0.3 P,0,60960,61160,A
Sprite,Foreground,Centre,"sb\glow1.png",404,164 C,0,61043,,104,104,255 F,2,61043,61243,1,0 S,2,61043,61243,1.5,0.3 P,0,61043,61243,A
Sprite,Foreground,Centre,"sb\glow1.png",408,152 C,0,61126,,104,104,255 F,2,61126,61326,1,0 S,2,61126,61326,1.5,0.3 P,0,61126,61326,A
Sprite,Foreground,Centre,"sb\glow1.png",412,140 C,0,61210,,104,104,255 F,2,61210,61410,1,0 S,2,61210,61410,1.5,0.3 P,0,61210,61410,A
Sprite,Foreground,Centre,"sb\glow1.png",0,0 C,0,61293,,174,174,255 M,0,61293,61334,480,188,457.8315,180.136 F,2,61293,61826,1,0 S,2,61293,61826,1.5,0.3 P,0,61293,61826,A M,0,61334,61376,457.8315,180.136,439.6714,165.334 M,0,61376,61417,439.6714,165.334,427.9872,145.0074 M,0,61417,61459,427.9872,145.0074,424.3304,121.8227 M,0,61459,61501,424.3304,121.8227,429.2045,98.82787 M,0,61501,61542,429.2045,98.82787,441.9961,79.0564 M,0,61542,61584,441.9961,79.0564,461.0502,65.13159 M,0,61584,61626,461.0502,65.13159,483.8841,59.13755
Sprite,Foreground,Centre,"sb\glow1.png",428,252 C,0,61793,,174,174,255 F,2,61793,61993,1,0 S,2,61793,61993,1.5,0.3 P,0,61793,61993,A
Sprite,Foreground,Centre,"sb\glow1.png",0,0 C,0,61960,,174,174,255 M,0,61960,62001,432,324,418.9301,343.2899 F,2,61960,62326,1,0 S,2,61960,62326,1.5,0.3 P,0,61960,62326,A M,0,62001,62043,418.9301,343.2899,398.5725,354.2454 M,0,62043,62084,398.5725,354.2454,375.421,353.804 M,0,62084,62126,375.421,353.804,355.4167,342.0305
Sprite,Foreground,Centre,"sb\glow1.png",364,320 C,0,62210,,174,174,255 F,2,62210,62410,1,0 S,2,62210,62410,1.5,0.3 P,0,62210,62410,A
Sprite,Foreground,Centre,"sb\glow1.png",0,0 C,0,62293,,174,174,255 M,0,62293,62334,348,304,337.3787,325.2426 F,2,62293,62576,1,0 S,2,62293,62576,1.5,0.3 P,0,62293,62576,A M,0,62334,62376,337.3787,325.2426,337.8711,348.5823
Sprite,Foreground,Centre,"sb\glow1.png",0,0 C,0,62460,,174,174,255 M,0,62460,62501,396,424,419.6047,421.3773 F,2,62460,62743,1,0 S,2,62460,62743,1.5,0.3 P,0,62460,62743,A M,0,62501,62543,419.6047,421.3773,396,424
Sprite,Foreground,Centre,"sb\glow1.png",0,0 C,0,62627,,184,184,184 M,0,62627,62668,316,416,330.0137,397.0351 F,2,62627,63160,1,0 S,2,62627,63160,1.5,0.3 P,0,62627,63160,A M,0,62668,62710,330.0137,397.0351,337.7521,374.8375 M,0,62710,62751,337.7521,374.8375,338.1279,351.3296 M,0,62751,62793,338.1279,351.3296,331.1006,328.8887 M,0,62793,62835,331.1006,328.8887,317.3777,309.7853 M,0,62835,62876,317.3777,309.7853,298.3433,295.9538 M,0,62876,62918,298.3433,295.9538,275.9196,288.7975 M,0,62918,62960,275.9196,288.7975,252.3722,289.046
Sprite,Foreground,Centre,"sb\glow1.png",160,340 C,0,63127,,184,184,184 F,2,63127,63327,1,0 S,2,63127,63327,1.5,0.3 P,0,63127,63327,A
Sprite,Foreground,Centre,"sb\glow1.png",0,0 C,0,63293,,104,104,255 M,0,63293,63334,92,308,84.52872,330.3133 F,2,63293,63659,1,0 S,2,63293,63659,1.5,0.3 P,0,63293,63659,A M,0,63334,63376,84.52872,330.3133,84.79407,353.7546 M,0,63376,63417,84.79407,353.7546,93.23094,375.6501 M,0,63417,63459,93.23094,375.6501,108.8009,393.2486
Sprite,Foreground,Centre,"sb\glow1.png",100,420 C,0,63543,,104,104,255 F,2,63543,63743,1,0 S,2,63543,63743,1.5,0.3 P,0,63543,63743,A
Sprite,Foreground,Centre,"sb\glow1.png",0,0 C,0,63627,,104,104,255 M,0,63627,63668,80,432,82.94582,408.4334 F,2,63627,63910,1,0 S,2,63627,63910,1.5,0.3 P,0,63627,63910,A M,0,63668,63710,82.94582,408.4334,85.89165,384.8668
Sprite,Foreground,Centre,"sb\glow1.png",160,340 C,0,63793,,104,104,255 F,2,63793,63993,1,0 S,2,63793,63993,1.5,0.3 P,0,63793,63993,A
Sprite,Foreground,Centre,"sb\glow1.png",0,0 C,0,63960,,174,174,255 M,0,63960,64001,176,412,196.4617,422.9509 F,2,63960,64326,1,0 S,2,63960,64326,1.5,0.3 P,0,63960,64326,A M,0,64001,64043,196.4617,422.9509,219.4744,422.363 M,0,64043,64084,219.4744,422.363,238.8507,409.704 M,0,64084,64126,238.8507,409.704,248.751,388.5777
Sprite,Foreground,Centre,"sb\glow1.png",251.424,391.424 C,0,64210,,174,174,255 F,2,64210,64410,1,0 S,2,64210,64410,1.5,0.3 P,0,64210,64410,A
Sprite,Foreground,Centre,"sb\glow1.png",254.848,394.848 C,0,64293,,174,174,255 F,2,64293,64493,1,0 S,2,64293,64493,1.5,0.3 P,0,64293,64493,A
Sprite,Foreground,Centre,"sb\glow1.png",312,344 C,0,64460,,174,174,255 F,2,64460,64660,1,0 S,2,64460,64660,1.5,0.3 P,0,64460,64660,A
Sprite,Foreground,Centre,"sb\glow1.png",0,0 C,0,64627,,174,174,255 M,0,64627,64668,224,256,247.5273,259.2451 F,2,64627,64993,1,0 S,2,64627,64993,1.5,0.3 P,0,64627,64993,A M,0,64668,64710,247.5273,259.2451,271.0545,262.4903 M,0,64710,64751,271.0545,262.4903,294.5818,265.7354 M,0,64751,64793,294.5818,265.7354,318.109,268.9806
Sprite,Foreground,Centre,"sb\glow1.png",321.424,271.424 C,0,64877,,174,174,255 F,2,64877,65077,1,0 S,2,64877,65077,1.5,0.3 P,0,64877,65077,A
Sprite,Foreground,Centre,"sb\glow1.png",324.848,274.848 C,0,64960,,174,174,255 F,2,64960,65160,1,0 S,2,64960,65160,1.5,0.3 P,0,64960,65160,A
Sprite,Foreground,Centre,"sb\glow1.png",168,308 C,0,65127,,174,174,255 F,2,65127,65327,1,0 S,2,65127,65327,1.5,0.3 P,0,65127,65327,A
Sprite,Foreground,Centre,"sb\glow1.png",212,156 C,0,65293,,184,184,184 F,2,65293,65493,1,0 S,2,65293,65493,1.5,0.3 P,0,65293,65493,A
Sprite,Foreground,Centre,"sb\glow1.png",0,0 C,0,65460,,184,184,184 M,0,65460,65501,212,80,188.25,80 F,2,65460,65743,1,0 S,2,65460,65743,1.5,0.3 P,0,65460,65743,A M,0,65501,65543,188.25,80,169.2,94.1
Sprite,Foreground,Centre,"sb\glow1.png",0,0 C,0,65627,,184,184,184 M,0,65627,65668,64,120,87.54166,116.8611 F,2,65627,65993,1,0 S,2,65627,65993,1.5,0.3 P,0,65627,65993,A M,0,65668,65710,87.54166,116.8611,111.0833,113.7222 M,0,65710,65752,111.0833,113.7222,134.625,110.5833 M,0,65752,65793,134.625,110.5833,158.1667,107.4444
Sprite,Foreground,Centre,"sb\glow1.png",288,160 C,0,65960,,104,104,255 F,2,65960,66160,1,0 S,2,65960,66160,1.5,0.3 P,0,65960,66160,A
Sprite,Foreground,Centre,"sb\glow1.png",140,216 C,0,66127,,104,104,255 F,2,66127,66327,1,0 S,2,66127,66327,1.5,0.3 P,0,66127,66327,A
Sprite,Foreground,Centre,"sb\glow1.png",160,228 C,0,66210,,104,104,255 F,2,66210,66410,1,0 S,2,66210,66410,1.5,0.3 P,0,66210,66410,A
Sprite,Foreground,Centre,"sb\glow1.png",184,224 C,0,66293,,104,104,255 F,2,66293,66493,1,0 S,2,66293,66493,1.5,0.3 P,0,66293,66493,A
Sprite,Foreground,Centre,"sb\glow1.png",72,112 C,0,66460,,104,104,255 F,2,66460,66660,1,0 S,2,66460,66660,1.5,0.3 P,0,66460,66660,A
Sprite,Foreground,Centre,"sb\glow1.png",176,152 C,0,66627,,174,174,255 F,2,66627,66827,1,0 S,2,66627,66827,1.5,0.3 P,0,66627,66827,A
Sprite,Foreground,Centre,"sb\glow1.png",253,235 C,0,66793,,174,174,255 F,2,66793,66993,1,0 S,2,66793,66993,1.5,0.3 P,0,66793,66993,A
Sprite,Foreground,Centre,"sb\glow1.png",197,333 C,0,66960,,174,174,255 F,2,66960,67160,1,0 S,2,66960,67160,1.5,0.3 P,0,66960,67160,A
Sprite,Foreground,Centre,"sb\glow1.png",85,310 C,0,67126,,174,174,255 F,2,67126,67326,1,0 S,2,67126,67326,1.5,0.3 P,0,67126,67326,A
Sprite,Foreground,Centre,"sb\glow1.png",0,0 C,0,67293,,184,184,184 M,0,67293,67334,64,216,81.0963,232.4857 F,2,67293,67534,1,0 S,2,67293,67534,1.5,0.3 P,0,67293,67534,A
Sprite,Foreground,Centre,"sb\glow1.png",0,0 C,0,67377,,184,184,184 M,0,67377,67418,86,236,106.8728,224.6691 F,2,67377,67618,1,0 S,2,67377,67618,1.5,0.3 P,0,67377,67618,A
Sprite,Foreground,Centre,"sb\glow1.png",0,0 C,0,67460,,184,184,184 M,0,67460,67501,112,221,107.8042,197.6236 F,2,67460,67701,1,0 S,2,67460,67701,1.5,0.3 P,0,67460,67701,A
Sprite,Foreground,Centre,"sb\glow1.png",0,0 C,0,67543,,184,184,184 M,0,67543,67584,106,193,82.51276,189.4769 F,2,67543,67784,1,0 S,2,67543,67784,1.5,0.3 P,0,67543,67784,A
Sprite,Foreground,Centre,"sb\glow1.png",0,0 C,0,67627,,184,184,184 M,0,67627,67668,75,189,64.62354,210.3633 F,2,67627,67868,1,0 S,2,67627,67868,1.5,0.3 P,0,67627,67868,A
Sprite,Foreground,Centre,"sb\glow1.png",148,280 C,0,67793,,184,184,184 F,2,67793,67993,1,0 S,2,67793,67993,1.5,0.3 P,0,67793,67993,A
Sprite,Foreground,Centre,"sb\glow1.png",0,0 C,0,67960,,104,104,255 M,0,67960,68001,192,76,213.8584,66.83199 F,2,67960,68326,1,0 S,2,67960,68326,1.5,0.3 P,0,67960,68326,A M,0,68001,68043,213.8584,66.83199,236.8567,61.17616 M,0,68043,68085,236.8567,61.17616,260.4759,59.39827 M,0,68085,68126,260.4759,59.39827,284.0678,61.54817
Sprite,Foreground,Centre,"sb\glow1.png",312,180 C,0,68210,,104,104,255 F,2,68210,68410,1,0 S,2,68210,68410,1.5,0.3 P,0,68210,68410,A
Sprite,Foreground,Centre,"sb\glow1.png",0,0 C,0,68293,,104,104,255 M,0,68293,68334,296,196,285.3663,175.3762 F,2,68293,68659,1,0 S,2,68293,68659,1.5,0.3 P,0,68293,68659,A M,0,68334,68376,285.3663,175.3762,286.4818,152.4059 M,0,68376,68418,286.4818,152.4059,299.6749,133.4671 M,0,68418,68459,299.6749,133.4671,321.0309,124.3867
Sprite,Foreground,Centre,"sb\glow1.png",392,168 C,0,68543,,104,104,255 F,2,68543,68743,1,0 S,2,68543,68743,1.5,0.3 P,0,68543,68743,A
Sprite,Foreground,Centre,"sb\glow1.png",400,177 C,0,68627,,174,174,255 F,2,68627,68827,1,0 S,2,68627,68827,1.5,0.3 P,0,68627,68827,A
Sprite,Foreground,Centre,"sb\glow1.png",408,185 C,0,68710,,174,174,255 F,2,68710,68910,1,0 S,2,68710,68910,1.5,0.3 P,0,68710,68910,A
Sprite,Foreground,Centre,"sb\glow1.png",416,193 C,0,68793,,174,174,255 F,2,68793,68993,1,0 S,2,68793,68993,1.5,0.3 P,0,68793,68993,A
Sprite,Foreground,Centre,"sb\glow1.png",424,201 C,0,68877,,174,174,255 F,2,68877,69077,1,0 S,2,68877,69077,1.5,0.3 P,0,68877,69077,A
Sprite,Foreground,Centre,"sb\glow1.png",432,209 C,0,68960,,174,174,255 F,2,68960,69160,1,0 S,2,68960,69160,1.5,0.3 P,0,68960,69160,A
Sprite,Foreground,Centre,"sb\glow1.png",0,0 C,0,69127,,184,184,184 M,0,69127,69168,567,71,564.8834,94.6555 F,2,69127,69660,1,0 S,2,69127,69660,1.5,0.3 P,0,69127,69660,A M,0,69168,69210,564.8834,94.6555,562.7669,118.311 M,0,69210,69252,562.7669,118.311,560.6504,141.9665 M,0,69252,69293,560.6504,141.9665,558.5338,165.622 M,0,69293,69335,558.5338,165.622,556.4172,189.2775 M,0,69335,69377,556.4172,189.2775,554.3007,212.933 M,0,69377,69418,554.3007,212.933,552.1842,236.5885 M,0,69418,69460,552.1842,236.5885,550.0676,260.244
Sprite,Foreground,CentreRight,"sb\particle.png",505,345 F,0,69627,,0.8 R,0,69627,,0.1570796 C,0,69627,,184,184,184 V,1,69627,70027,35,1200,4,1200 P,0,69627,70027,A F,2,69628,70027,0.8,0
Sprite,Foreground,CentreRight,"sb\particle.png",432,340 F,0,69960,,0.8 R,0,69960,,0.2094395 C,0,69960,,184,184,184 V,1,69960,70360,35,1200,4,1200 P,0,69960,70360,A F,2,69961,70360,0.8,0
Sprite,Foreground,CentreRight,"sb\particle.png",424,416 F,0,70127,,0.8 R,0,70127,,0.1745329 C,0,70127,,104,104,255 V,1,70127,70527,35,1200,4,1200 P,0,70127,70527,A F,2,70128,70527,0.8,0
Sprite,Foreground,CentreRight,"sb\particle.png",440,264 F,0,70293,,0.8 R,0,70293,,0.03490658 C,0,70293,,104,104,255 V,1,70293,70693,35,1200,4,1200 P,0,70293,70693,A F,2,70294,70693,0.8,0
Sprite,Foreground,CentreRight,"sb\particle.png",312,316 F,0,70460,,0.8 R,0,70460,,-0.2094395 C,0,70460,,104,104,255 V,1,70460,70860,35,1200,4,1200 P,0,70460,70860,A F,2,70461,70860,0.8,0
Sprite,Foreground,CentreRight,"sb\particle.png",276,176 F,0,70877,,0.8 R,0,70877,,0.03490658 C,0,70877,,104,104,255 V,1,70877,71277,35,1200,4,1200 P,0,70877,71277,A F,2,70878,71277,0.8,0
Sprite,Foreground,CentreRight,"sb\particle.png",260,192 F,0,70960,,0.8 R,0,70960,,0.2792527 C,0,70960,,104,104,255 V,1,70960,71360,35,1200,4,1200 P,0,70960,71360,A F,2,70961,71360,0.8,0
Sprite,Foreground,CentreRight,"sb\particle.png",340,64 F,0,71127,,0.8 R,0,71127,,-0.05235988 C,0,71127,,174,174,255 V,1,71127,71527,35,1200,4,1200 P,0,71127,71527,A F,2,71128,71527,0.8,0
Sprite,Foreground,CentreRight,"sb\particle.png",224,80 F,0,71293,,0.8 R,0,71293,,0.3316126 C,0,71293,,174,174,255 V,1,71293,71693,35,1200,4,1200 P,0,71293,71693,A F,2,71294,71693,0.8,0
Sprite,Foreground,CentreRight,"sb\particle.png",253,146 F,0,71460,,0.8 R,0,71460,,-0.1745329 C,0,71460,,174,174,255 V,1,71460,71860,35,1200,4,1200 P,0,71460,71860,A F,2,71461,71860,0.8,0
Sprite,Foreground,CentreRight,"sb\particle.png",220,60 F,0,71627,,0.8 R,0,71627,,-0.1570796 C,0,71627,,174,174,255 V,1,71627,72027,35,1200,4,1200 P,0,71627,72027,A F,2,71628,72027,0.8,0
Sprite,Foreground,CentreRight,"sb\particle.png",116,108 F,0,71793,,0.8 R,0,71793,,-0.03490658 C,0,71793,,184,184,184 V,1,71793,72193,35,1200,4,1200 P,0,71793,72193,A F,2,71794,72193,0.8,0
Sprite,Foreground,CentreRight,"sb\particle.png",184,200 F,0,72293,,0.8 R,0,72293,,0.08726646 C,0,72293,,184,184,184 V,1,72293,72693,35,1200,4,1200 P,0,72293,72693,A F,2,72294,72693,0.8,0
Sprite,Foreground,CentreRight,"sb\particle.png",100,116 F,0,72460,,0.8 R,0,72460,,-0.03490658 C,0,72460,,184,184,184 V,1,72460,72860,35,1200,4,1200 P,0,72460,72860,A F,2,72461,72860,0.8,0
Sprite,Foreground,CentreRight,"sb\particle.png",64,176 F,0,72627,,0.8 R,0,72627,,0.3316126 C,0,72627,,104,104,255 V,1,72627,73027,35,1200,4,1200 P,0,72627,73027,A F,2,72628,73027,0.8,0
Sprite,Foreground,CentreRight,"sb\particle.png",115,226 F,0,72877,,0.8 R,0,72877,,-0.3316126 C,0,72877,,104,104,255 V,1,72877,73277,35,1200,4,1200 P,0,72877,73277,A F,2,72878,73277,0.8,0
Sprite,Foreground,CentreRight,"sb\particle.png",115,226 F,0,72960,,0.8 R,0,72960,,0.2443461 C,0,72960,,104,104,255 V,1,72960,73360,35,1200,4,1200 P,0,72960,73360,A F,2,72961,73360,0.8,0
Sprite,Foreground,CentreRight,"sb\particle.png",278,192 F,0,73127,,0.8 R,0,73127,,0.3316126 C,0,73127,,104,104,255 V,1,73127,73527,35,1200,4,1200 P,0,73127,73527,A F,2,73128,73527,0.8,0
Sprite,Foreground,CentreRight,"sb\particle.png",292,172 F,0,73543,,0.8 R,0,73543,,0.122173 C,0,73543,,104,104,255 V,1,73543,73943,35,1200,4,1200 P,0,73543,73943,A F,2,73544,73943,0.8,0
Sprite,Foreground,CentreRight,"sb\particle.png",312,160 F,0,73627,,0.8 R,0,73627,,-0.1396263 C,0,73627,,104,104,255 V,1,73627,74027,35,1200,4,1200 P,0,73627,74027,A F,2,73628,74027,0.8,0
Sprite,Foreground,CentreRight,"sb\particle.png",492,92 F,0,73793,,0.8 R,0,73793,,0.2094395 C,0,73793,,104,104,255 V,1,73793,74193,35,1200,4,1200 P,0,73793,74193,A F,2,73794,74193,0.8,0
Sprite,Foreground,CentreRight,"sb\particle.png",544,280 F,0,73960,,0.8 R,0,73960,,0.2268928 C,0,73960,,174,174,255 V,1,73960,74360,35,1200,4,1200 P,0,73960,74360,A F,2,73961,74360,0.8,0
Sprite,Foreground,CentreRight,"sb\particle.png",484,232 F,0,74127,,0.8 R,0,74127,,0.3316126 C,0,74127,,174,174,255 V,1,74127,74527,35,1200,4,1200 P,0,74127,74527,A F,2,74128,74527,0.8,0
Sprite,Foreground,CentreRight,"sb\particle.png",540,360 F,0,74460,,0.8 R,0,74460,,-0.3316126 C,0,74460,,184,184,184 V,1,74460,74860,35,1200,4,1200 P,0,74460,74860,A F,2,74461,74860,0.8,0
Sprite,Foreground,CentreRight,"sb\particle.png",540,360 F,0,74543,,0.8 R,0,74543,,0.122173 C,0,74543,,184,184,184 V,1,74543,74943,35,1200,4,1200 P,0,74543,74943,A F,2,74544,74943,0.8,0
Sprite,Foreground,CentreRight,"sb\particle.png",332,256 F,0,74960,,0.8 R,0,74960,,0.01745329 C,0,74960,,104,104,255 V,1,74960,75360,35,1200,4,1200 P,0,74960,75360,A F,2,74961,75360,0.8,0
Sprite,Foreground,CentreRight,"sb\particle.png",264,224 F,0,75127,,0.8 R,0,75127,,0.296706 C,0,75127,,104,104,255 V,1,75127,75527,35,1200,4,1200 P,0,75127,75527,A F,2,75128,75527,0.8,0
Sprite,Foreground,CentreRight,"sb\particle.png",244,340 F,0,75460,,0.8 R,0,75460,,0.122173 C,0,75460,,104,104,255 V,1,75460,75860,35,1200,4,1200 P,0,75460,75860,A F,2,75461,75860,0.8,0
Sprite,Foreground,CentreRight,"sb\particle.png",268,344 F,0,75543,,0.8 R,0,75543,,0.01745329 C,0,75543,,104,104,255 V,1,75543,75943,35,1200,4,1200 P,0,75543,75943,A F,2,75544,75943,0.8,0
Sprite,Foreground,CentreRight,"sb\particle.png",288,336 F,0,75627,,0.8 R,0,75627,,-0.296706 C,0,75627,,104,104,255 V,1,75627,76027,35,1200,4,1200 P,0,75627,76027,A F,2,75628,76027,0.8,0
Sprite,Foreground,CentreRight,"sb\particle.png",184,276 F,0,75793,,0.8 R,0,75793,,-0.2268928 C,0,75793,,104,104,255 V,1,75793,76193,35,1200,4,1200 P,0,75793,76193,A F,2,75794,76193,0.8,0
Sprite,Foreground,CentreRight,"sb\particle.png",132,88 F,0,75960,,0.8 R,0,75960,,-0.03490658 C,0,75960,,174,174,255 V,1,75960,76360,35,1200,4,1200 P,0,75960,76360,A F,2,75961,76360,0.8,0
Sprite,Foreground,CentreRight,"sb\particle.png",156,87 F,0,76043,,0.8 R,0,76043,,-0.1570796 C,0,76043,,174,174,255 V,1,76043,76443,35,1200,4,1200 P,0,76043,76443,A F,2,76044,76443,0.8,0
Sprite,Foreground,CentreRight,"sb\particle.png",178,96 F,0,76127,,0.8 R,0,76127,,0.3316126 C,0,76127,,174,174,255 V,1,76127,76527,35,1200,4,1200 P,0,76127,76527,A F,2,76128,76527,0.8,0
Sprite,Foreground,CentreRight,"sb\particle.png",196,109 F,0,76210,,0.8 R,0,76210,,0.08726646 C,0,76210,,174,174,255 V,1,76210,76610,35,1200,4,1200 P,0,76210,76610,A F,2,76211,76610,0.8,0
Sprite,Foreground,CentreRight,"sb\particle.png",211,126 F,0,76293,,0.8 R,0,76293,,0.1745329 C,0,76293,,184,184,184 V,1,76293,76693,35,1200,4,1200 P,0,76293,76693,A F,2,76294,76693,0.8,0
Sprite,Foreground,CentreRight,"sb\particle.png",208,151 F,0,76377,,0.8 R,0,76377,,-0.3316126 C,0,76377,,184,184,184 V,1,76377,76777,35,1200,4,1200 P,0,76377,76777,A F,2,76378,76777,0.8,0
Sprite,Foreground,CentreRight,"sb\particle.png",195,174 F,0,76460,,0.8 R,0,76460,,-0.08726646 C,0,76460,,184,184,184 V,1,76460,76860,35,1200,4,1200 P,0,76460,76860,A F,2,76461,76860,0.8,0
Sprite,Foreground,CentreRight,"sb\particle.png",179,193 F,0,76543,,0.8 R,0,76543,,-0.122173 C,0,76543,,184,184,184 V,1,76543,76943,35,1200,4,1200 P,0,76543,76943,A F,2,76544,76943,0.8,0
Sprite,Foreground,CentreRight,"sb\particle.png",156,205 F,0,76627,,0.8 R,0,76627,,0.3141593 C,0,76627,,104,104,255 V,1,76627,77027,35,1200,4,1200 P,0,76627,77027,A F,2,76628,77027,0.8,0
Sprite,Foreground,CentreRight,"sb\particle.png",80,140 F,0,76793,,0.8 R,0,76793,,0 C,0,76793,,104,104,255 V,1,76793,77193,35,1200,4,1200 P,0,76793,77193,A F,2,76794,77193,0.8,0
Sprite,Foreground,CentreRight,"sb\particle.png",92,160 F,0,76877,,0.8 R,0,76877,,0.1396263 C,0,76877,,104,104,255 V,1,76877,77277,35,1200,4,1200 P,0,76877,77277,A F,2,76878,77277,0.8,0
Sprite,Foreground,CentreRight,"sb\particle.png",88,184 F,0,76960,,0.8 R,0,76960,,-0.2792527 C,0,76960,,104,104,255 V,1,76960,77360,35,1200,4,1200 P,0,76960,77360,A F,2,76961,77360,0.8,0
Sprite,Foreground,CentreRight,"sb\particle.png",96,288 F,0,77127,,0.8 R,0,77127,,-0.1745329 C,0,77127,,174,174,255 V,1,77127,77527,35,1200,4,1200 P,0,77127,77527,A F,2,77128,77527,0.8,0
Sprite,Foreground,CentreRight,"sb\particle.png",96,288 F,0,77210,,0.8 R,0,77210,,0.2792527 C,0,77210,,174,174,255 V,1,77210,77610,35,1200,4,1200 P,0,77210,77610,A F,2,77211,77610,0.8,0
Sprite,Foreground,CentreRight,"sb\particle.png",229,265 F,0,77543,,0.8 R,0,77543,,0.1919862 C,0,77543,,174,174,255 V,1,77543,77943,35,1200,4,1200 P,0,77543,77943,A F,2,77544,77943,0.8,0
Sprite,Foreground,CentreRight,"sb\particle.png",229,265 F,0,77627,,0.8 R,0,77627,,-0.122173 C,0,77627,,174,174,255 V,1,77627,78027,35,1200,4,1200 P,0,77627,78027,A F,2,77628,78027,0.8,0
Sprite,Foreground,CentreRight,"sb\particle.png",304,96 F,0,77793,,0.8 R,0,77793,,-0.03490658 C,0,77793,,184,184,184 V,1,77793,78193,35,1200,4,1200 P,0,77793,78193,A F,2,77794,78193,0.8,0
Sprite,Foreground,CentreRight,"sb\particle.png",328,100 F,0,77877,,0.8 R,0,77877,,-0.2617994 C,0,77877,,184,184,184 V,1,77877,78277,35,1200,4,1200 P,0,77877,78277,A F,2,77878,78277,0.8,0
Sprite,Foreground,CentreRight,"sb\particle.png",348,116 F,0,77960,,0.8 R,0,77960,,-0.2094395 C,0,77960,,184,184,184 V,1,77960,78360,35,1200,4,1200 P,0,77960,78360,A F,2,77961,78360,0.8,0
Sprite,Foreground,CentreRight,"sb\particle.png",312,216 F,0,78127,,0.8 R,0,78127,,-0.06981317 C,0,78127,,104,104,255 V,1,78127,78527,35,1200,4,1200 P,0,78127,78527,A F,2,78128,78527,0.8,0
Sprite,Foreground,CentreRight,"sb\particle.png",240,136 F,0,78293,,0.8 R,0,78293,,0.1396263 C,0,78293,,104,104,255 V,1,78293,78693,35,1200,4,1200 P,0,78293,78693,A F,2,78294,78693,0.8,0
Sprite,Foreground,CentreRight,"sb\particle.png",412,76 F,0,78460,,0.8 R,0,78460,,0.06981317 C,0,78460,,104,104,255 V,1,78460,78860,35,1200,4,1200 P,0,78460,78860,A F,2,78461,78860,0.8,0
Sprite,Foreground,CentreRight,"sb\particle.png",384,184 F,0,78627,,0.8 R,0,78627,,-0.01745329 C,0,78627,,174,174,255 V,1,78627,79027,35,1200,4,1200 P,0,78627,79027,A F,2,78628,79027,0.8,0
Sprite,Foreground,CentreRight,"sb\particle.png",556,108 F,0,78960,,0.8 R,0,78960,,-0.2268928 C,0,78960,,184,184,184 V,1,78960,79360,35,1200,4,1200 P,0,78960,79360,A F,2,78961,79360,0.8,0
Sprite,Foreground,CentreRight,"sb\particle.png",556,108 F,0,79043,,0.8 R,0,79043,,0.2617994 C,0,79043,,184,184,184 V,1,79043,79443,35,1200,4,1200 P,0,79043,79443,A F,2,79044,79443,0.8,0
Sprite,Foreground,CentreRight,"sb\particle.png",468,208 F,0,79293,,0.8 R,0,79293,,0.2268928 C,0,79293,,104,104,255 V,1,79293,79693,35,1200,4,1200 P,0,79293,79693,A F,2,79294,79693,0.8,0
Sprite,Foreground,CentreRight,"sb\particle.png",348,116 F,0,79460,,0.8 R,0,79460,,0.1570796 C,0,79460,,104,104,255 V,1,79460,79860,35,1200,4,1200 P,0,79460,79860,A F,2,79461,79860,0.8,0
Sprite,Foreground,CentreRight,"sb\particle.png",484,72 F,0,79627,,0.8 R,0,79627,,0.2443461 C,0,79627,,104,104,255 V,1,79627,80027,35,1200,4,1200 P,0,79627,80027,A F,2,79628,80027,0.8,0
Sprite,Foreground,CentreRight,"sb\particle.png",316,184 F,0,79793,,0.8 R,0,79793,,0.122173 C,0,79793,,174,174,255 V,1,79793,80193,35,1200,4,1200 P,0,79793,80193,A F,2,79794,80193,0.8,0
Sprite,Foreground,CentreRight,"sb\particle.png",304,284 F,0,80293,,0.8 R,0,80293,,0.06981317 C,0,80293,,174,174,255 V,1,80293,80693,35,1200,4,1200 P,0,80293,80693,A F,2,80294,80693,0.8,0
Sprite,Foreground,CentreRight,"sb\particle.png",248,360 F,0,80460,,0.8 R,0,80460,,-0.2094395 C,0,80460,,174,174,255 V,1,80460,80860,35,1200,4,1200 P,0,80460,80860,A F,2,80461,80860,0.8,0
Sprite,Foreground,CentreRight,"sb\particle.png",252,384 F,0,80543,,0.8 R,0,80543,,0.2617994 C,0,80543,,174,174,255 V,1,80543,80943,35,1200,4,1200 P,0,80543,80943,A F,2,80544,80943,0.8,0
Sprite,Foreground,CentreRight,"sb\particle.png",240,404 F,0,80627,,0.8 R,0,80627,,0.2617994 C,0,80627,,174,174,255 V,1,80627,81027,35,1200,4,1200 P,0,80627,81027,A F,2,80628,81027,0.8,0
Sprite,Foreground,CentreRight,"sb\particle.png",168,368 F,0,80793,,0.8 R,0,80793,,-0.296706 C,0,80793,,184,184,184 V,1,80793,81193,35,1200,4,1200 P,0,80793,81193,A F,2,80794,81193,0.8,0
Sprite,Foreground,CentreRight,"sb\particle.png",184,296 F,0,80960,,0.8 R,0,80960,,0.2268928 C,0,80960,,184,184,184 V,1,80960,81360,35,1200,4,1200 P,0,80960,81360,A F,2,80961,81360,0.8,0
Sprite,Foreground,CentreRight,"sb\particle.png",160,376 F,0,81127,,0.8 R,0,81127,,-0.2443461 C,0,81127,,184,184,184 V,1,81127,81527,35,1200,4,1200 P,0,81127,81527,A F,2,81128,81527,0.8,0
Sprite,Foreground,CentreRight,"sb\particle.png",152,220 F,0,81627,,0.8 R,0,81627,,0.08726646 C,0,81627,,104,104,255 V,1,81627,82027,35,1200,4,1200 P,0,81627,82027,A F,2,81628,82027,0.8,0
Sprite,Foreground,CentreRight,"sb\particle.png",264,264 F,0,81793,,0.8 R,0,81793,,0.2268928 C,0,81793,,104,104,255 V,1,81793,82193,35,1200,4,1200 P,0,81793,82193,A F,2,81794,82193,0.8,0
Sprite,Foreground,CentreRight,"sb\particle.png",268,240 F,0,81877,,0.8 R,0,81877,,-0.2094395 C,0,81877,,104,104,255 V,1,81877,82277,35,1200,4,1200 P,0,81877,82277,A F,2,81878,82277,0.8,0
Sprite,Foreground,CentreRight,"sb\particle.png",256,220 F,0,81960,,0.8 R,0,81960,,0.3316126 C,0,81960,,104,104,255 V,1,81960,82360,35,1200,4,1200 P,0,81960,82360,A F,2,81961,82360,0.8,0
Sprite,Foreground,CentreRight,"sb\particle.png",344,148 F,0,82127,,0.8 R,0,82127,,-0.01745329 C,0,82127,,104,104,255 V,1,82127,82527,35,1200,4,1200 P,0,82127,82527,A F,2,82128,82527,0.8,0
Sprite,Foreground,CentreRight,"sb\particle.png",232,144 F,0,82293,,0.8 R,0,82293,,0.1047198 C,0,82293,,104,104,255 V,1,82293,82693,35,1200,4,1200 P,0,82293,82693,A F,2,82294,82693,0.8,0
Sprite,Foreground,CentreRight,"sb\particle.png",132,88 F,0,82460,,0.8 R,0,82460,,0.1396263 C,0,82460,,174,174,255 V,1,82460,82860,35,1200,4,1200 P,0,82460,82860,A F,2,82461,82860,0.8,0
Sprite,Foreground,CentreRight,"sb\particle.png",132,88 F,0,82877,,0.8 R,0,82877,,0.2094395 C,0,82877,,174,174,255 V,1,82877,83277,35,1200,4,1200 P,0,82877,83277,A F,2,82878,83277,0.8,0
Sprite,Foreground,CentreRight,"sb\particle.png",132,88 F,0,82960,,0.8 R,0,82960,,-0.2792527 C,0,82960,,174,174,255 V,1,82960,83360,35,1200,4,1200 P,0,82960,83360,A F,2,82961,83360,0.8,0
Sprite,Foreground,CentreRight,"sb\particle.png",80,220 F,0,83127,,0.8 R,0,83127,,0.1570796 C,0,83127,,174,174,255 V,1,83127,83527,35,1200,4,1200 P,0,83127,83527,A F,2,83128,83527,0.8,0
Sprite,Foreground,CentreRight,"sb\particle.png",184,292 F,0,83293,,0.8 R,0,83293,,0.1396263 C,0,83293,,184,184,184 V,1,83293,83693,35,1200,4,1200 P,0,83293,83693,A F,2,83294,83693,0.8,0
Sprite,Foreground,CentreRight,"sb\particle.png",242,237 F,0,83543,,0.8 R,0,83543,,-0.2617994 C,0,83543,,184,184,184 V,1,83543,83943,35,1200,4,1200 P,0,83543,83943,A F,2,83544,83943,0.8,0
Sprite,Foreground,CentreRight,"sb\particle.png",242,237 F,0,83627,,0.8 R,0,83627,,0.2792527 C,0,83627,,184,184,184 V,1,83627,84027,35,1200,4,1200 P,0,83627,84027,A F,2,83628,84027,0.8,0
Sprite,Foreground,CentreRight,"sb\particle.png",320,280 F,0,83793,,0.8 R,0,83793,,-0.2268928 C,0,83793,,184,184,184 V,1,83793,84193,35,1200,4,1200 P,0,83793,84193,A F,2,83794,84193,0.8,0
Sprite,Foreground,CentreRight,"sb\particle.png",284,172 F,0,84293,,0.8 R,0,84293,,-0.01745329 C,0,84293,,104,104,255 V,1,84293,84693,35,1200,4,1200 P,0,84293,84693,A F,2,84294,84693,0.8,0
Sprite,Foreground,CentreRight,"sb\particle.png",440,276 F,0,84460,,0.8 R,0,84460,,0.01745329 C,0,84460,,104,104,255 V,1,84460,84860,35,1200,4,1200 P,0,84460,84860,A F,2,84461,84860,0.8,0
Sprite,Foreground,CentreRight,"sb\particle.png",420,284 F,0,84543,,0.8 R,0,84543,,-0.122173 C,0,84543,,104,104,255 V,1,84543,84943,35,1200,4,1200 P,0,84543,84943,A F,2,84544,84943,0.8,0
Sprite,Foreground,CentreRight,"sb\particle.png",396,284 F,0,84627,,0.8 R,0,84627,,0.1047198 C,0,84627,,104,104,255 V,1,84627,85027,35,1200,4,1200 P,0,84627,85027,A F,2,84628,85027,0.8,0
Sprite,Foreground,CentreRight,"sb\particle.png",480,120 F,0,84793,,0.8 R,0,84793,,-0.03490658 C,0,84793,,104,104,255 V,1,84793,85193,35,1200,4,1200 P,0,84793,85193,A F,2,84794,85193,0.8,0
Sprite,Foreground,CentreRight,"sb\particle.png",480,120 F,0,84877,,0.8 R,0,84877,,0.2268928 C,0,84877,,104,104,255 V,1,84877,85277,35,1200,4,1200 P,0,84877,85277,A F,2,84878,85277,0.8,0
Sprite,Foreground,CentreRight,"sb\particle.png",480,120 F,0,84960,,0.8 R,0,84960,,0.2094395 C,0,84960,,104,104,255 V,1,84960,85360,35,1200,4,1200 P,0,84960,85360,A F,2,84961,85360,0.8,0
Sprite,Foreground,CentreRight,"sb\particle.png",400,208 F,0,85127,,0.8 R,0,85127,,0.1919862 C,0,85127,,174,174,255 V,1,85127,85527,35,1200,4,1200 P,0,85127,85527,A F,2,85128,85527,0.8,0
Sprite,Foreground,CentreRight,"sb\particle.png",400,208 F,0,85210,,0.8 R,0,85210,,0.1745329 C,0,85210,,174,174,255 V,1,85210,85610,35,1200,4,1200 P,0,85210,85610,A F,2,85211,85610,0.8,0
Sprite,Foreground,CentreRight,"sb\particle.png",284,172 F,0,85627,,0.8 R,0,85627,,0.296706 C,0,85627,,174,174,255 V,1,85627,86027,35,1200,4,1200 P,0,85627,86027,A F,2,85628,86027,0.8,0
Sprite,Foreground,CentreRight,"sb\particle.png",248,104 F,0,85793,,0.8 R,0,85793,,-0.1570796 C,0,85793,,174,174,255 V,1,85793,86193,35,1200,4,1200 P,0,85793,86193,A F,2,85794,86193,0.8,0
Sprite,Foreground,CentreRight,"sb\particle.png",232,356 F,0,85960,,0.8 R,0,85960,,0 C,0,85960,,184,184,184 V,1,85960,86360,35,1200,4,1200 P,0,85960,86360,A F,2,85961,86360,0.8,0
Sprite,Foreground,CentreRight,"sb\particle.png",256,357 F,0,86043,,0.8 R,0,86043,,0.1047198 C,0,86043,,184,184,184 V,1,86043,86443,35,1200,4,1200 P,0,86043,86443,A F,2,86044,86443,0.8,0
Sprite,Foreground,CentreRight,"sb\particle.png",278,348 F,0,86127,,0.8 R,0,86127,,-0.122173 C,0,86127,,184,184,184 V,1,86127,86527,35,1200,4,1200 P,0,86127,86527,A F,2,86128,86527,0.8,0
Sprite,Foreground,CentreRight,"sb\particle.png",296,335 F,0,86210,,0.8 R,0,86210,,-0.1570796 C,0,86210,,184,184,184 V,1,86210,86610,35,1200,4,1200 P,0,86210,86610,A F,2,86211,86610,0.8,0
Sprite,Foreground,CentreRight,"sb\particle.png",311,318 F,0,86293,,0.8 R,0,86293,,0.2094395 C,0,86293,,104,104,255 V,1,86293,86693,35,1200,4,1200 P,0,86293,86693,A F,2,86294,86693,0.8,0
Sprite,Foreground,CentreRight,"sb\particle.png",308,293 F,0,86377,,0.8 R,0,86377,,-0.2094395 C,0,86377,,104,104,255 V,1,86377,86777,35,1200,4,1200 P,0,86377,86777,A F,2,86378,86777,0.8,0
Sprite,Foreground,CentreRight,"sb\particle.png",295,270 F,0,86460,,0.8 R,0,86460,,-0.2268928 C,0,86460,,104,104,255 V,1,86460,86860,35,1200,4,1200 P,0,86460,86860,A F,2,86461,86860,0.8,0
Sprite,Foreground,CentreRight,"sb\particle.png",279,251 F,0,86543,,0.8 R,0,86543,,-0.3141593 C,0,86543,,104,104,255 V,1,86543,86943,35,1200,4,1200 P,0,86543,86943,A F,2,86544,86943,0.8,0
Sprite,Foreground,CentreRight,"sb\particle.png",256,239 F,0,86627,,0.8 R,0,86627,,0.06981317 C,0,86627,,174,174,255 V,1,86627,87027,35,1200,4,1200 P,0,86627,87027,A F,2,86628,87027,0.8,0
Sprite,Foreground,CentreRight,"sb\particle.png",180,304 F,0,86793,,0.8 R,0,86793,,0.122173 C,0,86793,,174,174,255 V,1,86793,87193,35,1200,4,1200 P,0,86793,87193,A F,2,86794,87193,0.8,0
Sprite,Foreground,CentreRight,"sb\particle.png",192,284 F,0,86877,,0.8 R,0,86877,,0.08726646 C,0,86877,,174,174,255 V,1,86877,87277,35,1200,4,1200 P,0,86877,87277,A F,2,86878,87277,0.8,0
Sprite,Foreground,CentreRight,"sb\particle.png",188,260 F,0,86960,,0.8 R,0,86960,,0.296706 C,0,86960,,174,174,255 V,1,86960,87360,35,1200,4,1200 P,0,86960,87360,A F,2,86961,87360,0.8,0
Sprite,Foreground,CentreRight,"sb\particle.png",112,272 F,0,87127,,0.8 R,0,87127,,-0.2094395 C,0,87127,,174,174,255 V,1,87127,87527,35,1200,4,1200 P,0,87127,87527,A F,2,87128,87527,0.8,0
Sprite,Foreground,CentreRight,"sb\particle.png",316,184 F,0,87293,,0.8 R,0,87293,,0.296706 C,0,87293,,184,184,184 V,1,87293,87693,35,1200,4,1200 P,0,87293,87693,A F,2,87294,87693,0.8,0
Sprite,Foreground,CentreRight,"sb\particle.png",188,260 F,0,87460,,0.8 R,0,87460,,-0.3141593 C,0,87460,,184,184,184 V,1,87460,87860,35,1200,4,1200 P,0,87460,87860,A F,2,87461,87860,0.8,0
Sprite,Foreground,CentreRight,"sb\particle.png",168,140 F,0,87627,,0.8 R,0,87627,,0.2792527 C,0,87627,,184,184,184 V,1,87627,88027,35,1200,4,1200 P,0,87627,88027,A F,2,87628,88027,0.8,0
Sprite,Foreground,CentreRight,"sb\particle.png",248,80 F,0,87793,,0.8 R,0,87793,,0.122173 C,0,87793,,104,104,255 V,1,87793,88193,35,1200,4,1200 P,0,87793,88193,A F,2,87794,88193,0.8,0
Sprite,Foreground,CentreRight,"sb\particle.png",248,80 F,0,87877,,0.8 R,0,87877,,-0.296706 C,0,87877,,104,104,255 V,1,87877,88277,35,1200,4,1200 P,0,87877,88277,A F,2,87878,88277,0.8,0
Sprite,Foreground,CentreRight,"sb\particle.png",400,176 F,0,88293,,0.8 R,0,88293,,-0.2617994 C,0,88293,,104,104,255 V,1,88293,88693,35,1200,4,1200 P,0,88293,88693,A F,2,88294,88693,0.8,0
Sprite,Foreground,CentreRight,"sb\particle.png",336,320 F,0,88460,,0.8 R,0,88460,,-0.2792527 C,0,88460,,174,174,255 V,1,88460,88860,35,1200,4,1200 P,0,88460,88860,A F,2,88461,88860,0.8,0
Sprite,Foreground,CentreRight,"sb\particle.png",320,304 F,0,88543,,0.8 R,0,88543,,0.06981317 C,0,88543,,174,174,255 V,1,88543,88943,35,1200,4,1200 P,0,88543,88943,A F,2,88544,88943,0.8,0
Sprite,Foreground,CentreRight,"sb\particle.png",312,280 F,0,88627,,0.8 R,0,88627,,0.3141593 C,0,88627,,174,174,255 V,1,88627,89027,35,1200,4,1200 P,0,88627,89027,A F,2,88628,89027,0.8,0
Sprite,Foreground,CentreRight,"sb\particle.png",476,204 F,0,88793,,0.8 R,0,88793,,-0.01745329 C,0,88793,,174,174,255 V,1,88793,89193,35,1200,4,1200 P,0,88793,89193,A F,2,88794,89193,0.8,0
Sprite,Foreground,CentreRight,"sb\particle.png",497,203 F,0,88876,,0.8 R,0,88876,,-0.2617994 C,0,88876,,174,174,255 V,1,88876,89276,35,1200,4,1200 P,0,88876,89276,A F,2,88877,89276,0.8,0
Sprite,Foreground,CentreRight,"sb\particle.png",520,214 F,0,88960,,0.8 R,0,88960,,0.122173 C,0,88960,,174,174,255 V,1,88960,89360,35,1200,4,1200 P,0,88960,89360,A F,2,88961,89360,0.8,0
Sprite,Foreground,CentreRight,"sb\particle.png",336,128 F,0,89127,,0.8 R,0,89127,,0.03490658 C,0,89127,,174,174,255 V,1,89127,89527,35,1200,4,1200 P,0,89127,89527,A F,2,89128,89527,0.8,0
Sprite,Foreground,CentreRight,"sb\particle.png",236,288 F,0,89293,,0.8 R,0,89293,,-0.1919862 C,0,89293,,184,184,184 V,1,89293,89693,35,1200,4,1200 P,0,89293,89693,A F,2,89294,89693,0.8,0
Sprite,Foreground,CentreRight,"sb\particle.png",168,320 F,0,89460,,0.8 R,0,89460,,0.06981317 C,0,89460,,184,184,184 V,1,89460,89860,35,1200,4,1200 P,0,89460,89860,A F,2,89461,89860,0.8,0
Sprite,Foreground,CentreRight,"sb\particle.png",168,320 F,0,89543,,0.8 R,0,89543,,-0.3490658 C,0,89543,,184,184,184 V,1,89543,89943,35,1200,4,1200 P,0,89543,89943,A F,2,89544,89943,0.8,0
Sprite,Foreground,CentreRight,"sb\particle.png",168,320 F,0,89627,,0.8 R,0,89627,,-0.1047198 C,0,89627,,184,184,184 V,1,89627,90027,35,1200,4,1200 P,0,89627,90027,A F,2,89628,90027,0.8,0
Sprite,Foreground,CentreRight,"sb\particle.png",92,260 F,0,89793,,0.8 R,0,89793,,0.2443461 C,0,89793,,184,184,184 V,1,89793,90193,35,1200,4,1200 P,0,89793,90193,A F,2,89794,90193,0.8,0
Sprite,Foreground,CentreRight,"sb\particle.png",92,260 F,0,89877,,0.8 R,0,89877,,-0.3141593 C,0,89877,,184,184,184 V,1,89877,90277,35,1200,4,1200 P,0,89877,90277,A F,2,89878,90277,0.8,0
Sprite,Foreground,CentreRight,"sb\particle.png",92,260 F,0,89960,,0.8 R,0,89960,,-0.1570796 C,0,89960,,104,104,255 V,1,89960,90360,35,1200,4,1200 P,0,89960,90360,A F,2,89961,90360,0.8,0
Sprite,Foreground,CentreRight,"sb\particle.png",72,302 F,0,90043,,0.8 R,0,90043,,0.1396263 C,0,90043,,104,104,255 V,1,90043,90443,35,1200,4,1200 P,0,90043,90443,A F,2,90044,90443,0.8,0
Sprite,Foreground,CentreRight,"sb\particle.png",74,349 F,0,90126,,0.8 R,0,90126,,0.3141593 C,0,90126,,104,104,255 V,1,90126,90526,35,1200,4,1200 P,0,90126,90526,A F,2,90127,90526,0.8,0
Sprite,Foreground,CentreRight,"sb\particle.png",99,389 F,0,90209,,0.8 R,0,90209,,0.3316126 C,0,90209,,104,104,255 V,1,90209,90609,35,1200,4,1200 P,0,90209,90609,A F,2,90210,90609,0.8,0
Sprite,Foreground,CentreRight,"sb\particle.png",140,413 F,0,90293,,0.8 R,0,90293,,-0.08726646 C,0,90293,,104,104,255 V,1,90293,90693,35,1200,4,1200 P,0,90293,90693,A F,2,90294,90693,0.8,0
Sprite,Foreground,CentreRight,"sb\particle.png",187,414 F,0,90376,,0.8 R,0,90376,,0 C,0,90376,,104,104,255 V,1,90376,90776,35,1200,4,1200 P,0,90376,90776,A F,2,90377,90776,0.8,0
Sprite,Foreground,CentreRight,"sb\particle.png",229,394 F,0,90459,,0.8 R,0,90459,,-0.1570796 C,0,90459,,104,104,255 V,1,90459,90859,35,1200,4,1200 P,0,90459,90859,A F,2,90460,90859,0.8,0
Sprite,Foreground,CentreRight,"sb\particle.png",256,355 F,0,90543,,0.8 R,0,90543,,0 C,0,90543,,104,104,255 V,1,90543,90943,35,1200,4,1200 P,0,90543,90943,A F,2,90544,90943,0.8,0
Sprite,Foreground,CentreRight,"sb\particle.png",262,309 F,0,90626,,0.8 R,0,90626,,0.01745329 C,0,90626,,174,174,255 V,1,90626,91026,35,1200,4,1200 P,0,90626,91026,A F,2,90627,91026,0.8,0
//Storyboard Layer 4 (Overlay)
//Storyboard Sound Samples

[TimingPoints]
1294,333.333333333333,4,2,1,35,1,0
2627,-200,4,2,1,35,0,0
4627,-400,4,2,1,40,0,0
9710,-133.333333333333,4,2,1,40,0,0
10626,-133.333333333333,4,2,1,35,0,0
10960,-133.333333333333,4,2,1,25,0,0
12627,-133.333333333333,4,2,1,40,0,0
13293,-133.333333333333,4,2,1,65,0,0
33627,-100,4,2,1,40,0,0
34292,-133.333333333333,4,2,1,45,0,0
34626,-100,4,2,1,45,0,0
47960,-100,4,2,1,55,0,0
57814,-100,4,3,2,55,0,0
57876,-100,4,2,1,55,0,0
58627,-100,4,2,1,70,0,0
69127,-100,4,2,1,80,0,0
93627,-100,4,2,1,80,0,0
114960,-100,4,2,1,55,0,0
115960,-100,4,2,1,70,0,0
116627,-100,4,2,1,85,0,0

[Colours]
Combo1 : 104,104,255
Combo2 : 174,174,255
Combo3 : 184,184,184

[HitObjects]
60,44,3293,6,0,L|72:152,1,95,2|2,0:0|0:0,0:0:0:0:
76,120,4627,2,0,L|82:174,1,47.5,2|2,0:0|0:0,0:0:0:0:
376,0,5960,5,2,2:2:0:0:
348,76,6293,2,0,L|364:221,1,142.5,2|2,2:2|2:2,0:0:0:0:
356,228,7627,2,0,P|334:225|328:202,1,47.5,2|2,0:0|2:1,0:0:0:0:
456,320,8543,5,0,0:0:0:0:
456,320,8627,2,0,L|352:304,1,95,2|2,0:0|0:1,0:0:0:0:
196,356,9710,2,0,L|192:316,2,35.625001358986
200,348,9960,5,2,0:0:0:0:
212,360,10043,2,0,P|155:367|96:348,1,106.875004076958,0|2,0:0|0:0,0:0:0:0:
104,344,10460,2,0,P|132:344|152:356,2,35.625001358986
32,352,10960,2,0,L|20:212,1,106.875004076958
32,176,11293,6,0,P|68:176|76:216,1,71.2500027179719,2|0,2:1|0:0,0:0:0:0:
132,256,11627,1,2,2:1:0:0:
204,232,11793,2,0,L|248:220,2,35.625001358986,2|2|2,0:0|0:0|2:1,0:0:0:0:
120,124,12127,2,0,L|116:84,2,35.625001358986,0|0|2,0:0|0:0|2:1,0:0:0:0:
180,164,12460,1,0,0:0:0:0:
44,40,12627,5,2,0:0:0:0:
60,32,12710,1,2,0:0:0:0:
76,36,12793,1,0,0:0:0:0:
88,52,12877,1,0,0:0:0:0:
92,68,12960,5,2,0:0:0:0:
135,73,13043,1,2,0:0:0:0:
179,66,13126,1,0,0:0:0:0:
219,47,13210,1,0,0:0:0:0:
252,17,13293,6,0,L|264:176,1,142.500005435944,0|2,3:2|0:0,0:0:0:0:
336,176,13710,1,2,0:0:0:0:
348,164,13793,2,0,P|352:188|336:216,1,35.625001358986,8|0,0:3|0:0,0:0:0:0:
348,88,13960,6,0,P|376:32|468:36,1,142.500005435944,0|0,1:0|0:0,0:0:0:0:
424,92,14460,1,0,0:0:0:0:
280,120,14627,5,2,3:2:0:0:
264,112,14710,2,0,B|248:124|248:124|220:120,2,35.625001358986,2|0|0,0:0|0:0|0:0,0:0:0:0:
216,48,14960,5,2,0:2:0:0:
208,64,15043,2,0,B|220:80|220:80|216:108,2,35.625001358986,2|0|0,0:0|0:0|0:0,0:0:0:0:
144,24,15293,5,0,1:0:0:0:
16,116,15627,2,0,P|40:152|92:160,1,71.2500027179719
76,148,15877,1,0,0:0:0:0:
60,136,15960,2,0,P|108:104|188:120,1,142.500005435944,0|2,3:2|0:0,0:0:0:0:
144,240,16460,2,0,L|136:292,1,35.625001358986
208,288,16627,5,0,1:0:0:0:
120,344,16793,2,0,P|84:328|72:288,1,71.2500027179719,2|0,2:1|0:0,0:0:0:0:
208,288,17127,2,0,L|244:328,1,35.625001358986
224,328,17293,2,0,L|392:320,2,142.500005435944,2|2|4,3:2|0:0|1:0,0:0:0:0:
120,144,18127,5,2,2:1:0:0:
120,144,18210,2,0,P|128:164|120:200,1,35.625001358986
44,160,18460,2,0,P|45:177|52:193,1,35.625001358986,2|2,2:1|2:1,0:0:0:0:
44,208,18627,6,0,L|56:48,1,142.500005435944,0|2,3:0|0:0,0:0:0:0:
160,16,19127,2,0,B|184:64,1,35.625001358986
124,100,19293,5,0,1:0:0:0:
184,56,19460,2,0,B|204:32|244:20|244:20|264:56|256:96,1,142.500005435944
124,100,19960,5,2,3:2:0:0:
112,88,20043,2,0,L|104:40,2,35.625001358986,2|0|0,0:0|0:0|0:0,0:0:0:0:
24,48,20293,5,2,0:0:0:0:
36,36,20376,2,0,L|44:-12,2,35.625001358986,2|0|0,0:0|0:0|0:0,0:0:0:0:
0,120,20627,5,0,1:0:0:0:
88,176,20793,2,0,L|180:164,2,71.2500027179719,2|2|2,2:1|2:1|2:1,0:0:0:0:
172,184,21293,6,0,P|240:184|264:104,1,142.500005435944,2|2,3:1|0:0,0:0:0:0:
152,80,21793,2,0,B|140:98|140:98|136:124,1,35.625001358986
228,56,21960,1,0,1:0:0:0:
288,200,22127,2,0,L|306:58,1,142.500005435944
428,143,22627,6,0,B|400:164|400:164|364:160,1,71.2500027179719,2|0,3:2|0:0,0:0:0:0:
235,19,22960,2,0,B|271:15|271:15|300:36,1,71.2500027179719,2|0,0:0|0:0,0:0:0:0:
288,200,23293,2,0,L|420:188,2,106.875004076958,2|0|2,1:2|0:0|0:0,0:0:0:0:
272,276,23877,1,2,0:0:0:0:
200,256,23960,6,0,B|192:292|192:292|228:344,1,71.2500027179719
388,368,24293,2,0,L|404:284,1,71.2500027179719,2|0,0:0|0:0,0:0:0:0:
416,284,24543,1,0,0:0:0:0:
428,272,24627,5,0,1:0:0:0:
428,272,24710,2,0,L|456:324,2,35.625001358986
480,208,24960,2,0,L|400:244,1,71.2500027179719
324,116,25293,5,2,3:2:0:0:
308,108,25377,2,0,B|308:128|308:128|328:164,2,35.625001358986,2|0|0,0:0|0:0|0:0,0:0:0:0:
388,72,25627,5,2,0:0:0:0:
404,80,25711,2,0,B|404:60|404:60|384:24,2,35.625001358986,2|0|0,0:0|0:0|0:0,0:0:0:0:
480,104,25960,2,0,P|416:100|392:80,1,71.2500027179719,0|2,1:0|2:1,0:0:0:0:
228,88,26293,2,0,P|292:92|316:112,1,71.2500027179719,2|2,0:0|0:0,0:0:0:0:
308,80,26543,1,0,0:0:0:0:
320,68,26627,6,0,P|316:160|268:220,1,142.500005435944,2|2,3:2|0:0,0:0:0:0:
164,48,27127,6,0,L|172:4,1,35.625001358986
228,80,27293,1,0,1:0:0:0:
292,40,27460,2,0,L|312:128,1,71.2500027179719,2|0,0:0|0:0,0:0:0:0:
124,140,27793,2,0,L|114:97,1,35.625001358986,2|2,2:1|2:1,0:0:0:0:
0,28,27960,6,0,P|52:32|92:60,1,71.2500027179719,0|2,3:2|0:0,0:0:0:0:
188,184,28293,1,0,0:0:0:0:
172,256,28460,1,2,0:0:0:0:
200,184,28627,2,0,P|260:176|280:112,1,106.875004076958,0|2,1:0|2:1,0:0:0:0:
280,116,28960,1,0,0:0:0:0:
252,260,29127,2,0,L|243:314,1,35.625001358986
300,368,29293,5,0,0:0:0:0:
243,321,29460,1,0,0:0:0:0:
163,338,29627,5,2,0:0:0:0:
245,307,29793,2,0,L|200:280,1,35.625001358986
258,234,29960,5,2,1:2:0:0:
152,232,30127,2,0,B|146:251|146:251|148:276,2,35.625001358986,2|0|0,3:2|0:0|0:0,0:0:0:0:
176,164,30460,1,0,0:0:0:0:
0,168,30627,5,2,3:2:0:0:
57,121,30793,2,0,L|8:92,1,35.625001358986
42,34,30961,5,2,0:0:0:0:
55,107,31127,2,0,L|100:80,1,35.625001358986
180,196,31293,5,0,1:0:0:0:
68,112,31460,1,0,0:0:0:0:
192,272,31627,5,0,0:0:0:0:
137,138,31793,1,2,0:0:0:0:
0,312,31960,6,0,P|64:324|120:272,1,142.500005435944,2|0,0:0|0:0,0:0:0:0:
285,184,32460,2,0,L|277:240,1,35.625001358986,2|0,0:0|0:0,0:0:0:0:
360,156,32627,5,2,1:2:0:0:
248,112,32793,1,0,0:0:0:0:
248,112,32877,2,0,L|119:132,1,106.875004076958,2|0,0:0|0:0,0:0:0:0:
48,140,33210,1,2,0:0:0:0:
48,140,33293,6,0,L|64:52,1,71.2500027179719,0|0,3:2|0:0,0:0:0:0:
76,80,33543,5,0,0:0:0:0:
72,96,33627,2,0,B|136:68|136:68|76:20,1,142.5,2|0,0:0|0:0,0:0:0:0:
68,32,33960,6,0,P|96:32|132:8,1,47.5,0|2,3:1|2:1,0:0:0:0:
200,80,34127,1,0,0:0:0:0:
200,80,34210,5,0,3:2:0:0:
211,64,34294,2,0,P|188:64|152:88,1,35.625001358986,2|0,0:0|0:0,0:0:0:0:
204,108,34460,2,0,P|204:84|226:59,1,35.625001358986,0|0,3:0|0:0,0:0:0:0:
296,92,34627,6,0,P|364:60|460:128,1,190,6|2,1:2|2:1,0:0:0:0:
372,192,35127,2,0,L|364:256,1,47.5,0|2,0:0|2:1,0:0:0:0:
356,312,35293,6,0,B|332:260|412:272|428:160|344:128,1,190,0|2,3:0|2:1,0:0:0:0:
369,142,35793,1,0,0:0:0:0:
276,234,35960,1,4,1:2:0:0:
281,259,36043,2,0,B|325:274|325:274|371:332,1,95
428,316,36293,2,0,L|416:388,1,47.5,2|0,2:1|0:0,0:0:0:0:
280,332,36460,2,0,L|292:260,1,47.5,0|2,0:0|2:1,0:0:0:0:
408,384,36627,2,0,P|468:380|476:264,1,190,0|2,0:0|2:1,0:0:0:0:
484,176,37127,2,0,B|468:196|468:196|440:204,1,47.5
372,180,37293,6,0,B|244:188|328:220|188:228,1,190,0|2,1:0|2:1,0:0:0:0:
388,108,37793,2,0,L|400:52,1,47.5,0|2,0:0|2:1,0:0:0:0:
336,20,37960,2,0,P|396:20|412:80,1,95,0|0,3:0|0:0,0:0:0:0:
312,104,38210,2,0,B|360:92|360:92|392:124|392:124|448:112,1,142.5
488,60,38627,5,2,2:1:0:0:
480,176,38793,2,0,B|484:200|484:200|512:240,2,47.5,0|0|2,0:0|0:0|2:1,0:0:0:0:
304,80,39127,2,0,B|308:56|308:56|336:16,1,47.5
368,124,39293,6,0,P|368:184|308:200,1,95,2|0,2:1|0:0,0:0:0:0:
232,60,39627,1,2,0:0:0:0:
176,112,39793,2,0,B|161:92|161:92|153:44,1,47.5,0|2,0:0|2:1,0:0:0:0:
0,144,39960,6,0,L|200:124,1,190,0|2,1:0|2:1,0:0:0:0:
212,196,40460,2,0,L|200:256,1,47.5,0|2,0:0|2:1,0:0:0:0:
304,304,40627,5,0,3:0:0:0:
216,256,40793,1,0,0:0:0:0:
216,256,40877,1,0,0:0:0:0:
216,256,40960,1,2,2:1:0:0:
284,228,41127,1,0,0:0:0:0:
180,324,41293,5,4,1:2:0:0:
164,340,41377,2,0,B|120:320|120:320|48:332,1,95
4,324,41627,2,0,P|8:356|28:380,1,47.5,2|0,2:1|0:0,0:0:0:0:
104,248,41793,2,0,P|100:216|80:192,1,47.5,0|2,0:0|2:1,0:0:0:0:
32,144,41960,5,0,0:0:0:0:
32,144,42293,2,0,B|29:168|29:168|8:199,1,47.5,2|0,2:1|0:0,0:0:0:0:
16,264,42460,2,0,B|3:283|3:283|0:307,1,47.5
76,312,42627,5,0,0:0:0:0:
152,320,42793,1,0,0:0:0:0:
216,284,42960,1,2,2:1:0:0:
240,216,43127,1,0,0:0:0:0:
152,148,43293,5,0,0:0:0:0:
152,148,43377,1,2,2:3:0:0:
216,284,43627,1,2,2:1:0:0:
304,164,43793,1,0,0:0:0:0:
184,216,43960,5,0,0:0:0:0:
184,216,44071,2,0,L|256:204,1,63.3333333333333
376,140,44293,5,2,2:1:0:0:
404,212,44460,1,0,0:0:0:0:
384,64,44627,5,0,0:0:0:0:
392,44,44710,1,0,0:0:0:0:
408,28,44793,1,2,2:1:0:0:
376,184,44960,1,2,2:1:0:0:
252,60,45127,2,0,L|258:12,2,47.5
256,192,46627,12,0,47627,0:0:0:0:
456,156,47960,5,0,3:0:0:0:
380,144,48127,2,0,B|376:168|376:168|400:212,2,47.5,0|0|0,0:0|0:0|3:2,0:0:0:0:
428,84,48460,1,8,3:2:0:0:
316,108,48627,2,0,L|324:-8,1,95,2|8,0:0|3:3,0:0:0:0:
236,100,48960,1,0,3:0:0:0:
324,224,49127,1,8,3:2:0:0:
420,63,49293,6,0,P|364:23|324:119,1,190,2|2,0:2|3:2,0:0:0:0:
484,136,49793,2,0,B|480:112|480:112|496:80,1,47.5
468,208,49960,5,2,0:0:0:0:
260,164,50127,1,8,0:0:0:0:
368,172,50293,2,0,P|376:240|340:312,1,142.5,8|8,0:0|0:0,0:0:0:0:
324,308,50627,6,0,P|384:340|408:308,1,95,0|0,3:2|0:0,0:0:0:0:
368,172,50960,1,0,3:0:0:0:
416,244,51127,1,8,3:2:0:0:
480,192,51293,1,2,0:0:0:0:
416,244,51460,1,8,3:3:0:0:
436,116,51627,5,0,0:0:0:0:
280,164,51793,2,0,P|272:140|276:100,1,47.5,0|2,0:0|2:1,0:0:0:0:
345,129,51960,2,0,P|409:129|449:105,1,95,2|0,3:2|0:0,0:0:0:0:
496,72,52293,1,8,3:2:0:0:
204,84,52460,6,0,P|136:108|52:28,1,190,8|8,2:3|3:2,0:0:0:0:
20,136,52960,1,0,0:0:0:0:
20,136,53127,2,0,B|32:156|32:156|24:200,1,47.5,0|2,0:0|2:1,0:0:0:0:
20,252,53293,6,0,P|64:244|76:228,2,47.5,0|0|0,3:2|0:0|0:0,0:0:0:0:
0,328,53627,1,0,3:2:0:0:
68,368,53793,1,8,3:2:0:0:
112,304,53960,2,0,P|106:258|140:216,1,95,2|0,0:0|3:0,0:0:0:0:
260,296,54293,5,8,2:3:0:0:
215,357,54460,1,0,0:0:0:0:
192,363,54543,1,2,2:1:0:0:
167,358,54627,1,2,0:0:0:0:
188,288,54793,1,0,0:0:0:0:
324,332,54960,1,2,3:2:0:0:
260,296,55127,1,0,0:0:0:0:
372,276,55293,5,2,0:0:0:0:
512,196,55460,1,8,0:0:0:0:
444,48,55627,1,8,0:0:0:0:
296,136,55793,1,8,0:0:0:0:
319,137,55877,1,8,0:0:0:0:
339,150,55960,5,0,3:2:0:0:
408,160,56127,1,0,0:0:0:0:
472,120,56293,2,0,P|500:128|504:192,1,95,0|8,3:0|3:2,0:0:0:0:
232,96,56627,5,2,0:0:0:0:
156,96,56793,2,0,P|153:51|193:29,1,95,8|0,2:3|3:2,0:0:0:0:
352,40,57127,2,0,B|356:64|356:64|384:96,1,47.5,0|2,3:2|2:1,0:0:0:0:
428,36,57293,6,0,L|480:28,2,47.5,0|0|0,3:2|0:0|0:0,0:0:0:0:
376,92,57627,1,0,3:0:0:0:
304,84,57793,2,0,L|300:148,2,47.5,8|0|0,0:3|0:0|0:0,0:3:0:0:
352,20,58127,1,0,0:0:0:0:
118,244,58293,5,2,0:1:0:0:
118,244,58376,1,2,0:1:0:0:
118,244,58459,1,2,1:1:0:0:
118,244,58543,1,2,0:1:0:0:
118,244,58627,6,0,P|176:208|312:220,1,190,4|8,1:1|2:2,0:0:0:0:
301,131,59127,1,0,0:0:0:0:
316,284,59293,2,0,B|304:309|279:313|279:313|253:300|249:269,1,95,8|0,0:0|0:0,0:0:0:0:
368,224,59627,1,8,0:0:0:0:
440,248,59793,6,0,L|456:280,2,23.75,0|2|0,0:0|2:1|0:0,0:0:0:0:
480,184,59960,6,0,P|464:136|464:72,1,95,8|2,0:0|2:1,0:0:0:0:
248,12,60293,2,0,P|232:60|232:124,1,95,8|0,0:0|0:0,0:0:0:0:
156,100,60627,5,10,2:2:0:0:
228,176,60793,2,0,P|256:172|288:144,1,47.5,2|0,2:1|2:1,0:0:0:0:
336,120,60960,1,2,2:1:0:0:
340,108,61043,1,2,2:1:0:0:
344,96,61126,1,2,2:1:0:0:
348,84,61210,1,0,2:1:0:0:
416,132,61293,6,0,P|360:65|421:3,1,190,12|8,1:2|0:0,0:0:0:0:
364,196,61793,1,2,0:0:0:0:
368,268,61960,2,0,P|328:300|280:268,1,95,8|0,0:0|0:0,0:0:0:0:
300,264,62210,1,0,0:0:0:0:
284,248,62293,2,0,B|272:272|272:272|276:316,1,47.5,8|0,0:0|0:0,0:0:0:0:
332,368,62460,2,0,L|368:364,2,23.75,10|2|0,0:0|0:0|0:0,0:0:0:0:
252,360,62627,6,0,P|272:284|176:236,1,190,10|8,2:2|0:0,0:0:0:0:
96,284,63127,1,0,0:0:0:0:
28,252,63293,6,0,P|20:296|64:348,1,95,8|0,0:0|0:0,0:0:0:0:
36,364,63543,1,2,2:1:0:0:
16,376,63627,2,0,L|24:312,1,47.5,8|0,0:0|0:0,0:0:0:0:
96,284,63793,1,8,0:0:0:0:
112,356,63960,6,0,P|152:368|184:316,1,95,12|0,1:2|0:0,0:0:0:0:
184,332,64210,1,2,2:1:0:0:
184,332,64293,1,8,0:0:0:0:
248,288,64460,1,0,0:0:0:0:
160,200,64627,2,0,L|276:216,1,95,8|0,0:0|0:0,0:0:0:0:
254,212,64877,1,2,0:0:0:0:
254,212,64960,1,8,0:0:0:0:
104,252,65127,1,0,0:0:0:0:
148,100,65293,5,10,0:0:0:0:
148,24,65460,2,0,B|124:24|124:24|92:48,1,47.5,2|0,0:0|0:0,0:0:0:0:
0,64,65627,2,0,L|120:48,1,95,10|0,0:0|0:0,0:0:0:0:
224,104,65960,5,8,0:0:0:0:
76,160,66127,1,0,0:0:0:0:
96,172,66210,1,2,2:1:0:0:
120,168,66293,1,8,0:0:0:0:
8,56,66460,1,2,0:0:0:0:
112,96,66627,5,8,1:2:0:0:
189,179,66793,1,0,0:0:0:0:
133,277,66960,1,8,3:2:0:0:
21,254,67126,1,8,3:3:0:0:
0,160,67293,6,0,L|28:187,1,23.75,2|2,2:1|0:0,0:0:0:0:
22,180,67377,2,0,L|57:161,1,23.75,2|2,2:1|0:0,0:0:0:0:
48,165,67460,2,0,L|41:126,1,23.75,2|0,2:1|0:0,0:0:0:0:
42,137,67543,2,0,L|2:131,1,23.75,2|0,2:1|0:0,0:0:0:0:
11,133,67627,2,0,L|-6:168,1,23.75,2|0,2:1|0:0,2:1:0:0:
84,224,67793,1,10,2:2:0:0:
128,20,67960,6,0,P|180:4|232:8,1,95,0|8,3:0|2:3,0:0:0:0:
248,124,68210,1,8,2:3:0:0:
232,140,68293,2,0,P|232:80|280:72,1,95,8|2,3:3|3:1,0:0:0:0:
328,112,68543,1,2,3:1:0:0:
336,121,68627,5,2,3:1:0:0:
344,129,68710,1,2,3:2:0:0:
352,137,68793,1,10,3:2:0:0:
360,145,68877,1,10,3:2:0:0:
368,153,68960,1,10,3:2:0:0:
503,15,69127,6,0,L|486:205,1,190,4|8,3:2|2:3,0:0:0:0:
441,289,69627,2,0,B|468:296|480:316|480:316|489:289|504:276,1,95,2|2,1:0|0:0,0:0:0:0:
368,284,69960,2,0,L|304:304,1,47.5
360,360,70127,5,8,2:3:0:0:
376,208,70293,1,0,1:0:0:0:
248,260,70460,2,0,B|296:236|304:184|304:184|272:144|208:140,1,190,0|8,0:0|2:3,0:0:0:0:
212,120,70877,1,2,2:1:0:0:
196,136,70960,2,0,L|200:88,1,47.5,0|0,1:0|0:0,0:0:0:0:
276,8,71127,5,0,0:0:0:0:
160,24,71293,1,10,2:3:0:0:
189,90,71460,2,0,B|172:104|172:104|148:96,1,47.5,10|0,2:3|0:0,0:0:0:0:
156,4,71627,1,0,1:3:0:0:
52,52,71793,6,0,L|36:248,1,190,8|8,2:3|2:3,0:0:0:0:
120,144,72293,1,2,1:2:0:0:
36,60,72460,2,0,B|48:40|48:40|36:8,1,47.5,2|0,0:0|0:0,0:0:0:0:
0,120,72627,6,0,P|20:172|64:160,1,95,0|8,0:0|2:3,0:0:0:0:
51,170,72877,1,2,2:1:0:0:
51,170,72960,1,0,1:0:0:0:
214,136,73127,2,0,L|106:144,2,95,0|0|8,0:0|0:0|2:3,0:0:0:0:
228,116,73543,1,2,2:1:0:0:
248,104,73627,1,0,1:0:0:0:
428,36,73793,1,0,0:0:0:0:
480,224,73960,5,10,2:3:0:0:
420,176,74127,2,0,B|420:152|420:152|440:104,2,47.5,10|0|0,2:3|0:0|1:0,0:0:0:0:
476,304,74460,5,8,2:3:0:0:
476,304,74543,2,0,P|448:352|368:316,1,142.5,0|8,0:0|2:3,0:0:0:0:
268,200,74960,5,2,1:2:0:0:
200,168,75127,2,0,L|192:232,2,47.5,2|0|0,0:0|0:0|0:0,0:0:0:0:
180,284,75460,1,8,2:3:0:0:
204,288,75543,1,0,0:0:0:0:
224,280,75627,1,0,1:0:0:0:
120,220,75793,1,0,0:0:0:0:
68,32,75960,5,0,2:3:0:0:
92,31,76043,1,0,2:3:0:0:
114,40,76127,1,8,2:3:0:0:
132,53,76210,1,2,2:1:0:0:
147,70,76293,5,2,1:1:0:0:
144,95,76377,1,2,2:1:0:0:
131,118,76460,1,2,0:1:0:0:
115,137,76543,1,2,2:1:0:0:
92,149,76627,5,10,2:3:0:0:
16,84,76793,1,10,2:3:0:0:
28,104,76877,1,2,2:1:0:0:
24,128,76960,1,2,1:1:0:0:
32,232,77127,5,8,2:3:0:0:
32,232,77210,2,0,P|96:240|176:200,1,142.5,0|8,0:0|2:3,0:0:0:0:
165,209,77543,1,2,2:1:0:0:
165,209,77627,1,2,1:2:0:0:
240,40,77793,5,2,0:0:0:0:
264,44,77877,1,0,0:0:0:0:
284,60,77960,1,8,0:0:0:0:
248,160,78127,6,0,B|236:140|236:140|240:96,1,47.5,8|0,2:3|0:0,0:0:0:0:
176,80,78293,1,8,1:2:0:0:
348,20,78460,2,0,B|360:40|360:40|356:84,1,47.5,8|0,0:0|0:0,0:0:0:0:
320,128,78627,6,0,P|356:172|432:112,1,142.5,8|2,0:0|3:1,0:0:0:0:
492,52,78960,5,8,1:2:0:0:
492,52,79043,2,0,L|480:116,2,47.5,0|8|8,0:0|2:2|2:2,0:0:0:0:
404,152,79293,6,0,B|394:128|394:128|409:112,1,47.5,8|0,2:3|0:0,0:0:0:0:
284,60,79460,2,0,B|309:63|309:63|315:84,1,47.5,10|0,2:3|0:0,0:0:0:0:
420,16,79627,2,0,B|404:36|404:36|382:31,1,47.5,8|0,1:2|0:0,0:0:0:0:
252,128,79793,6,0,P|180:156|100:76,1,190,12|2,2:3|0:0,0:0:0:0:
240,228,80293,2,0,L|256:292,1,47.5,2|0,1:2|0:0,0:0:0:0:
184,304,80460,1,2,0:0:0:0:
188,328,80543,1,2,2:1:0:0:
176,348,80627,1,8,3:2:0:0:
104,312,80793,5,8,3:3:0:0:
120,240,80960,1,8,1:2:0:0:
96,320,81127,2,0,P|44:332|28:272,2,95,8|0|8,2:2|0:0|2:3,0:0:0:0:
88,164,81627,5,0,1:0:0:0:
200,208,81793,1,8,0:0:0:0:
204,184,81877,1,8,0:0:0:0:
192,164,81960,1,10,2:3:0:0:
280,92,82127,2,0,L|348:84,1,47.5,10|0,2:3|0:0,0:0:0:0:
168,88,82293,1,0,1:0:0:0:
68,32,82460,6,0,L|84:160,2,95,8|0|8,2:3|0:0|2:3,0:0:0:0:
68,32,82877,1,0,0:0:0:0:
68,32,82960,1,2,1:2:0:0:
16,164,83127,2,0,B|32:188|32:188|68:196,1,47.5,2|0,0:0|0:0,0:0:0:0:
120,236,83293,6,0,P|148:184|200:192,1,95,8|8,3:2|2:3,0:0:0:0:
178,181,83543,1,2,2:1:0:0:
178,181,83627,1,0,1:0:0:0:
256,224,83793,2,0,P|264:272|216:316,2,95,8|0|8,0:0|0:0|2:3,0:0:0:0:
220,116,84293,5,10,1:2:0:0:
376,220,84460,1,10,0:2:0:0:
356,228,84543,1,8,0:0:0:0:
332,228,84627,1,10,2:3:0:0:
416,64,84793,1,10,2:3:0:0:
416,64,84877,1,0,0:0:0:0:
416,64,84960,1,10,1:2:0:0:
336,152,85127,5,8,2:3:0:0:
336,152,85210,2,0,P|336:76|296:12,1,142.5,0|8,2:0|2:3,0:0:0:0:
220,116,85627,2,0,B|244:120|244:120|276:100,1,47.5,2|0,1:2|0:0,0:0:0:0:
184,48,85793,1,2,0:0:0:0:
168,300,85960,5,0,2:3:0:0:
192,301,86043,1,0,0:3:0:0:
214,292,86127,1,8,2:3:0:0:
232,279,86210,1,2,2:1:0:0:
247,262,86293,5,2,1:1:0:0:
244,237,86377,1,2,2:1:0:0:
231,214,86460,1,2,2:1:0:0:
215,195,86543,1,2,0:1:0:0:
192,183,86627,5,2,0:1:0:0:
116,248,86793,1,8,2:3:0:0:
128,228,86877,1,2,2:1:0:0:
124,204,86960,1,0,1:0:0:0:
48,216,87127,1,0,0:0:0:0:
252,128,87293,5,10,2:3:0:0:
124,204,87460,1,10,2:3:0:0:
104,84,87627,2,0,L|116:24,1,47.5,2|0,1:2|0:0,0:0:0:0:
184,24,87793,5,8,2:3:0:0:
184,24,87877,2,0,P|232:0|280:76,1,142.5,0|8,0:0|2:3,0:0:0:0:
336,120,88293,1,10,1:2:0:0:
272,264,88460,5,2,0:0:0:0:
256,248,88543,1,0,0:0:0:0:
248,224,88627,1,0,0:0:0:0:
412,148,88793,1,8,2:3:0:0:
433,147,88876,1,0,0:0:0:0:
456,158,88960,1,10,1:2:0:0:
272,72,89127,1,2,0:0:0:0:
172,232,89293,5,12,0:0:0:0:
104,264,89460,1,10,3:2:0:0:
104,264,89543,1,10,3:2:0:0:
104,264,89627,1,4,3:2:0:0:
28,204,89793,1,10,3:2:0:0:
28,204,89877,1,10,3:2:0:0:
28,204,89960,5,8,3:3:0:0:
8,246,90043,1,8,3:3:0:0:
10,293,90126,1,8,3:3:0:0:
35,333,90209,1,0,3:0:0:0:
76,357,90293,1,2,3:1:0:0:
123,358,90376,1,2,3:1:0:0:
165,338,90459,1,0,3:1:0:0:
192,299,90543,1,0,3:1:0:0:
198,253,90626,5,8,2:3:0:0:
198,253,90960,5,8,2:3:0:0:
180,268,91043,2,0,B|172:248|172:248|192:200,1,47.5
268,196,91210,5,0,0:0:0:0:
286,181,91293,2,0,B|294:201|294:201|274:249,2,47.5,8|0|2,2:3|0:0|2:1,0:0:0:0:
140,52,91627,6,0,L|148:104,1,47.5,8|0,2:3|0:0,0:0:0:0:
196,156,91793,1,8,0:0:0:0:
292,52,91960,1,8,2:3:0:0:
352,8,92127,1,8,0:0:0:0:
360,80,92293,6,0,L|368:132,1,47.5,10|2,2:3|2:3,0:0:0:0:
259,114,92460,2,0,P|225:82|223:35,1,95,0|10,3:2|3:3,0:0:0:0:
223,35,92960,5,8,2:3:0:0:
215,59,93043,2,0,L|83:55,1,95,0|2,0:0|2:1,0:0:0:0:
0,12,93293,5,8,2:3:0:0:
60,156,93460,1,0,0:0:0:0:
84,160,93543,1,2,2:1:0:0:
108,152,93627,1,8,2:3:0:0:
12,216,93793,1,8,0:0:0:0:
168,200,93960,5,8,2:3:0:0:
184,180,94043,2,0,P|176:264|152:288,1,95,8|2,0:0|2:1,0:0:0:0:
156,288,94293,2,0,B|180:280|180:280|228:284,1,47.5,8|0,1:3|0:0,0:0:0:0:
348,328,94460,1,10,2:2:0:0:
136,304,94627,6,0,L|268:288,1,95,8|0,2:3|0:0,0:0:0:0:
248,308,94877,1,0,0:0:0:0:
268,296,94960,2,0,P|275:272|272:228,2,47.5,8|0|0,2:3|0:0|2:3,0:0:0:0:
52,216,95293,1,10,2:3:0:0:
88,364,95460,1,0,2:3:0:0:
56,200,95627,5,8,2:3:0:0:
80,376,95793,2,0,L|148:388,1,47.5,2|2,2:3|2:1,0:0:0:0:
248,308,95960,6,0,P|215:252|248:168,1,142.5,8|0,2:3|0:0,0:0:0:0:
248,128,96293,2,0,B|252:152|252:152|228:192,1,47.5,8|0,2:3|0:0,0:0:0:0:
176,136,96460,1,8,0:0:0:0:
320,152,96627,5,8,2:3:0:0:
308,172,96710,2,0,P|256:177|204:160,1,95,8|2,0:0|2:1,0:0:0:0:
160,116,96960,2,0,L|52:132,1,95,8|8,2:3|0:0,0:0:0:0:
184,16,97293,5,8,2:3:0:0:
248,128,97460,1,8,0:0:0:0:
256,108,97543,1,8,0:0:0:0:
256,84,97627,2,0,B|252:60|252:60|264:24,1,47.5,10|0,3:3|2:3,0:0:0:0:
332,32,97793,1,0,3:3:0:0:
196,224,97960,2,0,P|252:228|260:184,1,95,8|2,3:3|2:1,0:0:0:0:
28,232,98293,5,8,2:3:0:0:
28,232,98377,2,0,L|148:216,1,95,0|2,0:0|2:1,0:0:0:0:
164,144,98627,6,0,P|128:152|132:216,1,95,8|8,2:3|0:0,0:0:0:0:
144,60,98960,1,8,2:3:0:0:
164,44,99043,1,8,0:0:0:0:
172,24,99127,1,8,0:0:0:0:
32,124,99293,5,8,2:3:0:0:
24,148,99377,2,0,P|8:92|24:32,1,95,10|0,2:2|0:0,0:0:0:0:
24,36,99627,5,8,2:3:0:0:
232,80,99793,1,0,0:0:0:0:
96,260,99960,5,10,2:3:0:0:
140,273,100043,1,2,0:3:0:0:
171,308,100126,1,8,0:0:0:0:
180,355,100209,1,8,0:0:0:0:
204,316,100293,1,8,2:3:0:0:
292,292,100460,5,8,0:0:0:0:
300,364,100627,5,10,2:3:0:0:
280,376,100710,1,2,0:0:0:0:
256,372,100793,1,10,0:0:0:0:
232,248,100960,1,10,2:3:0:0:
508,260,101127,5,10,2:3:0:0:
472,288,101210,1,2,0:0:0:0:
460,332,101293,2,0,P|388:344|316:316,1,142.5,8|0,2:3|0:0,0:0:0:0:
304,308,101627,1,8,2:3:0:0:
400,204,101793,1,0,0:0:0:0:
408,180,101877,1,0,0:0:0:0:
404,156,101960,1,8,2:3:0:0:
328,176,102127,1,10,2:2:0:0:
272,224,102293,5,8,2:3:0:0:
272,224,102377,1,8,0:0:0:0:
320,0,102543,1,0,0:0:0:0:
300,12,102627,2,0,P|300:76|328:124,1,95,8|8,2:3|0:0,0:0:0:0:
480,72,102960,1,10,3:3:0:0:
484,48,103043,1,2,3:3:0:0:
476,24,103127,1,0,3:2:0:0:
512,152,103293,5,8,3:3:0:0:
496,176,103377,2,0,L|340:164,1,142.5,0|8,0:0|2:3,0:0:0:0:
376,240,103793,1,0,0:0:0:0:
240,84,103960,6,0,P|282:108|273:153,1,95,8|0,2:3|0:0,0:0:0:0:
160,72,104293,1,8,2:3:0:0:
156,48,104377,1,0,0:0:0:0:
168,28,104460,1,2,0:1:0:0:
96,120,104627,1,8,2:3:0:0:
108,140,104710,1,0,0:0:0:0:
104,164,104794,1,8,0:0:0:0:
24,152,104960,5,8,2:3:0:0:
120,240,105127,1,8,0:0:0:0:
248,180,105293,5,8,2:3:0:0:
276,256,105460,1,8,2:3:0:0:
276,256,105543,1,8,2:3:0:0:
276,256,105627,1,0,1:2:0:0:
264,328,105793,1,8,0:0:0:0:
248,180,105960,5,0,1:0:0:0:
248,180,106043,2,0,B|252:156|252:156|276:128,1,47.5,0|8,1:0|1:3,0:0:0:0:
484,120,106293,5,0,1:0:0:0:
500,156,106376,2,0,B|496:180|496:180|472:208,1,47.5,0|10,1:0|1:3,0:0:0:0:
320,240,106543,5,2,3:1:0:0:
320,240,106627,2,2,P|236:257|124:236,1,190,14|10,1:3|2:3,2:3:0:0:
60,232,107127,2,0,P|60:260|84:296,1,47.5,2|0,2:3|0:0,0:0:0:0:
132,320,107293,5,10,2:3:0:0:
200,172,107460,1,0,0:0:0:0:
192,148,107543,1,0,0:0:0:0:
172,136,107627,2,0,P|172:88|212:44,1,95,10|0,2:3|0:0,0:0:0:0:
268,80,107877,2,0,L|272:112,1,23.75
276,92,107960,6,0,B|296:96|296:96|344:80,1,47.5,10|2,2:3|2:3,0:0:0:0:
392,104,108127,1,0,0:0:0:0:
396,80,108210,1,0,0:0:0:0:
388,56,108293,1,10,2:3:0:0:
324,16,108460,1,0,0:0:0:0:
340,160,108627,6,0,P|368:208|436:148,1,142.5,10|0,2:3|0:0,0:0:0:0:
452,160,108960,5,10,2:3:0:0:
476,156,109043,2,0,B|480:180|480:180|464:228,1,47.5,2|0,2:3|0:0,0:0:0:0:
504,272,109210,5,0,0:0:0:0:
448,320,109293,2,0,L|328:336,1,95,10|0,2:3|0:0,0:0:0:0:
284,364,109543,5,0,0:0:0:0:
264,352,109627,1,10,2:3:0:0:
372,256,109793,1,0,0:0:0:0:
392,244,109877,1,0,0:0:0:0:
416,252,109960,2,0,L|404:324,2,47.5,10|0|10,2:3|0:0|2:3,0:0:0:0:
288,152,110293,5,8,2:3:0:0:
364,0,110460,2,0,L|332:8,2,23.75,0|2|2,0:0|2:1|2:1,0:0:0:0:
376,76,110627,2,0,B|392:92|392:92|436:96,1,47.5,8|0,2:3|0:0,0:0:0:0:
436,24,110793,1,8,0:0:0:0:
440,200,110960,5,10,2:3:0:0:
429,167,111043,2,0,L|285:151,1,142.5,0|10,0:0|2:3,0:0:0:0:
189,68,111543,1,2,2:3:0:0:
209,80,111627,2,0,P|205:52|173:16,1,47.5,10|0,2:3|0:0,0:0:0:0:
74,131,111793,2,0,P|78:159|110:195,1,47.5,8|2,0:0|2:3,0:0:0:0:
88,176,111960,6,0,P|40:136|92:64,1,142.5,10|0,2:3|0:0,0:0:0:0:
88,84,112293,2,0,L|100:4,1,47.5,10|2,2:3|2:3,0:0:0:0:
168,0,112460,1,0,0:0:0:0:
176,24,112543,1,0,0:0:0:0:
196,36,112627,1,10,2:3:0:0:
172,224,112793,1,0,0:0:0:0:
320,188,112960,6,0,L|520:172,1,190,10|10,2:3|2:3,0:0:0:0:
480,316,113460,1,0,0:0:0:0:
460,308,113543,1,0,0:0:0:0:
444,292,113627,1,10,2:3:0:0:
256,220,113793,1,0,0:0:0:0:
240,180,113877,1,0,0:0:0:0:
264,140,113960,1,10,2:3:0:0:
220,332,114210,5,0,0:0:0:0:
200,352,114293,2,0,P|264:348|296:312,1,95,10|0,2:3|0:0,0:0:0:0:
352,296,114543,1,0,0:0:0:0:
428,296,114627,5,14,2:3:0:0:
352,280,114793,1,2,2:1:0:0:
368,204,114960,1,2,0:0:0:0:
444,220,115127,1,2,2:1:0:0:
436,300,115293,5,2,0:1:0:0:
246,156,115460,1,2,0:1:0:0:
269,323,115627,1,2,1:3:0:0:
410,133,115793,2,0,B|412:108|412:108|400:72,1,47.5,2|0,1:3|0:0,0:0:0:0:
340,48,115960,5,2,1:1:0:0:
320,61,116043,1,2,1:1:0:0:
301,75,116127,1,0,3:2:0:0:
280,65,116210,1,0,3:2:0:0:
259,55,116293,1,8,3:3:0:0:
240,228,116460,5,2,3:1:0:0:
256,212,116543,1,2,3:1:0:0:
260,188,116627,2,0,P|260:164|228:128,1,47.5,2|0,3:1|0:0,0:0:0:0:
128,136,116793,5,2,3:1:0:0:
152,164,116877,1,2,3:1:0:0:
160,200,116960,2,0,P|160:224|128:260,1,47.5,2|0,3:0|0:0,0:0:0:0:
12,232,117126,5,2,3:2:0:0:
48,172,117209,1,2,3:2:0:0:
48,100,117293,1,6,0:0:0:0:
